osu file format v14

[General]
AudioFilename: audio.mp3
AudioLeadIn: 0
PreviewTime: 43512
Countdown: 0
SampleSet: Soft
StackLeniency: 0.7
Mode: 3
LetterboxInBreaks: 0
SpecialStyle: 0
WidescreenStoryboard: 1

[Editor]
Bookmarks: 656,14370,21227,28084,43513,58084,62370,76084,82941,98370,113798,127513,134370,139513,144656,158370,174656,178941,192656,206370
DistanceSpacing: 0.8
BeatDivisor: 4
GridSize: 16
TimelineZoom: 1

[Metadata]
Title:Midnight Stroller
TitleUnicode:ミッドナイトストロウラ
Artist:Reol
ArtistUnicode:れをる
Creator:NightNarumi
Version:Darkened Skies
Source:
Tags:VIZL-64391 VIZL-850 VIZL-8511 Victor Musical Industries ビクターエンタテインメント Victor Entertainment pop japanese j-pop jpop electropop electronic j-rock pltrj21 reoru reworu RΞOL ギガP Giga-P sv FAMoss jrock gokusaishoku 極彩色
BeatmapID:3281872
BeatmapSetID:1014141

[Difficulty]
HPDrainRate:8
CircleSize:4
OverallDifficulty:8
ApproachRate:5
SliderMultiplier:1.4
SliderTickRate:1

[Events]
//Background and Video events
0,0,"Image.jpg",0,0
//Break Periods
//Storyboard Layer 0 (Background)
//Storyboard Layer 1 (Fail)
//Storyboard Layer 2 (Pass)
//Storyboard Layer 3 (Foreground)
//Storyboard Layer 4 (Overlay)
//Storyboard Sound Samples

[TimingPoints]
655,428.571428571429,4,2,1,50,1,0
13512,-66.6666666666667,4,2,1,50,0,0
13619,-133.333333333333,4,2,1,50,0,0
13833,-80,4,2,1,50,0,0
13860,-133.333333333333,4,2,1,50,0,0
13887,-80,4,2,1,50,0,0
13913,-133.333333333333,4,2,1,50,0,0
13940,-80,4,2,1,50,0,0
13994,-133.333333333333,4,2,1,50,0,0
14047,-80,4,2,1,50,0,0
14101,-133.333333333333,4,2,1,50,0,0
14155,-80,4,2,1,50,0,0
14208,-133.333333333333,4,2,1,50,0,0
14262,-80,4,2,1,50,0,0
14315,-133.333333333333,4,2,1,50,0,0
14369,-100,4,2,1,50,0,0
41797,-80,4,2,1,50,0,0
41905,-133.333333333333,4,2,1,50,0,0
42012,-57.1428571428571,4,2,1,50,0,0
42066,-133.333333333333,4,2,1,50,0,0
42226,-100,4,2,1,50,0,0
42333,-57.1428571428571,4,2,1,50,0,0
42360,-133.333333333333,4,2,1,50,0,0
42440,-80,4,2,1,50,0,0
42494,-133.333333333333,4,2,1,50,0,0
42547,-57.1428571428571,4,2,1,50,0,0
42601,-133.333333333333,4,2,1,50,0,0
42762,-57.1428571428571,4,2,1,50,0,0
42789,-133.333333333333,4,2,1,50,0,0
42869,-80,4,2,1,50,0,0
42922,-133.333333333333,4,2,1,50,0,0
42976,-117.647058823529,4,2,1,50,0,0
43003,-105.263157894737,4,2,1,50,0,0
43030,-95.2380952380951,4,2,1,50,0,0
43056,-86.9565217391304,4,2,1,50,0,0
43083,-57.1428571428571,4,2,1,50,0,0
43137,-133.333333333333,4,2,1,50,0,0
43297,-142.857142857143,4,2,1,50,0,0
43351,-111.111111111111,4,2,1,50,0,0
43405,-90.9090909090909,4,2,1,50,0,0
43458,-76.9230769230769,4,2,1,50,0,0
43512,-76.9230769230769,4,2,1,50,0,1
43565,-90.9090909090909,4,2,1,50,0,1
43619,-111.111111111111,4,2,1,50,0,1
43672,-142.857142857143,4,2,1,50,0,1
43726,-100,4,2,1,50,0,1
43940,-57.1428571428571,4,2,1,50,0,1
43967,-133.333333333333,4,2,1,50,0,1
44047,-100,4,2,1,50,0,1
44262,-80,4,2,1,50,0,1
44315,-133.333333333333,4,2,1,50,0,1
44369,-100,4,2,1,50,0,1
44583,-80,4,2,1,50,0,1
44636,-133.333333333333,4,2,1,50,0,1
44690,-100,4,2,1,50,0,1
44797,-57.1428571428571,4,2,1,50,0,1
44824,-133.333333333333,4,2,1,50,0,1
44904,-100,4,2,1,50,0,1
45226,-76.9230769230769,4,2,1,50,0,1
45279,-90.9090909090909,4,2,1,50,0,1
45333,-111.111111111111,4,2,1,50,0,1
45386,-142.857142857143,4,2,1,50,0,1
45440,-100,4,2,1,50,0,1
45655,-57.1428571428571,4,2,1,50,0,1
45682,-133.333333333333,4,2,1,50,0,1
45762,-100,4,2,1,50,0,1
45976,-80,4,2,1,50,0,1
46029,-133.333333333333,4,2,1,50,0,1
46083,-100,4,2,1,50,0,1
46297,-80,4,2,1,50,0,1
46350,-133.333333333333,4,2,1,50,0,1
46404,-100,4,2,1,50,0,1
46512,-57.1428571428571,4,2,1,50,0,1
46539,-133.333333333333,4,2,1,50,0,1
46619,-80,4,2,1,50,0,1
46672,-133.333333333333,4,2,1,50,0,1
46726,-100,4,2,1,50,0,1
46833,-80,4,2,1,50,0,1
46886,-133.333333333333,4,2,1,50,0,1
46940,-76.9230769230769,4,2,1,50,0,1
46993,-90.9090909090909,4,2,1,50,0,1
47047,-111.111111111111,4,2,1,50,0,1
47100,-142.857142857143,4,2,1,50,0,1
47154,-100,4,2,1,50,0,1
47369,-57.1428571428571,4,2,1,50,0,1
47396,-133.333333333333,4,2,1,50,0,1
47476,-100,4,2,1,50,0,1
47690,-80,4,2,1,50,0,1
47743,-133.333333333333,4,2,1,50,0,1
47797,-100,4,2,1,50,0,1
48012,-80,4,2,1,50,0,1
48065,-133.333333333333,4,2,1,50,0,1
48119,-100,4,2,1,50,0,1
48226,-57.1428571428571,4,2,1,50,0,1
48253,-133.333333333333,4,2,1,50,0,1
48333,-100,4,2,1,50,0,1
48655,-76.9230769230769,4,2,1,50,0,1
48708,-90.9090909090909,4,2,1,50,0,1
48762,-111.111111111111,4,2,1,50,0,1
48815,-142.857142857143,4,2,1,50,0,1
48869,-100,4,2,1,50,0,1
49083,-57.1428571428571,4,2,1,50,0,1
49110,-133.333333333333,4,2,1,50,0,1
49190,-100,4,2,1,50,0,1
49405,-80,4,2,1,50,0,1
49458,-133.333333333333,4,2,1,50,0,1
49512,-100,4,2,1,50,0,1
49726,-80,4,2,1,50,0,1
49779,-133.333333333333,4,2,1,50,0,1
49833,-100,4,2,1,50,0,1
49940,-57.1428571428571,4,2,1,50,0,1
49967,-133.333333333333,4,2,1,50,0,1
50047,-80,4,2,1,50,0,1
50100,-133.333333333333,4,2,1,50,0,1
50155,-57.1428571428571,4,2,1,50,0,1
50182,-133.333333333333,4,2,1,50,0,1
50262,-57.1428571428571,4,2,1,50,0,1
50289,-133.333333333333,4,2,1,50,0,1
50369,-76.9230769230769,4,2,1,50,0,1
50422,-90.9090909090909,4,2,1,50,0,1
50476,-111.111111111111,4,2,1,50,0,1
50529,-142.857142857143,4,2,1,50,0,1
50583,-100,4,2,1,50,0,1
50797,-57.1428571428571,4,2,1,50,0,1
50824,-133.333333333333,4,2,1,50,0,1
50904,-100,4,2,1,50,0,1
51119,-80,4,2,1,50,0,1
51172,-133.333333333333,4,2,1,50,0,1
51226,-100,4,2,1,50,0,1
51440,-80,4,2,1,50,0,1
51493,-133.333333333333,4,2,1,50,0,1
51547,-100,4,2,1,50,0,1
51654,-57.1428571428571,4,2,1,50,0,1
51681,-133.333333333333,4,2,1,50,0,1
51761,-100,4,2,1,50,0,1
52083,-76.9230769230769,4,2,1,50,0,1
52136,-90.9090909090909,4,2,1,50,0,1
52190,-111.111111111111,4,2,1,50,0,1
52243,-142.857142857143,4,2,1,50,0,1
52297,-100,4,2,1,50,0,1
52512,-57.1428571428571,4,2,1,50,0,1
52539,-133.333333333333,4,2,1,50,0,1
52619,-100,4,2,1,50,0,1
52833,-80,4,2,1,50,0,1
52886,-133.333333333333,4,2,1,50,0,1
52940,-100,4,2,1,50,0,1
53154,-80,4,2,1,50,0,1
53207,-133.333333333333,4,2,1,50,0,1
53261,-100,4,2,1,50,0,1
53369,-57.1428571428571,4,2,1,50,0,1
53396,-133.333333333333,4,2,1,50,0,1
53476,-80,4,2,1,50,0,1
53529,-133.333333333333,4,2,1,50,0,1
53583,-100,4,2,1,50,0,1
53690,-80,4,2,1,50,0,1
53743,-133.333333333333,4,2,1,50,0,1
53797,-76.9230769230769,4,2,1,50,0,1
53850,-90.9090909090909,4,2,1,50,0,1
53904,-111.111111111111,4,2,1,50,0,1
53957,-142.857142857143,4,2,1,50,0,1
54011,-100,4,2,1,50,0,1
54226,-57.1428571428571,4,2,1,50,0,1
54253,-133.333333333333,4,2,1,50,0,1
54333,-100,4,2,1,50,0,1
54547,-80,4,2,1,50,0,1
54600,-133.333333333333,4,2,1,50,0,1
54654,-100,4,2,1,50,0,1
54869,-80,4,2,1,50,0,1
54922,-133.333333333333,4,2,1,50,0,1
54976,-100,4,2,1,50,0,1
55083,-57.1428571428571,4,2,1,50,0,1
55110,-133.333333333333,4,2,1,50,0,1
55190,-100,4,2,1,50,0,1
55512,-76.9230769230769,4,2,1,50,0,1
55565,-90.9090909090909,4,2,1,50,0,1
55619,-111.111111111111,4,2,1,50,0,1
55672,-142.857142857143,4,2,1,50,0,1
55726,-100,4,2,1,50,0,1
55940,-57.1428571428571,4,2,1,50,0,1
55967,-133.333333333333,4,2,1,50,0,1
56047,-100,4,2,1,50,0,1
56262,-80,4,2,1,50,0,1
56315,-133.333333333333,4,2,1,50,0,1
56369,-100,4,2,1,50,0,1
56583,-80,4,2,1,50,0,1
56636,-133.333333333333,4,2,1,50,0,1
56690,-100,4,2,1,50,0,1
56797,-57.1428571428571,4,2,1,50,0,1
56824,-133.333333333333,4,2,1,50,0,1
56904,-80,4,2,1,50,0,1
56957,-133.333333333333,4,2,1,50,0,1
57012,-100,4,2,1,50,0,1
57119,-80,4,2,1,50,0,1
57172,-133.333333333333,4,2,1,50,0,1
57226,-76.9230769230769,4,2,1,50,0,1
57279,-90.9090909090909,4,2,1,50,0,1
57333,-111.111111111111,4,2,1,50,0,1
57386,-142.857142857143,4,2,1,50,0,1
57440,-100,4,2,1,50,0,1
57655,-57.1428571428571,4,2,1,50,0,1
57682,-133.333333333333,4,2,1,50,0,1
57762,-80,4,2,1,50,0,1
57815,-133.333333333333,4,2,1,50,0,1
57869,-100,4,2,1,50,0,1
57976,-57.1428571428571,4,2,1,50,0,1
58003,-133.333333333333,4,2,1,50,0,1
58083,-12.5,4,2,1,50,0,0
58110,-10000,4,2,1,50,0,0
58171.93875,-5000,4,2,1,50,0,0
58213.23125,-3333.33333333333,4,2,1,50,0,0
58242.136,-2500,4,2,1,50,0,0
58266.9115,-2000,4,2,1,50,0,0
58287.55775,-1666.66666666667,4,2,1,50,0,0
58308.204,-1428.57142857143,4,2,1,50,0,0
58324.721,-1250,4,2,1,50,0,0
58341.238,-1111.11111111111,4,2,1,50,0,0
58353.62575,-1000,4,2,1,50,0,0
58366.0135,-909.090909090909,4,2,1,50,0,0
58382.5305,-833.333333333333,4,2,1,50,0,0
58394.91825,-769.230769230769,4,2,1,50,0,0
58407.306,-714.285714285714,4,2,1,50,0,0
58415.5645,-666.666666666667,4,2,1,50,0,0
58427.95225,-625,4,2,1,50,0,0
58440.34,-588.235294117647,4,2,1,50,0,0
58448.5985,-555.555555555556,4,2,1,50,0,0
58460.98625,-526.315789473684,4,2,1,50,0,0
58469.24475,-500,4,2,1,50,0,0
58477.50325,-476.190476190476,4,2,1,50,0,0
58489.891,-454.545454545455,4,2,1,50,0,0
58498.1495,-434.782608695652,4,2,1,50,0,0
58506.408,-416.666666666667,4,2,1,50,0,0
58514.6665,-400,4,2,1,50,0,0
58522.925,-384.615384615385,4,2,1,50,0,0
58531.1835,-370.37037037037,4,2,1,50,0,0
58539.442,-357.142857142857,4,2,1,50,0,0
58547.7005,-344.827586206897,4,2,1,50,0,0
58555.959,-333.333333333333,4,2,1,50,0,0
58564.2175,-322.58064516129,4,2,1,50,0,0
58572.476,-312.5,4,2,1,50,0,0
58576.60525,-303.030303030303,4,2,1,50,0,0
58584.86375,-294.117647058824,4,2,1,50,0,0
58593.12225,-285.714285714286,4,2,1,50,0,0
58601.38075,-277.777777777778,4,2,1,50,0,0
58605.51,-270.27027027027,4,2,1,50,0,0
58613.7685,-263.157894736842,4,2,1,50,0,0
58622.027,-256.410256410256,4,2,1,50,0,0
58626.15625,-250,4,2,1,50,0,0
58634.41475,-243.90243902439,4,2,1,50,0,0
58638.544,-238.095238095238,4,2,1,50,0,0
58646.8025,-232.558139534884,4,2,1,50,0,0
58655.061,-227.272727272727,4,2,1,50,0,0
58659.19025,-222.222222222222,4,2,1,50,0,0
58667.44875,-217.391304347826,4,2,1,50,0,0
58671.578,-212.765957446809,4,2,1,50,0,0
58679.8365,-208.333333333333,4,2,1,50,0,0
58683.96575,-204.081632653061,4,2,1,50,0,0
58688.095,-200,4,2,1,50,0,0
58696.3535,-196.078431372549,4,2,1,50,0,0
58700.48275,-192.307692307692,4,2,1,50,0,0
58708.74125,-188.679245283019,4,2,1,50,0,0
58712.8705,-185.185185185185,4,2,1,50,0,0
58721.129,-181.818181818182,4,2,1,50,0,0
58725.25825,-178.571428571429,4,2,1,50,0,0
58729.3875,-175.438596491228,4,2,1,50,0,0
58737.646,-172.413793103448,4,2,1,50,0,0
58741.77525,-169.491525423729,4,2,1,50,0,0
58745.9045,-166.666666666667,4,2,1,50,0,0
58754.163,-163.934426229508,4,2,1,50,0,0
58758.29225,-161.290322580645,4,2,1,50,0,0
58762.4215,-158.730158730159,4,2,1,50,0,0
58766.55075,-156.25,4,2,1,50,0,0
58774.80925,-153.846153846154,4,2,1,50,0,0
58778.9385,-151.515151515152,4,2,1,50,0,0
58783.06775,-149.253731343284,4,2,1,50,0,0
58787.197,-147.058823529412,4,2,1,50,0,0
58795.4555,-144.927536231884,4,2,1,50,0,0
58799.58475,-142.857142857143,4,2,1,50,0,0
58803.714,-140.845070422535,4,2,1,50,0,0
58807.84325,-138.888888888889,4,2,1,50,0,0
58811.9725,-136.986301369863,4,2,1,50,0,0
58820.231,-135.135135135135,4,2,1,50,0,0
58824.36025,-133.333333333333,4,2,1,50,0,0
58828.4895,-131.578947368421,4,2,1,50,0,0
58832.61875,-129.87012987013,4,2,1,50,0,0
58836.748,-128.205128205128,4,2,1,50,0,0
58840.87725,-126.582278481013,4,2,1,50,0,0
58849.13575,-125,4,2,1,50,0,0
58853.265,-123.456790123457,4,2,1,50,0,0
58857.39425,-121.951219512195,4,2,1,50,0,0
58861.5235,-120.481927710843,4,2,1,50,0,0
58865.65275,-119.047619047619,4,2,1,50,0,0
58869.782,-117.647058823529,4,2,1,50,0,0
58873.91125,-116.279069767442,4,2,1,50,0,0
58878.0405,-114.942528735632,4,2,1,50,0,0
58882.16975,-113.636363636364,4,2,1,50,0,0
58890.42825,-112.359550561798,4,2,1,50,0,0
58894.5575,-111.111111111111,4,2,1,50,0,0
58898.68675,-109.89010989011,4,2,1,50,0,0
58902.816,-108.695652173913,4,2,1,50,0,0
58906.94525,-107.52688172043,4,2,1,50,0,0
58911.0745,-106.382978723404,4,2,1,50,0,0
58915.20375,-105.263157894737,4,2,1,50,0,0
58919.333,-104.166666666667,4,2,1,50,0,0
58923.46225,-103.092783505155,4,2,1,50,0,0
58927.5915,-102.040816326531,4,2,1,50,0,0
58931.72075,-101.010101010101,4,2,1,50,0,0
58935.85,-100,4,2,1,50,0,0
58940,-80,4,2,1,50,0,0
59047,-133.333333333333,4,2,1,50,0,0
59155,-100,4,2,1,50,0,0
59369,-57.1428571428571,4,2,1,50,0,0
59396,-133.333333333333,4,2,1,50,0,0
59476,-100,4,2,1,50,0,0
59690,-80,4,2,1,50,0,0
59744,-133.333333333333,4,2,1,50,0,0
59797,-100,4,2,1,50,0,0
60012,-80,4,2,1,50,0,0
60066,-133.333333333333,4,2,1,50,0,0
60119,-100,4,2,1,50,0,0
60226,-57.1428571428571,4,2,1,50,0,0
60253,-133.333333333333,4,2,1,50,0,0
60333,-100,4,2,1,50,0,0
60655,-80,4,2,1,50,0,0
60762,-133.333333333333,4,2,1,50,0,0
60870,-100,4,2,1,50,0,0
61083,-57.1428571428571,4,2,1,50,0,0
61110,-133.333333333333,4,2,1,50,0,0
61190,-100,4,2,1,50,0,0
61405,-80,4,2,1,50,0,0
61459,-133.333333333333,4,2,1,50,0,0
61512,-100,4,2,1,50,0,0
61619,-57.1428571428571,4,2,1,50,0,0
61646,-133.333333333333,4,2,1,50,0,0
61726,-80,4,2,1,50,0,0
61780,-133.333333333333,4,2,1,50,0,0
61833,-100,4,2,1,50,0,0
61940,-57.1428571428571,4,2,1,50,0,0
61967,-133.333333333333,4,2,1,50,0,0
62047,-66.6666666666667,4,2,1,50,0,0
62101,-200,4,2,1,50,0,0
62155,-57.1428571428571,4,2,1,50,0,0
62209,-400,4,2,1,50,0,0
62262,-50.251256281407,4,2,1,50,0,0
62316,-10000,4,2,1,50,0,0
62369,-100,4,2,1,50,0,0
96655,-80,4,2,1,50,0,0
96762,-133.333333333333,4,2,1,50,0,0
96869,-57.1428571428571,4,2,1,50,0,0
96922,-133.333333333333,4,2,1,50,0,0
97083,-100,4,2,1,50,0,0
97190,-57.1428571428571,4,2,1,50,0,0
97217,-133.333333333333,4,2,1,50,0,0
97297,-80,4,2,1,50,0,0
97351,-133.333333333333,4,2,1,50,0,0
97405,-100,4,2,1,50,0,0
97512,-57.1428571428571,4,2,1,50,0,0
97539,-133.333333333333,4,2,1,50,0,0
97619,-57.1428571428571,4,2,1,50,0,0
97646,-133.333333333333,4,2,1,50,0,0
97726,-80,4,2,1,50,0,0
97833,-133.333333333333,4,2,1,50,0,0
97940,-57.1428571428571,4,2,1,50,0,0
97967,-133.333333333333,4,2,1,50,0,0
98047,-57.1428571428571,4,2,1,50,0,0
98074,-133.333333333333,4,2,1,50,0,0
98155,-57.1428571428571,4,2,1,50,0,0
98182,-133.333333333333,4,2,1,50,0,0
98262,-57.1428571428571,4,2,1,50,0,0
98289,-133.333333333333,4,2,1,50,0,0
98369,-76.9230769230769,4,2,1,50,0,1
98422,-90.9090909090909,4,2,1,50,0,1
98476,-111.111111111111,4,2,1,50,0,1
98529,-142.857142857143,4,2,1,50,0,1
98583,-100,4,2,1,50,0,1
98797,-57.1428571428571,4,2,1,50,0,1
98824,-133.333333333333,4,2,1,50,0,1
98904,-100,4,2,1,50,0,1
99119,-80,4,2,1,50,0,1
99172,-133.333333333333,4,2,1,50,0,1
99226,-100,4,2,1,50,0,1
99440,-80,4,2,1,50,0,1
99493,-133.333333333333,4,2,1,50,0,1
99547,-100,4,2,1,50,0,1
99654,-57.1428571428571,4,2,1,50,0,1
99681,-133.333333333333,4,2,1,50,0,1
99761,-100,4,2,1,50,0,1
100083,-76.9230769230769,4,2,1,50,0,1
100136,-90.9090909090909,4,2,1,50,0,1
100190,-111.111111111111,4,2,1,50,0,1
100243,-142.857142857143,4,2,1,50,0,1
100297,-100,4,2,1,50,0,1
100512,-57.1428571428571,4,2,1,50,0,1
100539,-133.333333333333,4,2,1,50,0,1
100619,-100,4,2,1,50,0,1
100833,-80,4,2,1,50,0,1
100886,-133.333333333333,4,2,1,50,0,1
100940,-100,4,2,1,50,0,1
101154,-80,4,2,1,50,0,1
101207,-133.333333333333,4,2,1,50,0,1
101261,-100,4,2,1,50,0,1
101369,-57.1428571428571,4,2,1,50,0,1
101396,-133.333333333333,4,2,1,50,0,1
101476,-80,4,2,1,50,0,1
101529,-133.333333333333,4,2,1,50,0,1
101583,-100,4,2,1,50,0,1
101690,-80,4,2,1,50,0,1
101743,-133.333333333333,4,2,1,50,0,1
101797,-76.9230769230769,4,2,1,50,0,1
101850,-90.9090909090909,4,2,1,50,0,1
101904,-111.111111111111,4,2,1,50,0,1
101957,-142.857142857143,4,2,1,50,0,1
102011,-100,4,2,1,50,0,1
102226,-57.1428571428571,4,2,1,50,0,1
102253,-133.333333333333,4,2,1,50,0,1
102333,-100,4,2,1,50,0,1
102547,-80,4,2,1,50,0,1
102600,-133.333333333333,4,2,1,50,0,1
102654,-100,4,2,1,50,0,1
102869,-80,4,2,1,50,0,1
102922,-133.333333333333,4,2,1,50,0,1
102976,-100,4,2,1,50,0,1
103083,-57.1428571428571,4,2,1,50,0,1
103110,-133.333333333333,4,2,1,50,0,1
103190,-100,4,2,1,50,0,1
103512,-76.9230769230769,4,2,1,50,0,1
103565,-90.9090909090909,4,2,1,50,0,1
103619,-111.111111111111,4,2,1,50,0,1
103672,-142.857142857143,4,2,1,50,0,1
103726,-100,4,2,1,50,0,1
103940,-57.1428571428571,4,2,1,50,0,1
103967,-133.333333333333,4,2,1,50,0,1
104047,-100,4,2,1,50,0,1
104262,-80,4,2,1,50,0,1
104315,-133.333333333333,4,2,1,50,0,1
104369,-100,4,2,1,50,0,1
104583,-80,4,2,1,50,0,1
104636,-133.333333333333,4,2,1,50,0,1
104690,-100,4,2,1,50,0,1
104797,-57.1428571428571,4,2,1,50,0,1
104824,-133.333333333333,4,2,1,50,0,1
104904,-80,4,2,1,50,0,1
104957,-133.333333333333,4,2,1,50,0,1
105012,-57.1428571428571,4,2,1,50,0,1
105039,-133.333333333333,4,2,1,50,0,1
105119,-57.1428571428571,4,2,1,50,0,1
105146,-133.333333333333,4,2,1,50,0,1
105226,-76.9230769230769,4,2,1,50,0,1
105279,-90.9090909090909,4,2,1,50,0,1
105333,-111.111111111111,4,2,1,50,0,1
105386,-142.857142857143,4,2,1,50,0,1
105440,-100,4,2,1,50,0,1
105654,-57.1428571428571,4,2,1,50,0,1
105681,-133.333333333333,4,2,1,50,0,1
105761,-100,4,2,1,50,0,1
105976,-80,4,2,1,50,0,1
106029,-133.333333333333,4,2,1,50,0,1
106083,-100,4,2,1,50,0,1
106297,-80,4,2,1,50,0,1
106350,-133.333333333333,4,2,1,50,0,1
106404,-100,4,2,1,50,0,1
106511,-57.1428571428571,4,2,1,50,0,1
106538,-133.333333333333,4,2,1,50,0,1
106618,-100,4,2,1,50,0,1
106940,-76.9230769230769,4,2,1,50,0,1
106993,-90.9090909090909,4,2,1,50,0,1
107047,-111.111111111111,4,2,1,50,0,1
107100,-142.857142857143,4,2,1,50,0,1
107154,-100,4,2,1,50,0,1
107369,-57.1428571428571,4,2,1,50,0,1
107396,-133.333333333333,4,2,1,50,0,1
107476,-100,4,2,1,50,0,1
107690,-80,4,2,1,50,0,1
107743,-133.333333333333,4,2,1,50,0,1
107797,-100,4,2,1,50,0,1
108011,-80,4,2,1,50,0,1
108064,-133.333333333333,4,2,1,50,0,1
108118,-100,4,2,1,50,0,1
108226,-57.1428571428571,4,2,1,50,0,1
108253,-133.333333333333,4,2,1,50,0,1
108333,-80,4,2,1,50,0,1
108386,-133.333333333333,4,2,1,50,0,1
108440,-100,4,2,1,50,0,1
108547,-80,4,2,1,50,0,1
108600,-133.333333333333,4,2,1,50,0,1
108654,-76.9230769230769,4,2,1,50,0,1
108707,-90.9090909090909,4,2,1,50,0,1
108761,-111.111111111111,4,2,1,50,0,1
108814,-142.857142857143,4,2,1,50,0,1
108868,-100,4,2,1,50,0,1
109083,-57.1428571428571,4,2,1,50,0,1
109110,-133.333333333333,4,2,1,50,0,1
109190,-100,4,2,1,50,0,1
109404,-80,4,2,1,50,0,1
109457,-133.333333333333,4,2,1,50,0,1
109511,-100,4,2,1,50,0,1
109726,-80,4,2,1,50,0,1
109779,-133.333333333333,4,2,1,50,0,1
109833,-100,4,2,1,50,0,1
109940,-57.1428571428571,4,2,1,50,0,1
109967,-133.333333333333,4,2,1,50,0,1
110047,-100,4,2,1,50,0,1
110369,-76.9230769230769,4,2,1,50,0,1
110422,-90.9090909090909,4,2,1,50,0,1
110476,-111.111111111111,4,2,1,50,0,1
110529,-142.857142857143,4,2,1,50,0,1
110583,-100,4,2,1,50,0,1
110797,-57.1428571428571,4,2,1,50,0,1
110824,-133.333333333333,4,2,1,50,0,1
110904,-100,4,2,1,50,0,1
111119,-80,4,2,1,50,0,1
111172,-133.333333333333,4,2,1,50,0,1
111226,-100,4,2,1,50,0,1
111440,-80,4,2,1,50,0,1
111493,-133.333333333333,4,2,1,50,0,1
111547,-100,4,2,1,50,0,1
111654,-57.1428571428571,4,2,1,50,0,1
111681,-133.333333333333,4,2,1,50,0,1
111761,-80,4,2,1,50,0,1
111814,-133.333333333333,4,2,1,50,0,1
111869,-100,4,2,1,50,0,1
111976,-80,4,2,1,50,0,1
112029,-133.333333333333,4,2,1,50,0,1
112083,-76.9230769230769,4,2,1,50,0,1
112136,-90.9090909090909,4,2,1,50,0,1
112190,-111.111111111111,4,2,1,50,0,1
112243,-142.857142857143,4,2,1,50,0,1
112297,-100,4,2,1,50,0,1
112512,-57.1428571428571,4,2,1,50,0,1
112565,-133.333333333333,4,2,1,50,0,1
112726,-100,4,2,1,50,0,1
112833,-80,4,2,1,50,0,1
112886,-133.333333333333,4,2,1,50,0,1
112940,-100,4,2,1,50,0,1
113155,-80,4,2,1,50,0,1
113262,-133.333333333333,4,2,1,50,0,1
113369,-57.1428571428571,4,2,1,50,0,1
113396,-133.333333333333,4,2,1,50,0,1
113476,-80,4,2,1,50,0,1
113583,-100,4,2,1,50,0,1
113690,-133.333333333333,4,2,1,50,0,1
113797,-133.333333333333,4,2,1,50,0,0
114303.884615385,-131.578947368421,4,2,1,50,0,0
114810.769230769,-129.87012987013,4,2,1,50,0,0
115317.653846154,-128.205128205128,4,2,1,50,0,0
115824.538461538,-126.582278481013,4,2,1,50,0,0
116331.423076923,-125,4,2,1,50,0,0
116838.307692308,-123.456790123457,4,2,1,50,0,0
117345.192307692,-121.951219512195,4,2,1,50,0,0
117852.076923077,-120.481927710843,4,2,1,50,0,0
118358.961538462,-119.047619047619,4,2,1,50,0,0
118865.846153846,-117.647058823529,4,2,1,50,0,0
119372.730769231,-116.279069767442,4,2,1,50,0,0
119879.615384615,-114.942528735632,4,2,1,50,0,0
120386.5,-113.636363636364,4,2,1,50,0,0
120893.384615385,-112.359550561798,4,2,1,50,0,0
121400.269230769,-111.111111111111,4,2,1,50,0,0
121907.153846154,-109.89010989011,4,2,1,50,0,0
122414.038461538,-108.695652173913,4,2,1,50,0,0
122920.923076923,-107.52688172043,4,2,1,50,0,0
123427.807692308,-106.382978723404,4,2,1,50,0,0
123934.692307692,-105.263157894737,4,2,1,50,0,0
124441.576923077,-104.166666666667,4,2,1,50,0,0
124948.461538462,-103.092783505155,4,2,1,50,0,0
125455.346153846,-102.040816326531,4,2,1,50,0,0
125962.230769231,-101.010101010101,4,2,1,50,0,0
126469.115384615,-100,4,2,1,50,0,0
126976,-57.1428571428571,4,2,1,50,0,0
127030,-133.333333333333,4,2,1,50,0,0
127190,-57.1428571428571,4,2,1,50,0,0
127217,-133.333333333333,4,2,1,50,0,0
127297,-57.1428571428571,4,2,1,50,0,0
127324,-133.333333333333,4,2,1,50,0,0
127405,-57.1428571428571,4,2,1,50,0,0
127432,-133.333333333333,4,2,1,50,0,0
127512,-33.3333333333333,4,2,1,50,0,0
127538,-40,4,2,1,50,0,0
127565,-100,4,2,1,50,0,0
127591,-200,4,2,1,50,0,0
127619,-100,4,2,1,50,0,0
127646,-200,4,2,1,50,0,0
127672,-100,4,2,1,50,0,0
127699,-200,4,2,1,50,0,0
127726,-100,4,2,1,50,0,0
127753,-200,4,2,1,50,0,0
127780,-100,4,2,1,50,0,0
127807,-200,4,2,1,50,0,0
127833,-100,4,2,1,50,0,0
127860,-200,4,2,1,50,0,0
127887,-100,4,2,1,50,0,0
127914,-200,4,2,1,50,0,0
127940,-66.6666666666667,4,2,1,50,0,0
128047,-133.333333333333,4,2,1,50,0,0
128262,-44.4444444444445,4,2,1,50,0,0
128315,-133.333333333333,4,2,1,50,0,0
128583,-50,4,2,1,50,0,0
128610,-66.6666666666667,4,2,1,50,0,0
128637,-100,4,2,1,50,0,0
128664,-200,4,2,1,50,0,0
128690,-100,4,2,1,50,0,0
128717,-200,4,2,1,50,0,0
128744,-100,4,2,1,50,0,0
128771,-200,4,2,1,50,0,0
128797,-80,4,2,1,50,0,0
128851,-133.333333333333,4,2,1,50,0,0
128905,-40,4,2,1,50,0,0
128931,-50,4,2,1,50,0,0
128958,-100,4,2,1,50,0,0
128985,-200,4,2,1,50,0,0
129012,-100,4,2,1,50,0,0
129039,-200,4,2,1,50,0,0
129065,-100,4,2,1,50,0,0
129092,-200,4,2,1,50,0,0
129119,-100,4,2,1,50,0,0
129146,-200,4,2,1,50,0,0
129172,-100,4,2,1,50,0,0
129199,-200,4,2,1,50,0,0
129226,-33.3333333333333,4,2,1,50,0,0
129252,-40,4,2,1,50,0,0
129280,-100,4,2,1,50,0,0
129307,-200,4,2,1,50,0,0
129333,-100,4,2,1,50,0,0
129360,-200,4,2,1,50,0,0
129387,-100,4,2,1,50,0,0
129414,-200,4,2,1,50,0,0
129440,-100,4,2,1,50,0,0
129467,-200,4,2,1,50,0,0
129494,-100,4,2,1,50,0,0
129521,-200,4,2,1,50,0,0
129547,-100,4,2,1,50,0,0
129574,-200,4,2,1,50,0,0
129601,-100,4,2,1,50,0,0
129628,-200,4,2,1,50,0,0
129655,-66.6666666666667,4,2,1,50,0,0
129762,-133.333333333333,4,2,1,50,0,0
129976,-44.4444444444445,4,2,1,50,0,0
130029,-133.333333333333,4,2,1,50,0,0
130297,-50,4,2,1,50,0,0
130324,-66.6666666666667,4,2,1,50,0,0
130351,-100,4,2,1,50,0,0
130378,-200,4,2,1,50,0,0
130405,-100,4,2,1,50,0,0
130432,-200,4,2,1,50,0,0
130458,-100,4,2,1,50,0,0
130485,-200,4,2,1,50,0,0
130511,-80,4,2,1,50,0,0
130565,-133.333333333333,4,2,1,50,0,0
130619,-40,4,2,1,50,0,0
130645,-50,4,2,1,50,0,0
130672,-100,4,2,1,50,0,0
130699,-200,4,2,1,50,0,0
130726,-100,4,2,1,50,0,0
130753,-200,4,2,1,50,0,0
130780,-100,4,2,1,50,0,0
130807,-200,4,2,1,50,0,0
130833,-100,4,2,1,50,0,0
130860,-200,4,2,1,50,0,0
130887,-100,4,2,1,50,0,0
130914,-200,4,2,1,50,0,0
130940,-33.3333333333333,4,2,1,50,0,0
130966,-40,4,2,1,50,0,0
130994,-100,4,2,1,50,0,0
131021,-200,4,2,1,50,0,0
131047,-100,4,2,1,50,0,0
131074,-200,4,2,1,50,0,0
131101,-100,4,2,1,50,0,0
131128,-200,4,2,1,50,0,0
131155,-100,4,2,1,50,0,0
131182,-200,4,2,1,50,0,0
131208,-100,4,2,1,50,0,0
131235,-200,4,2,1,50,0,0
131262,-100,4,2,1,50,0,0
131289,-200,4,2,1,50,0,0
131315,-100,4,2,1,50,0,0
131342,-200,4,2,1,50,0,0
131369,-66.6666666666667,4,2,1,50,0,0
131476,-133.333333333333,4,2,1,50,0,0
131690,-44.4444444444445,4,2,1,50,0,0
131743,-133.333333333333,4,2,1,50,0,0
132012,-50,4,2,1,50,0,0
132039,-66.6666666666667,4,2,1,50,0,0
132065,-100,4,2,1,50,0,0
132092,-200,4,2,1,50,0,0
132119,-100,4,2,1,50,0,0
132146,-200,4,2,1,50,0,0
132172,-100,4,2,1,50,0,0
132199,-200,4,2,1,50,0,0
132226,-80,4,2,1,50,0,0
132280,-133.333333333333,4,2,1,50,0,0
132333,-40,4,2,1,50,0,0
132359,-50,4,2,1,50,0,0
132387,-100,4,2,1,50,0,0
132414,-200,4,2,1,50,0,0
132440,-100,4,2,1,50,0,0
132467,-200,4,2,1,50,0,0
132494,-100,4,2,1,50,0,0
132521,-200,4,2,1,50,0,0
132547,-100,4,2,1,50,0,0
132574,-200,4,2,1,50,0,0
132601,-100,4,2,1,50,0,0
132628,-200,4,2,1,50,0,0
132655,-50,4,2,1,50,0,0
132682,-66.6666666666667,4,2,1,50,0,0
132708,-100,4,2,1,50,0,0
132735,-200,4,2,1,50,0,0
132762,-100,4,2,1,50,0,0
132789,-200,4,2,1,50,0,0
132815,-100,4,2,1,50,0,0
132842,-200,4,2,1,50,0,0
132869,-100,4,2,1,50,0,0
132976,-80,4,2,1,50,0,0
133030,-133.333333333333,4,2,1,50,0,0
133083,-40,4,2,1,50,0,0
133110,-50,4,2,1,50,0,0
133137,-100,4,2,1,50,0,0
133164,-200,4,2,1,50,0,0
133190,-100,4,2,1,50,0,0
133217,-200,4,2,1,50,0,0
133244,-100,4,2,1,50,0,0
133271,-200,4,2,1,50,0,0
133297,-100,4,2,1,50,0,0
133324,-200,4,2,1,50,0,0
133351,-100,4,2,1,50,0,0
133378,-200,4,2,1,50,0,0
133405,-50,4,2,1,50,0,0
133432,-66.6666666666667,4,2,1,50,0,0
133458,-100,4,2,1,50,0,0
133485,-200,4,2,1,50,0,0
133512,-100,4,2,1,50,0,0
133539,-200,4,2,1,50,0,0
133565,-100,4,2,1,50,0,0
133592,-200,4,2,1,50,0,0
133619,-66.6666666666667,4,2,1,50,0,0
133646,-100,4,2,1,50,0,0
133699,-200,4,2,1,50,0,0
133726,-50,4,2,1,50,0,0
133753,-66.6666666666667,4,2,1,50,0,0
133780,-100,4,2,1,50,0,0
133807,-200,4,2,1,50,0,0
133833,-100,4,2,1,50,0,0
133860,-200,4,2,1,50,0,0
133887,-100,4,2,1,50,0,0
133914,-200,4,2,1,50,0,0
133940,-57.1428571428571,4,2,1,50,0,0
133967,-133.333333333333,4,2,1,50,0,0
133994,-100,4,2,1,50,0,0
134021,-200,4,2,1,50,0,0
134047,-66.6666666666667,4,2,1,50,0,0
134074,-100,4,2,1,50,0,0
134128,-200,4,2,1,50,0,0
134155,-57.1428571428571,4,2,1,50,0,0
134182,-80,4,2,1,50,0,0
134208,-133.333333333333,4,2,1,50,0,0
134235,-400,4,2,1,50,0,0
134262,-50,4,2,1,50,0,0
134289,-66.6666666666667,4,2,1,50,0,0
134316,-204.081632653061,4,2,1,50,0,0
134343,-10000,4,2,1,50,0,0
134369,-66.6666666666667,4,2,1,50,0,0
134396,-100,4,2,1,50,0,0
134449,-200,4,2,1,50,0,0
134476,-80,4,2,1,50,0,0
134503,-133.333333333333,4,2,1,50,0,0
134530,-80,4,2,1,50,0,0
134557,-133.333333333333,4,2,1,50,0,0
134583,-80,4,2,1,50,0,0
134610,-133.333333333333,4,2,1,50,0,0
134637,-80,4,2,1,50,0,0
134664,-133.333333333333,4,2,1,50,0,0
134690,-80,4,2,1,50,0,0
134717,-133.333333333333,4,2,1,50,0,0
134744,-80,4,2,1,50,0,0
134771,-133.333333333333,4,2,1,50,0,0
134797,-80,4,2,1,50,0,0
134851,-133.333333333333,4,2,1,50,0,0
134905,-100,4,2,1,50,0,0
135119,-57.1428571428571,4,2,1,50,0,0
135146,-133.333333333333,4,2,1,50,0,0
135226,-100,4,2,1,50,0,0
135440,-50,4,2,1,50,0,0
135467,-66.6666666666667,4,2,1,50,0,0
135494,-100,4,2,1,50,0,0
135521,-200,4,2,1,50,0,0
135547,-100,4,2,1,50,0,0
135574,-200,4,2,1,50,0,0
135601,-100,4,2,1,50,0,0
135628,-200,4,2,1,50,0,0
135655,-80,4,2,1,50,0,0
135709,-133.333333333333,4,2,1,50,0,0
135762,-50,4,2,1,50,0,0
135789,-66.6666666666667,4,2,1,50,0,0
135816,-100,4,2,1,50,0,0
135843,-200,4,2,1,50,0,0
135869,-100,4,2,1,50,0,0
135896,-200,4,2,1,50,0,0
135923,-100,4,2,1,50,0,0
135950,-200,4,2,1,50,0,0
135976,-66.6666666666667,4,2,1,50,0,0
136003,-100,4,2,1,50,0,0
136056,-200,4,2,1,50,0,0
136083,-66.6666666666667,4,2,1,50,0,0
136110,-100,4,2,1,50,0,0
136163,-200,4,2,1,50,0,0
136190,-80,4,2,1,50,0,0
136217,-133.333333333333,4,2,1,50,0,0
136244,-80,4,2,1,50,0,0
136271,-133.333333333333,4,2,1,50,0,0
136297,-80,4,2,1,50,0,0
136324,-133.333333333333,4,2,1,50,0,0
136351,-80,4,2,1,50,0,0
136378,-133.333333333333,4,2,1,50,0,0
136404,-80,4,2,1,50,0,0
136431,-133.333333333333,4,2,1,50,0,0
136458,-80,4,2,1,50,0,0
136485,-133.333333333333,4,2,1,50,0,0
136512,-80,4,2,1,50,0,0
136566,-133.333333333333,4,2,1,50,0,0
136620,-100,4,2,1,50,0,0
136833,-57.1428571428571,4,2,1,50,0,0
136860,-133.333333333333,4,2,1,50,0,0
136940,-100,4,2,1,50,0,0
137155,-50,4,2,1,50,0,0
137182,-66.6666666666667,4,2,1,50,0,0
137209,-100,4,2,1,50,0,0
137236,-200,4,2,1,50,0,0
137262,-100,4,2,1,50,0,0
137289,-200,4,2,1,50,0,0
137316,-100,4,2,1,50,0,0
137343,-200,4,2,1,50,0,0
137369,-80,4,2,1,50,0,0
137423,-133.333333333333,4,2,1,50,0,0
137476,-50,4,2,1,50,0,0
137503,-66.6666666666667,4,2,1,50,0,0
137530,-100,4,2,1,50,0,0
137557,-200,4,2,1,50,0,0
137583,-100,4,2,1,50,0,0
137610,-200,4,2,1,50,0,0
137637,-100,4,2,1,50,0,0
137664,-200,4,2,1,50,0,0
137690,-66.6666666666667,4,2,1,50,0,0
137717,-100,4,2,1,50,0,0
137771,-200,4,2,1,50,0,0
137797,-66.6666666666667,4,2,1,50,0,0
137824,-100,4,2,1,50,0,0
137877,-200,4,2,1,50,0,0
137904,-80,4,2,1,50,0,0
137931,-133.333333333333,4,2,1,50,0,0
137958,-80,4,2,1,50,0,0
137985,-133.333333333333,4,2,1,50,0,0
138011,-80,4,2,1,50,0,0
138038,-133.333333333333,4,2,1,50,0,0
138065,-80,4,2,1,50,0,0
138092,-133.333333333333,4,2,1,50,0,0
138118,-80,4,2,1,50,0,0
138145,-133.333333333333,4,2,1,50,0,0
138172,-80,4,2,1,50,0,0
138199,-133.333333333333,4,2,1,50,0,0
138226,-80,4,2,1,50,0,0
138280,-133.333333333333,4,2,1,50,0,0
138334,-100,4,2,1,50,0,0
138547,-57.1428571428571,4,2,1,50,0,0
138574,-133.333333333333,4,2,1,50,0,0
138654,-100,4,2,1,50,0,0
138869,-50,4,2,1,50,0,0
138896,-66.6666666666667,4,2,1,50,0,0
138923,-100,4,2,1,50,0,0
138950,-200,4,2,1,50,0,0
138976,-100,4,2,1,50,0,0
139003,-200,4,2,1,50,0,0
139030,-100,4,2,1,50,0,0
139057,-200,4,2,1,50,0,0
139083,-80,4,2,1,50,0,0
139137,-133.333333333333,4,2,1,50,0,0
139190,-50,4,2,1,50,0,0
139217,-66.6666666666667,4,2,1,50,0,0
139244,-100,4,2,1,50,0,0
139271,-200,4,2,1,50,0,0
139297,-100,4,2,1,50,0,0
139324,-200,4,2,1,50,0,0
139351,-100,4,2,1,50,0,0
139378,-200,4,2,1,50,0,0
139405,-66.6666666666667,4,2,1,50,0,0
139432,-100,4,2,1,50,0,0
139486,-200,4,2,1,50,0,0
139512,-66.6666666666667,4,2,1,50,0,0
139538,-100,4,2,1,50,0,0
139592,-200,4,2,1,50,0,0
139619,-80,4,2,1,50,0,0
139646,-133.333333333333,4,2,1,50,0,0
139672,-80,4,2,1,50,0,0
139699,-133.333333333333,4,2,1,50,0,0
139726,-100,4,2,1,50,0,0
139833,-66.6666666666667,4,2,1,50,0,0
139859,-100,4,2,1,50,0,0
139913,-200,4,2,1,50,0,0
139940,-57.1428571428571,4,2,1,50,0,0
139967,-133.333333333333,4,2,1,50,0,0
139994,-100,4,2,1,50,0,0
140021,-200,4,2,1,50,0,0
140048,-100,4,2,1,50,0,0
140155,-66.6666666666667,4,2,1,50,0,0
140181,-100,4,2,1,50,0,0
140235,-200,4,2,1,50,0,0
140262,-80,4,2,1,50,0,0
140289,-133.333333333333,4,2,1,50,0,0
140315,-80,4,2,1,50,0,0
140342,-133.333333333333,4,2,1,50,0,0
140369,-100,4,2,1,50,0,0
140476,-66.6666666666667,4,2,1,50,0,0
140502,-100,4,2,1,50,0,0
140556,-200,4,2,1,50,0,0
140583,-57.1428571428571,4,2,1,50,0,0
140610,-133.333333333333,4,2,1,50,0,0
140637,-100,4,2,1,50,0,0
140664,-200,4,2,1,50,0,0
140691,-100,4,2,1,50,0,0
140797,-66.6666666666667,4,2,1,50,0,0
140823,-100,4,2,1,50,0,0
140877,-200,4,2,1,50,0,0
140904,-80,4,2,1,50,0,0
140931,-133.333333333333,4,2,1,50,0,0
140957,-80,4,2,1,50,0,0
140984,-133.333333333333,4,2,1,50,0,0
141012,-57.1428571428571,4,2,1,50,0,0
141038,-133.333333333333,4,2,1,50,0,0
141065,-100,4,2,1,50,0,0
141092,-200,4,2,1,50,0,0
141119,-57.1428571428571,4,2,1,50,0,0
141146,-133.333333333333,4,2,1,50,0,0
141226,-66.6666666666667,4,2,1,50,0,0
141252,-100,4,2,1,50,0,0
141306,-200,4,2,1,50,0,0
141333,-80,4,2,1,50,0,0
141360,-133.333333333333,4,2,1,50,0,0
141386,-80,4,2,1,50,0,0
141413,-133.333333333333,4,2,1,50,0,0
141440,-57.1428571428571,4,2,1,50,0,0
141467,-133.333333333333,4,2,1,50,0,0
141547,-66.6666666666667,4,2,1,50,0,0
141573,-100,4,2,1,50,0,0
141627,-200,4,2,1,50,0,0
141654,-80,4,2,1,50,0,0
141681,-133.333333333333,4,2,1,50,0,0
141707,-80,4,2,1,50,0,0
141734,-133.333333333333,4,2,1,50,0,0
141762,-57.1428571428571,4,2,1,50,0,0
141789,-133.333333333333,4,2,1,50,0,0
141869,-66.6666666666667,4,2,1,50,0,0
141895,-100,4,2,1,50,0,0
141949,-200,4,2,1,50,0,0
141976,-80,4,2,1,50,0,0
142003,-133.333333333333,4,2,1,50,0,0
142029,-80,4,2,1,50,0,0
142056,-133.333333333333,4,2,1,50,0,0
142083,-57.1428571428571,4,2,1,50,0,0
142110,-133.333333333333,4,2,1,50,0,0
142190,-80,4,2,1,50,0,0
142243,-133.333333333333,4,2,1,50,0,0
142297,-80,4,2,1,50,0,0
142350,-133.333333333333,4,2,1,50,0,0
142405,-57.1428571428571,4,2,1,50,0,0
142432,-133.333333333333,4,2,1,50,0,0
142512,-66.6666666666667,4,2,1,50,0,0
142538,-100,4,2,1,50,0,0
142592,-200,4,2,1,50,0,0
142619,-80,4,2,1,50,0,0
142646,-133.333333333333,4,2,1,50,0,0
142672,-80,4,2,1,50,0,0
142699,-133.333333333333,4,2,1,50,0,0
142726,-100,4,2,1,50,0,0
142833,-10000,4,2,1,50,0,0
142978.76,-5000,4,2,1,50,0,0
143069.86,-3333.33333333333,4,2,1,50,0,0
143124.52,-2500,4,2,1,50,0,0
143179.18,-2000,4,2,1,50,0,0
143233.84,-1666.66666666667,4,2,1,50,0,0
143270.28,-1428.57142857143,4,2,1,50,0,0
143306.72,-1250,4,2,1,50,0,0
143343.16,-1111.11111111111,4,2,1,50,0,0
143379.6,-1000,4,2,1,50,0,0
143397.82,-909.090909090909,4,2,1,50,0,0
143434.26,-833.333333333333,4,2,1,50,0,0
143452.48,-769.230769230769,4,2,1,50,0,0
143488.92,-714.285714285714,4,2,1,50,0,0
143507.14,-666.666666666667,4,2,1,50,0,0
143525.36,-625,4,2,1,50,0,0
143561.8,-588.235294117647,4,2,1,50,0,0
143580.02,-555.555555555556,4,2,1,50,0,0
143598.24,-526.315789473684,4,2,1,50,0,0
143616.46,-500,4,2,1,50,0,0
143634.68,-476.190476190476,4,2,1,50,0,0
143671.12,-454.545454545455,4,2,1,50,0,0
143689.34,-434.782608695652,4,2,1,50,0,0
143707.56,-416.666666666667,4,2,1,50,0,0
143725.78,-400,4,2,1,50,0,0
143744,-384.615384615385,4,2,1,50,0,0
143762.22,-370.37037037037,4,2,1,50,0,0
143780.44,-357.142857142857,4,2,1,50,0,0
143798.66,-344.827586206897,4,2,1,50,0,0
143816.88,-333.333333333333,4,2,1,50,0,0
143835.1,-312.5,4,2,1,50,0,0
143853.32,-303.030303030303,4,2,1,50,0,0
143871.54,-294.117647058824,4,2,1,50,0,0
143889.76,-285.714285714286,4,2,1,50,0,0
143907.98,-277.777777777778,4,2,1,50,0,0
143926.2,-270.27027027027,4,2,1,50,0,0
143944.42,-256.410256410256,4,2,1,50,0,0
143962.64,-250,4,2,1,50,0,0
143980.86,-243.90243902439,4,2,1,50,0,0
143999.08,-238.095238095238,4,2,1,50,0,0
144017.3,-227.272727272727,4,2,1,50,0,0
144035.52,-222.222222222222,4,2,1,50,0,0
144053.74,-217.391304347826,4,2,1,50,0,0
144071.96,-208.333333333333,4,2,1,50,0,0
144090.18,-204.081632653061,4,2,1,50,0,0
144108.4,-200,4,2,1,50,0,0
144126.62,-192.307692307692,4,2,1,50,0,0
144144.84,-188.679245283019,4,2,1,50,0,0
144163.06,-181.818181818182,4,2,1,50,0,0
144181.28,-178.571428571429,4,2,1,50,0,0
144199.5,-172.413793103448,4,2,1,50,0,0
144217.72,-169.491525423729,4,2,1,50,0,0
144235.94,-163.934426229508,4,2,1,50,0,0
144254.16,-161.290322580645,4,2,1,50,0,0
144272.38,-156.25,4,2,1,50,0,0
144290.6,-151.515151515152,4,2,1,50,0,0
144308.82,-149.253731343284,4,2,1,50,0,0
144327.04,-144.927536231884,4,2,1,50,0,0
144345.26,-140.845070422535,4,2,1,50,0,0
144363.48,-138.888888888889,4,2,1,50,0,0
144381.7,-135.135135135135,4,2,1,50,0,0
144399.92,-131.578947368421,4,2,1,50,0,0
144418.14,-129.87012987013,4,2,1,50,0,0
144436.36,-126.582278481013,4,2,1,50,0,0
144454.58,-123.456790123457,4,2,1,50,0,0
144472.8,-120.481927710843,4,2,1,50,0,0
144491.02,-117.647058823529,4,2,1,50,0,0
144509.24,-116.279069767442,4,2,1,50,0,0
144527.46,-113.636363636364,4,2,1,50,0,0
144545.68,-111.111111111111,4,2,1,50,0,0
144563.9,-108.695652173913,4,2,1,50,0,0
144582.12,-106.382978723404,4,2,1,50,0,0
144600.34,-104.166666666667,4,2,1,50,0,0
144618.56,-102.040816326531,4,2,1,50,0,0
144636.78,-100,4,2,1,50,0,0
156226,-57.1428571428571,4,2,1,50,0,0
156253,-133.333333333333,4,2,1,50,0,0
156333,-80,4,2,1,50,0,0
156387,-133.333333333333,4,2,1,50,0,0
156440,-100,4,2,1,50,0,0
156547,-57.1428571428571,4,2,1,50,0,0
156574,-133.333333333333,4,2,1,50,0,0
156655,-80,4,2,1,50,0,0
156709,-133.333333333333,4,2,1,50,0,0
156762,-57.1428571428571,4,2,1,50,0,0
156789,-133.333333333333,4,2,1,50,0,0
156869,-100,4,2,1,50,0,0
156976,-80,4,2,1,50,0,0
157030,-133.333333333333,4,2,1,50,0,0
157083,-57.1428571428571,4,2,1,50,0,0
157110,-133.333333333333,4,2,1,50,0,0
157190,-100,4,2,1,50,0,0
157297,-57.1428571428571,4,2,1,50,0,0
157324,-133.333333333333,4,2,1,50,0,0
157405,-80,4,2,1,50,0,0
157459,-133.333333333333,4,2,1,50,0,0
157512,-100,4,2,1,50,0,0
157619,-57.1428571428571,4,2,1,50,0,0
157646,-133.333333333333,4,2,1,50,0,0
157726,-80,4,2,1,50,0,0
157780,-133.333333333333,4,2,1,50,0,0
157833,-100,4,2,1,50,0,0
157940,-57.1428571428571,4,2,1,50,0,0
157967,-133.333333333333,4,2,1,50,0,0
158047,-80,4,2,1,50,0,0
158101,-133.333333333333,4,2,1,50,0,0
158155,-57.1428571428571,4,2,1,50,0,0
158182,-133.333333333333,4,2,1,50,0,0
158262,-57.1428571428571,4,2,1,50,0,0
158289,-133.333333333333,4,2,1,50,0,0
158369,-80,4,2,1,50,0,1
158422,-133.333333333333,4,2,1,50,0,1
158476,-100,4,2,1,50,0,1
158797,-57.1428571428571,4,2,1,50,0,1
158824,-133.333333333333,4,2,1,50,0,1
158904,-100,4,2,1,50,0,1
159119,-80,4,2,1,50,0,1
159172,-133.333333333333,4,2,1,50,0,1
159226,-100,4,2,1,50,0,1
159440,-80,4,2,1,50,0,1
159493,-133.333333333333,4,2,1,50,0,1
159547,-100,4,2,1,50,0,1
159654,-57.1428571428571,4,2,1,50,0,1
159681,-133.333333333333,4,2,1,50,0,1
159761,-100,4,2,1,50,0,1
160083,-80,4,2,1,50,0,1
160136,-133.333333333333,4,2,1,50,0,1
160190,-100,4,2,1,50,0,1
160512,-57.1428571428571,4,2,1,50,0,1
160539,-133.333333333333,4,2,1,50,0,1
160619,-100,4,2,1,50,0,1
160833,-80,4,2,1,50,0,1
160886,-133.333333333333,4,2,1,50,0,1
160940,-100,4,2,1,50,0,1
161154,-80,4,2,1,50,0,1
161207,-133.333333333333,4,2,1,50,0,1
161261,-100,4,2,1,50,0,1
161369,-57.1428571428571,4,2,1,50,0,1
161396,-133.333333333333,4,2,1,50,0,1
161476,-80,4,2,1,50,0,1
161529,-133.333333333333,4,2,1,50,0,1
161583,-100,4,2,1,50,0,1
161690,-80,4,2,1,50,0,1
161743,-133.333333333333,4,2,1,50,0,1
161797,-80,4,2,1,50,0,1
161850,-133.333333333333,4,2,1,50,0,1
161904,-100,4,2,1,50,0,1
162226,-57.1428571428571,4,2,1,50,0,1
162253,-133.333333333333,4,2,1,50,0,1
162333,-100,4,2,1,50,0,1
162547,-80,4,2,1,50,0,1
162600,-133.333333333333,4,2,1,50,0,1
162654,-100,4,2,1,50,0,1
162869,-80,4,2,1,50,0,1
162922,-133.333333333333,4,2,1,50,0,1
162976,-100,4,2,1,50,0,1
163083,-57.1428571428571,4,2,1,50,0,1
163110,-133.333333333333,4,2,1,50,0,1
163190,-100,4,2,1,50,0,1
163512,-80,4,2,1,50,0,1
163565,-133.333333333333,4,2,1,50,0,1
163619,-100,4,2,1,50,0,1
163940,-57.1428571428571,4,2,1,50,0,1
163967,-133.333333333333,4,2,1,50,0,1
164047,-100,4,2,1,50,0,1
164262,-80,4,2,1,50,0,1
164315,-133.333333333333,4,2,1,50,0,1
164369,-100,4,2,1,50,0,1
164583,-80,4,2,1,50,0,1
164636,-133.333333333333,4,2,1,50,0,1
164690,-100,4,2,1,50,0,1
164797,-57.1428571428571,4,2,1,50,0,1
164824,-133.333333333333,4,2,1,50,0,1
164904,-80,4,2,1,50,0,1
164957,-133.333333333333,4,2,1,50,0,1
165012,-57.1428571428571,4,2,1,50,0,1
165039,-133.333333333333,4,2,1,50,0,1
165119,-57.1428571428571,4,2,1,50,0,1
165146,-133.333333333333,4,2,1,50,0,1
165226,-80,4,2,1,50,0,1
165279,-133.333333333333,4,2,1,50,0,1
165333,-100,4,2,1,50,0,1
165654,-57.1428571428571,4,2,1,50,0,1
165681,-133.333333333333,4,2,1,50,0,1
165761,-100,4,2,1,50,0,1
165976,-80,4,2,1,50,0,1
166029,-133.333333333333,4,2,1,50,0,1
166083,-100,4,2,1,50,0,1
166297,-80,4,2,1,50,0,1
166350,-133.333333333333,4,2,1,50,0,1
166404,-100,4,2,1,50,0,1
166511,-57.1428571428571,4,2,1,50,0,1
166538,-133.333333333333,4,2,1,50,0,1
166618,-100,4,2,1,50,0,1
166940,-80,4,2,1,50,0,1
166993,-133.333333333333,4,2,1,50,0,1
167047,-100,4,2,1,50,0,1
167369,-57.1428571428571,4,2,1,50,0,1
167396,-133.333333333333,4,2,1,50,0,1
167476,-100,4,2,1,50,0,1
167690,-80,4,2,1,50,0,1
167743,-133.333333333333,4,2,1,50,0,1
167797,-100,4,2,1,50,0,1
168011,-80,4,2,1,50,0,1
168064,-133.333333333333,4,2,1,50,0,1
168118,-100,4,2,1,50,0,1
168226,-57.1428571428571,4,2,1,50,0,1
168253,-133.333333333333,4,2,1,50,0,1
168333,-80,4,2,1,50,0,1
168386,-133.333333333333,4,2,1,50,0,1
168440,-100,4,2,1,50,0,1
168547,-80,4,2,1,50,0,1
168600,-133.333333333333,4,2,1,50,0,1
168655,-80,4,2,1,50,0,1
168708,-133.333333333333,4,2,1,50,0,1
168762,-100,4,2,1,50,0,1
169083,-57.1428571428571,4,2,1,50,0,1
169110,-133.333333333333,4,2,1,50,0,1
169190,-100,4,2,1,50,0,1
169404,-80,4,2,1,50,0,1
169457,-133.333333333333,4,2,1,50,0,1
169511,-100,4,2,1,50,0,1
169726,-80,4,2,1,50,0,1
169779,-133.333333333333,4,2,1,50,0,1
169833,-100,4,2,1,50,0,1
169940,-57.1428571428571,4,2,1,50,0,1
169967,-133.333333333333,4,2,1,50,0,1
170047,-100,4,2,1,50,0,1
170369,-80,4,2,1,50,0,1
170422,-133.333333333333,4,2,1,50,0,1
170476,-100,4,2,1,50,0,1
170797,-57.1428571428571,4,2,1,50,0,1
170824,-133.333333333333,4,2,1,50,0,1
170904,-100,4,2,1,50,0,1
171119,-80,4,2,1,50,0,1
171172,-133.333333333333,4,2,1,50,0,1
171226,-100,4,2,1,50,0,1
171440,-80,4,2,1,50,0,1
171493,-133.333333333333,4,2,1,50,0,1
171547,-100,4,2,1,50,0,1
171654,-57.1428571428571,4,2,1,50,0,1
171681,-133.333333333333,4,2,1,50,0,1
171761,-80,4,2,1,50,0,1
171814,-133.333333333333,4,2,1,50,0,1
171869,-100,4,2,1,50,0,1
171976,-80,4,2,1,50,0,1
172029,-133.333333333333,4,2,1,50,0,1
172083,-76.9230769230769,4,2,1,50,0,1
172136,-90.9090909090909,4,2,1,50,0,1
172190,-111.111111111111,4,2,1,50,0,1
172243,-142.857142857143,4,2,1,50,0,1
172297,-100,4,2,1,50,0,1
172512,-57.1428571428571,4,2,1,50,0,1
172565,-133.333333333333,4,2,1,50,0,1
172726,-100,4,2,1,50,0,1
172833,-80,4,2,1,50,0,1
172886,-133.333333333333,4,2,1,50,0,1
172940,-100,4,2,1,50,0,1
173155,-80,4,2,1,50,0,1
173208,-133.333333333333,4,2,1,50,0,1
173262,-100,4,2,1,50,0,1
173369,-57.1428571428571,4,2,1,50,0,1
173396,-133.333333333333,4,2,1,50,0,1
173476,-80,4,2,1,50,0,1
173529,-133.333333333333,4,2,1,50,0,1
173583,-100,4,2,1,50,0,1
173690,-80,4,2,1,50,0,1
173743,-133.333333333333,4,2,1,50,0,1
173797,-76.9230769230769,4,2,1,50,0,1
173850,-90.9090909090909,4,2,1,50,0,1
173904,-111.111111111111,4,2,1,50,0,1
173957,-142.857142857143,4,2,1,50,0,1
174012,-76.9230769230769,4,2,1,50,0,1
174065,-90.9090909090909,4,2,1,50,0,1
174119,-111.111111111111,4,2,1,50,0,1
174172,-142.857142857143,4,2,1,50,0,1
174226,-57.1428571428571,4,2,1,50,0,1
174253,-133.333333333333,4,2,1,50,0,1
174333,-80,4,2,1,50,0,1
174386,-133.333333333333,4,2,1,50,0,1
174440,-100,4,2,1,50,0,1
174547,-57.1428571428571,4,2,1,50,0,1
174574,-133.333333333333,4,2,1,50,0,1
174655,-66.6666666666667,4,2,1,50,0,0
174708,-133.333333333333,4,2,1,50,0,0
174922,-66.6666666666667,4,2,1,50,0,0
175029,-133.333333333333,4,2,1,50,0,0
175243,-66.6666666666667,4,2,1,50,0,0
175297,-80,4,2,1,50,0,0
175351,-133.333333333333,4,2,1,50,0,0
175458,-80,4,2,1,50,0,0
175619,-133.333333333333,4,2,1,50,0,0
175727,-100,4,2,1,50,0,0
175941,-57.1428571428571,4,2,1,50,0,0
175968,-133.333333333333,4,2,1,50,0,0
176048,-100,4,2,1,50,0,0
176262,-80,4,2,1,50,0,0
176316,-133.333333333333,4,2,1,50,0,0
176369,-100,4,2,1,50,0,0
176584,-80,4,2,1,50,0,0
176638,-133.333333333333,4,2,1,50,0,0
176691,-100,4,2,1,50,0,0
176798,-57.1428571428571,4,2,1,50,0,0
176825,-133.333333333333,4,2,1,50,0,0
176905,-100,4,2,1,50,0,0
177227,-80,4,2,1,50,0,0
177334,-133.333333333333,4,2,1,50,0,0
177442,-100,4,2,1,50,0,0
177655,-57.1428571428571,4,2,1,50,0,0
177682,-133.333333333333,4,2,1,50,0,0
177762,-100,4,2,1,50,0,0
177977,-80,4,2,1,50,0,0
178031,-133.333333333333,4,2,1,50,0,0
178084,-100,4,2,1,50,0,0
178191,-57.1428571428571,4,2,1,50,0,0
178218,-133.333333333333,4,2,1,50,0,0
178298,-80,4,2,1,50,0,0
178352,-133.333333333333,4,2,1,50,0,0
178405,-100,4,2,1,50,0,0
178512,-57.1428571428571,4,2,1,50,0,0
178539,-133.333333333333,4,2,1,50,0,0
178619,-66.6666666666667,4,2,1,50,0,0
178726,-133.333333333333,4,2,1,50,0,0
178940,-100,4,2,1,50,0,0

[HitObjects]
448,192,655,128,0,869:0:0:0:0:
320,192,976,1,0,0:0:0:0:
320,192,1297,1,0,0:0:0:0:
64,192,1726,128,0,1940:0:0:0:0:
64,192,2047,128,0,2369:0:0:0:0:
448,192,2369,128,0,2583:0:0:0:0:
320,192,2690,1,0,0:0:0:0:
320,192,3012,1,0,0:0:0:0:
192,192,3440,128,0,3655:0:0:0:0:
192,192,3762,128,0,4083:0:0:0:0:
448,192,4083,128,0,4297:0:0:0:0:
320,192,4405,1,0,0:0:0:0:
320,192,4726,1,0,0:0:0:0:
64,192,5155,128,0,5369:0:0:0:0:
64,192,5476,128,0,5797:0:0:0:0:
448,192,5797,128,0,6012:0:0:0:0:
320,192,6119,1,0,0:0:0:0:
320,192,6440,1,0,0:0:0:0:
448,192,7512,128,0,7726:0:0:0:0:
320,192,7833,1,0,0:0:0:0:
320,192,8155,1,0,0:0:0:0:
64,192,8583,128,0,8797:0:0:0:0:
64,192,8905,128,0,9226:0:0:0:0:
320,192,9226,128,0,9440:0:0:0:0:
192,192,9547,1,0,0:0:0:0:
192,192,9869,1,0,0:0:0:0:
64,192,10297,128,0,10512:0:0:0:0:
64,192,10619,128,0,10940:0:0:0:0:
448,192,10940,128,0,11155:0:0:0:0:
320,192,11262,1,0,0:0:0:0:
320,192,11583,1,0,0:0:0:0:
64,192,12012,128,0,12226:0:0:0:0:
64,192,12333,128,0,12655:0:0:0:0:
448,192,12655,128,0,13512:0:0:0:0:
320,192,12655,128,0,12869:0:0:0:0:
192,192,12976,1,0,0:0:0:0:
192,192,13297,1,0,0:0:0:0:
192,192,13512,1,0,0:0:0:0:
64,192,13512,1,2,0:0:0:0:
192,192,13833,1,0,0:0:0:70:tom01.wav
64,192,13833,1,0,0:0:0:0:
320,192,13887,1,0,0:0:0:70:tom01.wav
448,192,13940,1,0,0:0:0:70:tom01.wav
320,192,14047,1,0,0:0:0:70:tom02.wav
192,192,14155,1,0,0:0:0:70:tom03.wav
64,192,14262,1,0,0:0:0:70:tom04.wav
320,192,14369,128,4,14583:0:0:0:0:
448,192,14369,1,2,0:0:0:0:
192,192,14583,1,0,0:0:0:0:
64,192,14690,1,0,0:0:0:0:
320,192,14797,1,8,0:0:0:0:
448,192,14797,1,0,0:0:0:0:
192,192,14905,1,0,0:0:0:0:
448,192,15012,1,0,0:0:0:0:
192,192,15119,1,2,0:0:0:0:
320,192,15119,1,0,0:0:0:0:
64,192,15226,1,0,0:0:0:0:
448,192,15440,1,2,0:0:0:0:
192,192,15440,128,0,15655:0:0:0:0:
320,192,15547,1,0,0:0:0:0:
64,192,15655,1,8,0:0:0:0:
448,192,15655,1,0,0:0:0:0:
192,192,15762,128,0,16083:0:0:0:0:
320,192,15869,1,0,0:0:0:0:
64,192,15976,1,0,0:0:0:0:
448,192,16083,128,0,16297:0:0:0:0:
320,192,16083,1,2,0:0:0:0:
64,192,16297,1,0,0:0:0:0:
192,192,16405,1,0,0:0:0:0:
448,192,16512,1,0,0:0:0:0:
64,192,16512,1,8,0:0:0:0:
320,192,16619,1,0,0:0:0:0:
192,192,16726,1,0,0:0:0:0:
320,192,16833,1,0,0:0:0:0:
64,192,16833,1,2,0:0:0:0:
448,192,16940,1,0,0:0:0:0:
192,192,17155,1,2,0:0:0:0:
64,192,17155,128,0,17369:0:0:0:0:
320,192,17262,1,0,0:0:0:0:
448,192,17369,1,0,0:0:0:0:
192,192,17369,1,8,0:0:0:0:
320,192,17476,1,2,0:0:0:0:
64,192,17476,128,0,17797:0:0:0:0:
448,192,17583,1,0,0:0:0:0:
192,192,17690,1,0,0:0:0:0:
448,192,17797,1,2,0:0:0:0:
320,192,17797,128,0,18012:0:0:0:0:
192,192,18012,1,0,0:0:0:0:
64,192,18119,1,0,0:0:0:0:
320,192,18226,1,8,0:0:0:0:
448,192,18226,1,0,0:0:0:0:
64,192,18333,1,0,0:0:0:0:
448,192,18440,1,0,0:0:0:0:
320,192,18547,1,0,0:0:0:0:
192,192,18547,1,2,0:0:0:0:
64,192,18655,1,0,0:0:0:0:
320,192,18869,1,2,0:0:0:0:
192,192,18869,128,0,19083:0:0:0:0:
448,192,18976,1,0,0:0:0:0:
320,192,19083,1,0,0:0:0:0:
64,192,19083,1,8,0:0:0:0:
192,192,19190,128,0,19512:0:0:0:0:
448,192,19297,1,0,0:0:0:0:
64,192,19405,1,0,0:0:0:0:
320,192,19512,1,2,0:0:0:0:
448,192,19512,128,0,19726:0:0:0:0:
192,192,19726,1,0,0:0:0:0:
320,192,19833,1,0,0:0:0:0:
64,192,19940,1,8,0:0:0:0:
192,192,19940,1,0,0:0:0:0:
448,192,20047,1,0,0:0:0:0:
64,192,20155,1,0,0:0:0:0:
448,192,20262,1,0,0:0:0:0:
320,192,20262,1,2,0:0:0:0:
192,192,20369,1,0,0:0:0:0:
320,192,20476,1,0,0:0:0:0:
448,192,20583,1,2,0:0:0:0:
64,192,20583,128,0,20797:0:0:0:0:
192,192,20690,1,0,0:0:0:0:
448,192,20797,1,0,0:0:0:0:
320,192,20797,1,8,0:0:0:0:
192,192,20905,1,2,0:0:0:0:
64,192,20905,128,0,21119:0:0:0:0:
320,192,21012,1,8,0:0:0:0:
448,192,21012,1,0,0:0:0:0:
320,192,21119,1,8,0:0:0:0:
448,192,21119,1,0,0:0:0:0:
64,192,21226,1,2,0:0:0:0:
192,192,21226,128,4,22083:0:0:0:0:
448,192,21440,1,0,0:0:0:0:
64,192,21547,1,0,0:0:0:0:
320,192,21655,1,8,0:0:0:0:
448,192,21655,1,0,0:0:0:0:
64,192,21869,1,0,0:0:0:0:
320,192,21976,1,2,0:0:0:0:
448,192,21976,1,0,0:0:0:0:
64,192,22083,1,0,0:0:0:0:
320,192,22297,1,0,0:0:0:0:
192,192,22297,1,2,0:0:0:0:
64,192,22512,1,8,0:0:0:0:
448,192,22512,1,0,0:0:0:0:
448,192,22726,1,0,0:0:0:0:
192,192,22833,1,0,0:0:0:0:
64,192,22940,128,0,23797:0:0:0:0:
320,192,22940,1,2,0:0:0:0:
448,192,23155,1,0,0:0:0:0:
320,192,23262,1,0,0:0:0:0:
448,192,23369,1,0,0:0:0:0:
192,192,23369,1,8,0:0:0:0:
320,192,23583,1,0,0:0:0:0:
448,192,23690,1,0,0:0:0:0:
192,192,23690,1,2,0:0:0:0:
320,192,23797,1,0,0:0:0:0:
192,192,24012,1,0,0:0:0:0:
64,192,24012,1,2,0:0:0:0:
448,192,24226,1,0,0:0:0:0:
64,192,24226,1,8,0:0:0:0:
192,192,24333,1,2,0:0:0:0:
320,192,24333,1,0,0:0:0:0:
64,192,24440,1,0,0:0:0:0:
192,192,24547,1,0,0:0:0:0:
448,192,24655,1,2,0:0:0:0:
320,192,24655,128,0,25512:0:0:0:0:
192,192,24869,1,0,0:0:0:0:
448,192,24976,1,0,0:0:0:0:
64,192,25083,1,8,0:0:0:0:
192,192,25083,1,0,0:0:0:0:
448,192,25297,1,0,0:0:0:0:
64,192,25405,1,2,0:0:0:0:
192,192,25405,1,0,0:0:0:0:
448,192,25512,1,0,0:0:0:0:
320,192,25726,1,0,0:0:0:0:
192,192,25726,1,2,0:0:0:0:
448,192,25940,1,0,0:0:0:0:
64,192,25940,1,8,0:0:0:0:
64,192,26155,1,0,0:0:0:0:
320,192,26262,1,0,0:0:0:0:
192,192,26369,1,2,0:0:0:0:
448,192,26369,128,0,27226:0:0:0:0:
64,192,26583,1,0,0:0:0:0:
192,192,26690,1,0,0:0:0:0:
320,192,26797,1,0,0:0:0:0:
64,192,26797,1,8,0:0:0:0:
192,192,27012,1,0,0:0:0:0:
64,192,27119,1,2,0:0:0:0:
320,192,27119,1,0,0:0:0:0:
192,192,27226,1,0,0:0:0:0:
320,192,27333,1,0,0:0:0:0:
64,192,27333,1,8,0:0:0:0:
448,192,27440,1,0,0:0:0:0:
192,192,27547,1,0,0:0:0:0:
64,192,27547,1,2,0:0:0:0:
320,192,27655,1,8,0:0:0:0:
448,192,27655,1,0,0:0:0:0:
64,192,27762,1,2,0:0:0:0:
192,192,27762,1,0,0:0:0:0:
320,192,27869,1,8,0:0:0:0:
448,192,27869,1,0,0:0:0:0:
320,192,27976,1,8,0:0:0:0:
448,192,27976,1,0,0:0:0:0:
64,192,28083,1,2,0:0:0:0:
192,192,28083,1,4,0:0:0:0:
448,192,28190,1,0,0:0:0:0:
320,192,28297,1,0,0:0:0:0:
192,192,28405,1,0,0:0:0:0:
64,192,28512,1,8,0:0:0:0:
320,192,28512,1,0,0:0:0:0:
448,192,28619,1,0,0:0:0:0:
192,192,28726,1,0,0:0:0:0:
448,192,28833,1,0,0:0:0:0:
320,192,28833,1,2,0:0:0:0:
64,192,28940,1,0,0:0:0:0:
192,192,29047,1,0,0:0:0:0:
448,192,29155,1,0,0:0:0:0:
64,192,29155,1,2,0:0:0:0:
320,192,29262,1,0,0:0:0:0:
192,192,29369,1,8,0:0:0:0:
448,192,29369,1,0,0:0:0:0:
320,192,29476,1,0,0:0:0:0:
64,192,29583,1,0,0:0:0:0:
448,192,29690,1,0,0:0:0:0:
192,192,29797,1,0,0:0:0:0:
64,192,29797,1,2,0:0:0:0:
320,192,29905,1,0,0:0:0:0:
448,192,30012,1,0,0:0:0:0:
64,192,30119,1,0,0:0:0:0:
192,192,30226,1,8,0:0:0:0:
448,192,30226,1,0,0:0:0:0:
320,192,30333,1,0,0:0:0:0:
192,192,30440,1,0,0:0:0:0:
448,192,30547,1,0,0:0:0:0:
64,192,30547,1,2,0:0:0:0:
320,192,30655,1,0,0:0:0:0:
448,192,30762,1,0,0:0:0:0:
192,192,30869,1,0,0:0:0:0:
64,192,30869,1,2,0:0:0:0:
320,192,30976,1,0,0:0:0:0:
64,192,31083,1,8,0:0:0:0:
448,192,31083,1,0,0:0:0:0:
192,192,31190,1,2,0:0:0:0:
320,192,31190,1,0,0:0:0:0:
448,192,31297,1,0,0:0:0:0:
192,192,31405,1,0,0:0:0:0:
64,192,31512,1,2,0:0:0:0:
320,192,31512,1,0,0:0:0:0:
448,192,31619,1,0,0:0:0:0:
64,192,31726,1,0,0:0:0:0:
448,192,31833,1,0,0:0:0:0:
192,192,31940,1,8,0:0:0:0:
320,192,31940,1,0,0:0:0:0:
64,192,32047,1,0,0:0:0:0:
320,192,32155,1,0,0:0:0:0:
192,192,32262,1,2,0:0:0:0:
448,192,32262,1,0,0:0:0:0:
64,192,32369,1,0,0:0:0:0:
192,192,32476,1,0,0:0:0:0:
448,192,32583,1,0,0:0:0:0:
320,192,32583,1,2,0:0:0:0:
64,192,32690,1,0,0:0:0:0:
192,192,32797,1,8,0:0:0:0:
448,192,32797,1,0,0:0:0:0:
64,192,32905,1,0,0:0:0:0:
320,192,33012,1,0,0:0:0:0:
448,192,33119,1,0,0:0:0:0:
192,192,33226,1,0,0:0:0:0:
64,192,33226,1,2,0:0:0:0:
320,192,33333,1,0,0:0:0:0:
192,192,33440,1,0,0:0:0:0:
448,192,33547,1,0,0:0:0:0:
64,192,33655,1,8,0:0:0:0:
320,192,33655,1,0,0:0:0:0:
192,192,33762,1,0,0:0:0:0:
320,192,33869,1,0,0:0:0:0:
192,192,33976,1,2,0:0:0:0:
448,192,33976,1,0,0:0:0:0:
64,192,34083,1,0,0:0:0:0:
320,192,34190,1,0,0:0:0:0:
192,192,34297,1,2,0:0:0:0:
448,192,34297,1,0,0:0:0:0:
64,192,34405,1,0,0:0:0:0:
320,192,34512,1,8,0:0:0:0:
448,192,34512,1,0,0:0:0:0:
64,192,34619,1,2,0:0:0:0:
192,192,34619,1,0,0:0:0:0:
320,192,34726,1,0,0:0:0:0:
448,192,34833,1,0,0:0:0:0:
64,192,34833,1,8,0:0:0:0:
320,192,34940,1,0,0:0:0:0:
192,192,34940,1,2,0:0:0:0:
448,192,35047,1,0,0:0:0:0:
64,192,35155,1,0,0:0:0:0:
192,192,35262,1,0,0:0:0:0:
448,192,35369,1,0,0:0:0:0:
64,192,35369,1,8,0:0:0:0:
320,192,35476,1,0,0:0:0:0:
192,192,35583,1,0,0:0:0:0:
448,192,35690,1,0,0:0:0:0:
320,192,35690,1,2,0:0:0:0:
64,192,35797,1,0,0:0:0:0:
192,192,35905,1,0,0:0:0:0:
64,192,36012,1,2,0:0:0:0:
448,192,36012,1,0,0:0:0:0:
320,192,36119,1,0,0:0:0:0:
192,192,36226,1,8,0:0:0:0:
448,192,36226,1,0,0:0:0:0:
64,192,36333,1,0,0:0:0:0:
320,192,36440,1,0,0:0:0:0:
192,192,36547,1,0,0:0:0:0:
448,192,36655,1,0,0:0:0:0:
320,192,36655,1,2,0:0:0:0:
64,192,36762,1,0,0:0:0:0:
192,192,36869,1,0,0:0:0:0:
448,192,36976,1,0,0:0:0:0:
64,192,37083,1,8,0:0:0:0:
192,192,37083,1,0,0:0:0:0:
320,192,37190,1,0,0:0:0:0:
448,192,37297,1,0,0:0:0:0:
64,192,37405,1,2,0:0:0:0:
320,192,37405,1,0,0:0:0:0:
192,192,37512,1,0,0:0:0:0:
64,192,37619,1,0,0:0:0:0:
320,192,37726,1,2,0:0:0:0:
448,192,37726,1,0,0:0:0:0:
192,192,37833,1,0,0:0:0:0:
448,192,37940,1,0,0:0:0:0:
64,192,37940,1,8,0:0:0:0:
320,192,38047,1,0,0:0:0:0:
192,192,38047,1,2,0:0:0:0:
64,192,38155,1,0,0:0:0:0:
320,192,38262,1,0,0:0:0:0:
192,192,38369,1,2,0:0:0:0:
448,192,38369,1,0,0:0:0:0:
64,192,38476,1,0,0:0:0:0:
320,192,38583,1,0,0:0:0:0:
192,192,38690,1,0,0:0:0:0:
320,192,38797,1,0,0:0:0:0:
64,192,38797,1,8,0:0:0:0:
448,192,38905,1,0,0:0:0:0:
64,192,39012,1,0,0:0:0:0:
192,192,39119,1,2,0:0:0:0:
320,192,39119,1,0,0:0:0:0:
448,192,39226,1,0,0:0:0:0:
320,192,39333,1,0,0:0:0:0:
64,192,39440,1,2,0:0:0:0:
192,192,39440,1,0,0:0:0:0:
448,192,39547,1,0,0:0:0:0:
64,192,39655,1,8,0:0:0:0:
320,192,39655,1,0,0:0:0:0:
448,192,39762,1,0,0:0:0:0:
192,192,39869,1,0,0:0:0:0:
320,192,39976,1,0,0:0:0:0:
64,192,40083,1,2,0:0:0:0:
448,192,40083,1,0,0:0:0:0:
320,192,40190,1,0,0:0:0:0:
64,192,40297,1,0,0:0:0:0:
192,192,40405,1,0,0:0:0:0:
448,192,40512,1,0,0:0:0:0:
320,192,40512,1,8,0:0:0:0:
64,192,40619,1,0,0:0:0:0:
448,192,40726,1,0,0:0:0:0:
320,192,40833,1,0,0:0:0:0:
192,192,40833,1,2,0:0:0:0:
64,192,40940,1,0,0:0:0:0:
320,192,41047,1,0,0:0:0:0:
64,192,41155,1,2,0:0:0:0:
448,192,41155,1,0,0:0:0:0:
192,192,41262,1,0,0:0:0:0:
448,192,41369,1,0,0:0:0:0:
320,192,41369,1,8,0:0:0:0:
192,192,41476,1,0,0:0:0:0:
64,192,41476,1,2,0:0:0:0:
320,192,41583,1,0,0:0:0:0:
448,192,41690,1,0,0:0:0:0:
64,192,41690,1,8,0:0:0:0:
320,192,41797,1,2,0:0:0:0:
192,192,41797,128,0,42226:0:0:0:0:
64,192,42012,128,0,42226:0:0:0:0:
448,192,42012,1,8,0:0:0:0:
320,192,42226,1,2,0:0:0:0:
64,192,42333,1,8,0:0:0:0:
448,192,42333,128,0,42440:0:0:0:0:
192,192,42440,1,2,0:0:0:0:
320,192,42440,1,0,0:0:0:0:
448,192,42547,128,0,42762:0:0:0:0:
64,192,42547,1,8,0:0:0:0:
320,192,42762,1,0,0:0:0:0:
192,192,42762,1,8,0:0:0:0:
448,192,42869,1,0,0:0:0:0:
64,192,42869,1,2,0:0:0:0:
192,192,42976,128,0,43083:0:0:0:0:
448,192,43083,128,8,43512:0:0:0:0:
320,192,43083,1,0,0:0:0:70:tom01.wav
64,192,43297,128,0,43512:0:0:0:0:
192,192,43297,1,2,0:0:0:0:
320,192,43512,1,4,0:0:0:0:
192,192,43512,1,2,0:0:0:0:
448,192,43726,1,0,0:0:0:0:
64,192,43833,1,0,0:0:0:0:
320,192,43940,1,0,0:0:0:0:
192,192,43940,1,8,0:0:0:0:
448,192,44047,1,0,0:0:0:0:
192,192,44155,1,0,0:0:0:0:
448,192,44262,1,0,0:0:0:0:
64,192,44262,1,2,0:0:0:0:
320,192,44369,1,0,0:0:0:0:
192,192,44476,1,0,0:0:0:0:
448,192,44583,1,0,0:0:0:0:
320,192,44583,1,2,0:0:0:0:
64,192,44690,1,0,0:0:0:0:
192,192,44797,1,8,0:0:0:0:
448,192,44797,1,0,0:0:0:0:
64,192,44905,1,0,0:0:0:0:
320,192,45012,1,0,0:0:0:0:
192,192,45119,1,0,0:0:0:0:
448,192,45226,1,0,0:0:0:0:
64,192,45226,1,2,0:0:0:0:
320,192,45440,1,0,0:0:0:0:
448,192,45547,1,0,0:0:0:0:
64,192,45655,1,8,0:0:0:0:
192,192,45655,1,0,0:0:0:0:
320,192,45762,1,0,0:0:0:0:
448,192,45869,1,0,0:0:0:0:
320,192,45976,1,0,0:0:0:0:
64,192,45976,1,2,0:0:0:0:
192,192,46083,1,0,0:0:0:0:
448,192,46190,1,0,0:0:0:0:
320,192,46297,1,0,0:0:0:0:
192,192,46297,1,2,0:0:0:0:
64,192,46405,1,0,0:0:0:0:
448,192,46512,1,0,0:0:0:0:
320,192,46512,1,8,0:0:0:0:
64,192,46619,1,2,0:0:0:0:
192,192,46619,1,0,0:0:0:0:
448,192,46726,1,0,0:0:0:0:
192,192,46833,1,0,0:0:0:0:
64,192,46940,1,2,0:0:0:0:
320,192,46940,1,0,0:0:0:0:
448,192,47155,1,0,0:0:0:0:
192,192,47262,1,0,0:0:0:0:
64,192,47369,1,8,0:0:0:0:
320,192,47369,1,0,0:0:0:0:
448,192,47476,1,0,0:0:0:0:
64,192,47583,1,0,0:0:0:0:
320,192,47690,1,0,0:0:0:0:
192,192,47690,1,2,0:0:0:0:
448,192,47797,1,0,0:0:0:0:
192,192,47905,1,0,0:0:0:0:
320,192,48012,1,2,0:0:0:0:
448,192,48012,1,0,0:0:0:0:
64,192,48119,1,0,0:0:0:0:
320,192,48226,1,0,0:0:0:0:
192,192,48226,1,8,0:0:0:0:
64,192,48333,1,0,0:0:0:0:
448,192,48440,1,0,0:0:0:0:
192,192,48547,1,0,0:0:0:0:
320,192,48655,1,2,0:0:0:0:
448,192,48655,1,0,0:0:0:0:
64,192,48869,1,0,0:0:0:0:
320,192,48976,1,0,0:0:0:0:
192,192,49083,1,0,0:0:0:0:
64,192,49083,1,8,0:0:0:0:
448,192,49190,1,0,0:0:0:0:
320,192,49297,1,0,0:0:0:0:
448,192,49405,1,0,0:0:0:0:
192,192,49405,1,2,0:0:0:0:
64,192,49512,1,0,0:0:0:0:
320,192,49619,1,0,0:0:0:0:
448,192,49726,1,0,0:0:0:0:
64,192,49726,1,2,0:0:0:0:
192,192,49833,1,0,0:0:0:0:
448,192,49940,1,0,0:0:0:0:
320,192,49940,1,8,0:0:0:0:
192,192,50047,1,0,0:0:0:0:
64,192,50047,1,2,0:0:0:0:
320,192,50155,1,8,0:0:0:0:
448,192,50155,1,0,0:0:0:0:
320,192,50262,1,8,0:0:0:0:
448,192,50262,1,0,0:0:0:0:
192,192,50369,1,4,0:0:0:0:
64,192,50369,1,2,0:0:0:0:
448,192,50583,1,0,0:0:0:0:
320,192,50690,1,0,0:0:0:0:
192,192,50797,1,0,0:0:0:0:
64,192,50797,1,8,0:0:0:0:
448,192,50905,1,0,0:0:0:0:
320,192,51012,1,0,0:0:0:0:
192,192,51119,1,2,0:0:0:0:
448,192,51119,1,0,0:0:0:0:
64,192,51226,1,0,0:0:0:0:
320,192,51333,1,0,0:0:0:0:
192,192,51440,1,0,0:0:0:0:
64,192,51440,1,2,0:0:0:0:
448,192,51547,1,0,0:0:0:0:
320,192,51655,1,0,0:0:0:0:
192,192,51655,1,8,0:0:0:0:
64,192,51762,1,0,0:0:0:0:
320,192,51869,1,0,0:0:0:0:
448,192,51976,1,0,0:0:0:0:
192,192,52083,1,0,0:0:0:0:
64,192,52083,1,2,0:0:0:0:
320,192,52297,1,0,0:0:0:0:
192,192,52405,1,0,0:0:0:0:
64,192,52512,1,8,0:0:0:0:
448,192,52512,1,0,0:0:0:0:
192,192,52619,1,0,0:0:0:0:
448,192,52726,1,0,0:0:0:0:
320,192,52833,1,0,0:0:0:0:
64,192,52833,1,2,0:0:0:0:
192,192,52940,1,0,0:0:0:0:
64,192,53047,1,0,0:0:0:0:
320,192,53155,1,2,0:0:0:0:
448,192,53155,1,0,0:0:0:0:
192,192,53262,1,0,0:0:0:0:
448,192,53369,1,0,0:0:0:0:
64,192,53369,1,8,0:0:0:0:
192,192,53476,1,2,0:0:0:0:
320,192,53476,1,0,0:0:0:0:
64,192,53583,1,0,0:0:0:0:
448,192,53690,1,0,0:0:0:0:
320,192,53797,1,0,0:0:0:0:
192,192,53797,1,2,0:0:0:0:
64,192,54012,1,0,0:0:0:0:
192,192,54119,1,0,0:0:0:0:
448,192,54226,1,0,0:0:0:0:
320,192,54226,1,8,0:0:0:0:
64,192,54333,1,0,0:0:0:0:
192,192,54440,1,0,0:0:0:0:
448,192,54547,1,0,0:0:0:0:
64,192,54547,1,2,0:0:0:0:
320,192,54655,1,0,0:0:0:0:
448,192,54762,1,0,0:0:0:0:
64,192,54869,1,2,0:0:0:0:
192,192,54869,1,0,0:0:0:0:
320,192,54976,1,0,0:0:0:0:
448,192,55083,1,0,0:0:0:0:
64,192,55083,1,8,0:0:0:0:
192,192,55190,1,0,0:0:0:0:
320,192,55297,1,0,0:0:0:0:
64,192,55405,1,0,0:0:0:0:
448,192,55512,1,0,0:0:0:0:
192,192,55512,1,2,0:0:0:0:
320,192,55726,1,0,0:0:0:0:
448,192,55833,1,0,0:0:0:0:
64,192,55940,1,8,0:0:0:0:
192,192,55940,1,0,0:0:0:0:
320,192,56047,1,0,0:0:0:0:
64,192,56155,1,0,0:0:0:0:
448,192,56262,1,0,0:0:0:0:
192,192,56262,1,2,0:0:0:0:
320,192,56369,1,0,0:0:0:0:
448,192,56476,1,0,0:0:0:0:
192,192,56583,1,0,0:0:0:0:
64,192,56583,1,2,0:0:0:0:
320,192,56690,1,0,0:0:0:0:
448,192,56797,1,0,0:0:0:0:
64,192,56797,1,8,0:0:0:0:
320,192,56905,1,0,0:0:0:0:
192,192,56905,1,2,0:0:0:0:
448,192,57012,1,0,0:0:0:0:
192,192,57119,1,0,0:0:0:0:
320,192,57226,1,2,0:0:0:0:
64,192,57226,128,4,58083:0:0:0:0:
320,192,57440,1,0,0:0:0:0:
448,192,57547,1,0,0:0:0:0:
320,192,57655,1,0,0:0:0:0:
192,192,57655,1,8,0:0:0:0:
448,192,57762,1,2,0:0:0:0:
192,192,57869,1,0,0:0:0:0:
448,192,57976,1,8,0:0:0:0:
320,192,58083,1,0,0:0:0:0:
192,192,58083,1,2,0:0:0:0:
64,192,58940,1,2,0:0:0:0:
448,192,58940,128,0,59155:0:0:0:0:
320,192,59155,128,0,59262:0:0:0:0:
448,192,59262,128,0,59369:0:0:0:0:
64,192,59369,1,8,0:0:0:0:
192,192,59369,1,0,0:0:0:0:
448,192,59476,128,0,59583:0:0:0:0:
192,192,59690,1,2,0:0:0:0:
448,192,59690,128,0,59797:0:0:0:0:
320,192,59797,128,0,60012:0:0:0:0:
64,192,60012,1,2,0:0:0:0:
192,192,60012,128,0,60119:0:0:0:0:
320,192,60119,128,0,60226:0:0:0:0:
64,192,60226,1,8,0:0:0:0:
448,192,60226,1,0,0:0:0:0:
320,192,60333,128,0,60655:0:0:0:0:
448,192,60547,128,0,60655:0:0:0:0:
64,192,60655,1,2,0:0:0:0:
192,192,60655,128,0,60869:0:0:0:0:
64,192,60869,128,0,60976:0:0:0:0:
192,192,60976,128,0,61083:0:0:0:0:
320,192,61083,1,8,0:0:0:0:
448,192,61083,1,0,0:0:0:0:
192,192,61190,128,0,61297:0:0:0:0:
448,192,61405,1,2,0:0:0:0:
192,192,61405,128,0,61512:0:0:0:0:
64,192,61512,128,0,61726:0:0:0:0:
320,192,61619,1,8,0:0:0:0:
192,192,61726,1,2,0:0:0:0:
448,192,61726,128,0,61833:0:0:0:0:
64,192,61833,128,0,61940:0:0:0:0:
448,192,61940,1,8,0:0:0:0:
320,192,61940,128,0,62047:0:0:0:0:
192,192,62047,128,2,62155:0:0:0:0:
64,192,62155,128,0,62262:0:0:0:0:
448,192,62262,128,0,62369:0:0:0:0:
192,192,62369,1,2,0:0:0:0:
320,192,62369,128,4,62583:0:0:0:0:
64,192,62583,1,0,0:0:0:0:
192,192,62690,1,0,0:0:0:0:
64,192,62797,1,8,0:0:0:0:
448,192,62797,1,0,0:0:0:0:
320,192,62905,1,0,0:0:0:0:
448,192,63012,1,0,0:0:0:0:
192,192,63119,1,0,0:0:0:0:
64,192,63119,1,2,0:0:0:0:
320,192,63226,1,0,0:0:0:0:
448,192,63440,1,2,0:0:0:0:
192,192,63440,128,0,63655:0:0:0:0:
320,192,63547,1,0,0:0:0:0:
64,192,63655,1,8,0:0:0:0:
192,192,63762,128,0,64083:0:0:0:0:
320,192,63869,1,0,0:0:0:0:
64,192,63976,1,0,0:0:0:0:
320,192,64083,1,2,0:0:0:0:
448,192,64083,128,0,64297:0:0:0:0:
64,192,64297,1,0,0:0:0:0:
192,192,64405,1,0,0:0:0:0:
320,192,64512,1,8,0:0:0:0:
448,192,64512,1,0,0:0:0:0:
64,192,64619,1,0,0:0:0:0:
448,192,64726,1,0,0:0:0:0:
64,192,64833,1,2,0:0:0:0:
320,192,64833,1,0,0:0:0:0:
192,192,64940,1,0,0:0:0:0:
448,192,65155,1,2,0:0:0:0:
64,192,65155,128,0,65369:0:0:0:0:
320,192,65262,1,0,0:0:0:0:
448,192,65369,1,0,0:0:0:0:
192,192,65369,1,8,0:0:0:0:
64,192,65476,128,0,65797:0:0:0:0:
320,192,65476,1,2,0:0:0:0:
192,192,65583,1,0,0:0:0:0:
448,192,65690,1,0,0:0:0:0:
192,192,65797,1,2,0:0:0:0:
320,192,65797,128,0,66012:0:0:0:0:
448,192,66012,1,0,0:0:0:0:
64,192,66119,1,0,0:0:0:0:
320,192,66226,1,8,0:0:0:0:
448,192,66226,1,0,0:0:0:0:
192,192,66333,1,0,0:0:0:0:
64,192,66440,1,0,0:0:0:0:
192,192,66547,1,2,0:0:0:0:
448,192,66547,1,0,0:0:0:0:
320,192,66655,1,0,0:0:0:0:
64,192,66869,1,2,0:0:0:0:
192,192,66869,128,0,67083:0:0:0:0:
448,192,66976,1,0,0:0:0:0:
320,192,67083,1,0,0:0:0:0:
64,192,67083,1,8,0:0:0:0:
192,192,67190,128,0,67512:0:0:0:0:
448,192,67297,1,0,0:0:0:0:
64,192,67405,1,0,0:0:0:0:
320,192,67512,1,2,0:0:0:0:
448,192,67512,128,0,67726:0:0:0:0:
320,192,67726,1,0,0:0:0:0:
192,192,67833,1,0,0:0:0:0:
448,192,67940,1,0,0:0:0:0:
64,192,67940,1,8,0:0:0:0:
320,192,68047,1,0,0:0:0:0:
448,192,68155,1,0,0:0:0:0:
192,192,68262,1,0,0:0:0:0:
64,192,68262,1,2,0:0:0:0:
320,192,68369,1,0,0:0:0:0:
448,192,68476,1,0,0:0:0:0:
192,192,68583,1,2,0:0:0:0:
64,192,68583,128,0,68797:0:0:0:0:
448,192,68797,1,0,0:0:0:0:
320,192,68797,1,8,0:0:0:0:
192,192,68905,1,2,0:0:0:0:
64,192,68905,128,0,69119:0:0:0:0:
448,192,69012,1,0,0:0:0:0:
320,192,69012,1,8,0:0:0:0:
320,192,69119,1,8,0:0:0:0:
448,192,69119,1,0,0:0:0:0:
64,192,69226,1,2,0:0:0:0:
192,192,69226,128,4,69440:0:0:0:0:
448,192,69440,1,0,0:0:0:0:
320,192,69547,1,0,0:0:0:0:
448,192,69655,1,0,0:0:0:0:
192,192,69655,1,8,0:0:0:0:
64,192,69762,1,0,0:0:0:0:
192,192,69869,1,0,0:0:0:0:
448,192,69976,1,0,0:0:0:0:
320,192,69976,1,2,0:0:0:0:
64,192,70083,1,0,0:0:0:0:
192,192,70297,1,2,0:0:0:0:
320,192,70297,128,0,70512:0:0:0:0:
64,192,70405,1,0,0:0:0:0:
448,192,70512,1,0,0:0:0:0:
192,192,70512,1,8,0:0:0:0:
320,192,70619,128,0,70940:0:0:0:0:
64,192,70726,1,0,0:0:0:0:
448,192,70833,1,0,0:0:0:0:
192,192,70940,1,2,0:0:0:0:
64,192,70940,128,0,71155:0:0:0:0:
448,192,71155,1,0,0:0:0:0:
192,192,71262,1,0,0:0:0:0:
64,192,71369,1,8,0:0:0:0:
448,192,71369,1,0,0:0:0:0:
320,192,71476,1,0,0:0:0:0:
64,192,71583,1,0,0:0:0:0:
448,192,71690,1,0,0:0:0:0:
320,192,71690,1,2,0:0:0:0:
192,192,71797,1,0,0:0:0:0:
64,192,72012,1,2,0:0:0:0:
448,192,72012,128,0,72226:0:0:0:0:
192,192,72119,1,0,0:0:0:0:
64,192,72226,1,8,0:0:0:0:
320,192,72226,1,0,0:0:0:0:
192,192,72333,1,2,0:0:0:0:
448,192,72333,128,0,72655:0:0:0:0:
320,192,72440,1,0,0:0:0:0:
64,192,72547,1,0,0:0:0:0:
320,192,72655,1,2,0:0:0:0:
192,192,72655,128,0,72869:0:0:0:0:
64,192,72869,1,0,0:0:0:0:
320,192,72976,1,0,0:0:0:0:
448,192,73083,1,0,0:0:0:0:
192,192,73083,1,8,0:0:0:0:
64,192,73190,1,0,0:0:0:0:
320,192,73297,1,0,0:0:0:0:
192,192,73405,1,0,0:0:0:0:
64,192,73405,1,2,0:0:0:0:
448,192,73512,1,0,0:0:0:0:
192,192,73726,1,2,0:0:0:0:
320,192,73726,128,0,73940:0:0:0:0:
64,192,73833,1,0,0:0:0:0:
192,192,73940,1,8,0:0:0:0:
448,192,73940,1,0,0:0:0:0:
320,192,74047,128,0,74369:0:0:0:0:
64,192,74155,1,0,0:0:0:0:
448,192,74262,1,0,0:0:0:0:
192,192,74369,1,2,0:0:0:0:
64,192,74369,128,0,74583:0:0:0:0:
448,192,74583,1,0,0:0:0:0:
320,192,74690,1,0,0:0:0:0:
64,192,74797,1,8,0:0:0:0:
192,192,74797,1,0,0:0:0:0:
448,192,74905,1,0,0:0:0:0:
320,192,75012,1,0,0:0:0:0:
192,192,75119,1,2,0:0:0:0:
448,192,75119,1,0,0:0:0:0:
64,192,75226,1,0,0:0:0:0:
192,192,75333,1,0,0:0:0:0:
320,192,75440,1,2,0:0:0:0:
448,192,75440,128,0,75655:0:0:0:0:
64,192,75547,1,0,0:0:0:0:
320,192,75655,1,0,0:0:0:0:
192,192,75655,1,8,0:0:0:0:
64,192,75762,1,2,0:0:0:0:
448,192,75762,128,0,75976:0:0:0:0:
192,192,75869,1,0,0:0:0:0:
64,192,75976,1,8,0:0:0:0:
320,192,75976,1,0,0:0:0:0:
192,192,76083,128,4,76940:0:0:0:0:
448,192,76083,1,2,0:0:0:0:
320,192,76297,1,0,0:0:0:0:
64,192,76405,1,0,0:0:0:0:
320,192,76512,1,8,0:0:0:0:
448,192,76512,1,0,0:0:0:0:
64,192,76726,1,0,0:0:0:0:
448,192,76833,1,0,0:0:0:0:
320,192,76833,1,2,0:0:0:0:
64,192,76940,1,0,0:0:0:0:
192,192,77155,1,2,0:0:0:0:
320,192,77155,1,0,0:0:0:0:
64,192,77369,1,8,0:0:0:0:
448,192,77369,1,0,0:0:0:0:
448,192,77583,1,0,0:0:0:0:
192,192,77690,1,0,0:0:0:0:
64,192,77797,128,0,78655:0:0:0:0:
320,192,77797,1,2,0:0:0:0:
448,192,78012,1,0,0:0:0:0:
320,192,78119,1,0,0:0:0:0:
192,192,78226,1,8,0:0:0:0:
448,192,78226,1,0,0:0:0:0:
320,192,78440,1,0,0:0:0:0:
448,192,78547,1,0,0:0:0:0:
192,192,78547,1,2,0:0:0:0:
320,192,78655,1,0,0:0:0:0:
192,192,78869,1,0,0:0:0:0:
64,192,78869,1,2,0:0:0:0:
64,192,79083,1,8,0:0:0:0:
448,192,79083,1,0,0:0:0:0:
320,192,79190,1,0,0:0:0:0:
192,192,79190,1,2,0:0:0:0:
64,192,79297,1,0,0:0:0:0:
192,192,79405,1,0,0:0:0:0:
320,192,79512,128,0,80369:0:0:0:0:
448,192,79512,1,2,0:0:0:0:
64,192,79726,1,0,0:0:0:0:
448,192,79833,1,0,0:0:0:0:
64,192,79940,1,8,0:0:0:0:
192,192,79940,1,0,0:0:0:0:
448,192,80155,1,0,0:0:0:0:
64,192,80262,1,2,0:0:0:0:
192,192,80262,1,0,0:0:0:0:
448,192,80369,1,0,0:0:0:0:
320,192,80583,1,0,0:0:0:0:
192,192,80583,1,2,0:0:0:0:
64,192,80797,1,8,0:0:0:0:
448,192,80797,1,0,0:0:0:0:
64,192,81012,1,0,0:0:0:0:
320,192,81119,1,0,0:0:0:0:
448,192,81226,128,0,82083:0:0:0:0:
192,192,81226,1,2,0:0:0:0:
64,192,81440,1,0,0:0:0:0:
192,192,81547,1,0,0:0:0:0:
64,192,81655,1,8,0:0:0:0:
320,192,81655,1,0,0:0:0:0:
192,192,81869,1,0,0:0:0:0:
64,192,81976,1,2,0:0:0:0:
320,192,81976,1,0,0:0:0:0:
192,192,82083,1,0,0:0:0:0:
448,192,82190,1,0,0:0:0:0:
64,192,82190,1,8,0:0:0:0:
192,192,82297,1,2,0:0:0:0:
320,192,82297,1,0,0:0:0:0:
64,192,82405,1,8,0:0:0:0:
320,192,82512,1,8,0:0:0:0:
448,192,82512,1,0,0:0:0:0:
320,192,82619,1,8,0:0:0:0:
448,192,82619,1,0,0:0:0:0:
64,192,82726,1,2,0:0:0:0:
192,192,82726,1,0,0:0:0:0:
320,192,82833,1,8,0:0:0:0:
448,192,82833,1,0,0:0:0:0:
192,192,82940,1,4,0:0:0:0:
64,192,82940,1,2,0:0:0:0:
448,192,83047,1,0,0:0:0:0:
320,192,83155,1,0,0:0:0:0:
192,192,83262,1,0,0:0:0:0:
64,192,83369,1,8,0:0:0:0:
448,192,83369,1,0,0:0:0:0:
320,192,83476,1,0,0:0:0:0:
64,192,83583,1,0,0:0:0:0:
448,192,83690,1,0,0:0:0:0:
192,192,83690,1,2,0:0:0:0:
320,192,83797,1,0,0:0:0:0:
192,192,83905,1,0,0:0:0:0:
64,192,84012,1,2,0:0:0:0:
320,192,84012,1,0,0:0:0:0:
448,192,84119,1,0,0:0:0:0:
192,192,84226,1,0,0:0:0:0:
64,192,84226,1,8,0:0:0:0:
448,192,84333,1,0,0:0:0:0:
320,192,84440,1,0,0:0:0:0:
64,192,84547,1,0,0:0:0:0:
192,192,84655,1,2,0:0:0:0:
448,192,84655,1,0,0:0:0:0:
320,192,84762,1,0,0:0:0:0:
64,192,84869,1,0,0:0:0:0:
448,192,84976,1,0,0:0:0:0:
64,192,85083,1,8,0:0:0:0:
192,192,85083,1,0,0:0:0:0:
320,192,85190,1,0,0:0:0:0:
192,192,85297,1,0,0:0:0:0:
64,192,85405,1,2,0:0:0:0:
448,192,85405,1,0,0:0:0:0:
320,192,85512,1,0,0:0:0:0:
448,192,85619,1,0,0:0:0:0:
64,192,85726,1,2,0:0:0:0:
320,192,85726,1,0,0:0:0:0:
192,192,85833,1,0,0:0:0:0:
448,192,85940,1,0,0:0:0:0:
64,192,85940,1,8,0:0:0:0:
320,192,86047,1,0,0:0:0:0:
192,192,86047,1,2,0:0:0:0:
448,192,86155,1,0,0:0:0:0:
320,192,86262,1,0,0:0:0:0:
64,192,86369,1,2,0:0:0:0:
192,192,86369,1,0,0:0:0:0:
320,192,86476,1,0,0:0:0:0:
448,192,86583,1,0,0:0:0:0:
192,192,86690,1,0,0:0:0:0:
320,192,86797,1,0,0:0:0:0:
64,192,86797,1,8,0:0:0:0:
448,192,86905,1,0,0:0:0:0:
320,192,87012,1,0,0:0:0:0:
64,192,87119,1,2,0:0:0:0:
192,192,87119,1,0,0:0:0:0:
448,192,87226,1,0,0:0:0:0:
320,192,87333,1,0,0:0:0:0:
192,192,87440,1,2,0:0:0:0:
448,192,87440,1,0,0:0:0:0:
64,192,87547,1,0,0:0:0:0:
192,192,87655,1,8,0:0:0:0:
320,192,87655,1,0,0:0:0:0:
448,192,87762,1,0,0:0:0:0:
64,192,87869,1,0,0:0:0:0:
192,192,87976,1,0,0:0:0:0:
64,192,88083,1,2,0:0:0:0:
320,192,88083,1,0,0:0:0:0:
448,192,88190,1,0,0:0:0:0:
192,192,88297,1,0,0:0:0:0:
320,192,88405,1,0,0:0:0:0:
64,192,88512,1,8,0:0:0:0:
192,192,88512,1,0,0:0:0:0:
448,192,88619,1,0,0:0:0:0:
64,192,88726,1,0,0:0:0:0:
448,192,88833,1,0,0:0:0:0:
320,192,88833,1,2,0:0:0:0:
192,192,88940,1,0,0:0:0:0:
320,192,89047,1,0,0:0:0:0:
192,192,89155,1,2,0:0:0:0:
448,192,89155,1,0,0:0:0:0:
64,192,89262,1,0,0:0:0:0:
320,192,89369,1,8,0:0:0:0:
448,192,89369,1,0,0:0:0:0:
64,192,89476,1,2,0:0:0:0:
192,192,89476,1,0,0:0:0:0:
320,192,89583,1,0,0:0:0:0:
448,192,89690,1,0,0:0:0:0:
64,192,89690,1,8,0:0:0:0:
320,192,89797,1,0,0:0:0:0:
192,192,89797,1,2,0:0:0:0:
448,192,89905,1,0,0:0:0:0:
64,192,90012,1,0,0:0:0:0:
192,192,90119,1,0,0:0:0:0:
448,192,90226,1,0,0:0:0:0:
64,192,90226,1,8,0:0:0:0:
320,192,90333,1,0,0:0:0:0:
192,192,90440,1,0,0:0:0:0:
320,192,90547,1,0,0:0:0:0:
64,192,90547,1,2,0:0:0:0:
448,192,90655,1,0,0:0:0:0:
64,192,90762,1,0,0:0:0:0:
192,192,90869,1,2,0:0:0:0:
320,192,90869,1,0,0:0:0:0:
448,192,90976,1,0,0:0:0:0:
192,192,91083,1,0,0:0:0:0:
64,192,91083,1,8,0:0:0:0:
320,192,91190,1,0,0:0:0:0:
64,192,91297,1,0,0:0:0:0:
320,192,91405,1,0,0:0:0:0:
448,192,91512,1,0,0:0:0:0:
192,192,91512,1,2,0:0:0:0:
64,192,91619,1,0,0:0:0:0:
192,192,91726,1,0,0:0:0:0:
320,192,91833,1,0,0:0:0:0:
64,192,91940,1,8,0:0:0:0:
448,192,91940,1,0,0:0:0:0:
192,192,92047,1,0,0:0:0:0:
448,192,92155,1,0,0:0:0:0:
320,192,92262,1,0,0:0:0:0:
192,192,92262,1,2,0:0:0:0:
64,192,92369,1,0,0:0:0:0:
448,192,92476,1,0,0:0:0:0:
64,192,92583,1,2,0:0:0:0:
320,192,92583,1,0,0:0:0:0:
192,192,92690,1,0,0:0:0:0:
320,192,92797,1,8,0:0:0:0:
448,192,92797,1,0,0:0:0:0:
64,192,92905,1,2,0:0:0:0:
192,192,92905,1,0,0:0:0:0:
448,192,93012,1,0,0:0:0:0:
64,192,93119,1,0,0:0:0:0:
192,192,93226,1,2,0:0:0:0:
320,192,93226,1,0,0:0:0:0:
448,192,93333,1,0,0:0:0:0:
64,192,93440,1,0,0:0:0:0:
320,192,93547,1,0,0:0:0:0:
64,192,93655,1,8,0:0:0:0:
192,192,93655,1,0,0:0:0:0:
448,192,93762,1,0,0:0:0:0:
320,192,93869,1,0,0:0:0:0:
64,192,93976,1,2,0:0:0:0:
192,192,93976,1,0,0:0:0:0:
448,192,94083,1,0,0:0:0:0:
320,192,94190,1,0,0:0:0:0:
64,192,94297,1,2,0:0:0:0:
448,192,94297,1,0,0:0:0:0:
192,192,94405,1,0,0:0:0:0:
320,192,94512,1,0,0:0:0:0:
64,192,94512,1,8,0:0:0:0:
448,192,94619,1,0,0:0:0:0:
192,192,94726,1,0,0:0:0:0:
64,192,94833,1,0,0:0:0:0:
192,192,94940,1,2,0:0:0:0:
320,192,94940,1,0,0:0:0:0:
448,192,95047,1,0,0:0:0:0:
64,192,95155,1,0,0:0:0:0:
192,192,95262,1,0,0:0:0:0:
448,192,95369,1,0,0:0:0:0:
64,192,95369,1,8,0:0:0:0:
320,192,95476,1,0,0:0:0:0:
448,192,95583,1,0,0:0:0:0:
192,192,95690,1,0,0:0:0:0:
64,192,95690,1,2,0:0:0:0:
320,192,95797,1,0,0:0:0:0:
64,192,95905,1,0,0:0:0:0:
320,192,96012,1,2,0:0:0:0:
448,192,96012,1,0,0:0:0:0:
192,192,96119,1,0,0:0:0:0:
64,192,96226,1,8,0:0:0:0:
448,192,96226,1,0,0:0:0:0:
320,192,96333,1,0,0:0:0:0:
192,192,96333,1,2,0:0:0:0:
64,192,96440,1,0,0:0:0:0:
448,192,96547,1,0,0:0:0:0:
320,192,96547,1,8,0:0:0:0:
64,192,96655,1,2,0:0:0:0:
192,192,96655,128,0,97083:0:0:0:0:
448,192,96869,1,8,0:0:0:0:
320,192,96869,128,0,97083:0:0:0:0:
64,192,97083,128,0,97190:0:0:0:0:
448,192,97190,1,8,0:0:0:0:
320,192,97190,128,0,97297:0:0:0:0:
192,192,97297,1,0,0:0:0:0:
64,192,97297,1,2,0:0:0:0:
448,192,97405,128,0,97726:0:0:0:0:
320,192,97512,1,8,0:0:0:0:
64,192,97619,1,8,0:0:0:0:
192,192,97726,128,0,97940:0:0:0:0:
320,192,97726,1,2,0:0:0:0:
320,192,97940,128,0,98155:0:0:0:0:
64,192,97940,1,8,0:0:0:0:
448,192,98047,1,8,0:0:0:0:
64,192,98155,128,0,98369:0:0:0:0:
192,192,98155,1,0,0:0:0:0:
448,192,98262,1,8,0:0:0:0:
192,192,98369,1,2,0:0:0:0:
320,192,98369,1,4,0:0:0:0:
448,192,98583,1,0,0:0:0:0:
192,192,98690,1,0,0:0:0:0:
64,192,98797,1,8,0:0:0:0:
448,192,98797,1,0,0:0:0:0:
320,192,98905,1,0,0:0:0:0:
192,192,99012,1,0,0:0:0:0:
320,192,99119,1,2,0:0:0:0:
448,192,99119,1,0,0:0:0:0:
64,192,99226,1,0,0:0:0:0:
192,192,99333,1,0,0:0:0:0:
64,192,99440,1,2,0:0:0:0:
320,192,99440,1,0,0:0:0:0:
448,192,99547,1,0,0:0:0:0:
320,192,99655,1,0,0:0:0:0:
192,192,99655,1,8,0:0:0:0:
64,192,99762,1,0,0:0:0:0:
448,192,99869,1,0,0:0:0:0:
320,192,99976,1,0,0:0:0:0:
64,192,100083,1,2,0:0:0:0:
192,192,100083,1,0,0:0:0:0:
448,192,100297,1,0,0:0:0:0:
64,192,100405,1,0,0:0:0:0:
320,192,100512,1,0,0:0:0:0:
192,192,100512,1,8,0:0:0:0:
64,192,100619,1,0,0:0:0:0:
448,192,100726,1,0,0:0:0:0:
192,192,100833,1,2,0:0:0:0:
320,192,100833,1,0,0:0:0:0:
64,192,100940,1,0,0:0:0:0:
320,192,101047,1,0,0:0:0:0:
64,192,101155,1,2,0:0:0:0:
448,192,101155,1,0,0:0:0:0:
192,192,101262,1,0,0:0:0:0:
320,192,101369,1,8,0:0:0:0:
448,192,101369,1,0,0:0:0:0:
192,192,101476,1,0,0:0:0:0:
64,192,101476,1,2,0:0:0:0:
320,192,101583,1,0,0:0:0:0:
448,192,101690,1,0,0:0:0:0:
192,192,101797,1,0,0:0:0:0:
64,192,101797,1,2,0:0:0:0:
320,192,102012,1,0,0:0:0:0:
192,192,102119,1,0,0:0:0:0:
448,192,102226,1,0,0:0:0:0:
64,192,102226,1,8,0:0:0:0:
320,192,102333,1,0,0:0:0:0:
64,192,102440,1,0,0:0:0:0:
448,192,102547,1,0,0:0:0:0:
192,192,102547,1,2,0:0:0:0:
320,192,102655,1,0,0:0:0:0:
192,192,102762,1,0,0:0:0:0:
320,192,102869,1,0,0:0:0:0:
64,192,102869,1,2,0:0:0:0:
448,192,102976,1,0,0:0:0:0:
192,192,103083,1,0,0:0:0:0:
64,192,103083,1,8,0:0:0:0:
448,192,103190,1,0,0:0:0:0:
320,192,103297,1,0,0:0:0:0:
192,192,103405,1,0,0:0:0:0:
64,192,103512,1,2,0:0:0:0:
448,192,103512,1,0,0:0:0:0:
320,192,103726,1,0,0:0:0:0:
192,192,103833,1,0,0:0:0:0:
320,192,103940,1,8,0:0:0:0:
448,192,103940,1,0,0:0:0:0:
64,192,104047,1,0,0:0:0:0:
192,192,104155,1,0,0:0:0:0:
64,192,104262,1,2,0:0:0:0:
320,192,104262,1,0,0:0:0:0:
192,192,104369,1,0,0:0:0:0:
448,192,104476,1,0,0:0:0:0:
64,192,104583,1,2,0:0:0:0:
320,192,104583,1,0,0:0:0:0:
192,192,104690,1,0,0:0:0:0:
320,192,104797,1,8,0:0:0:0:
448,192,104797,1,0,0:0:0:0:
64,192,104905,1,2,0:0:0:0:
192,192,104905,1,0,0:0:0:0:
448,192,105012,1,0,0:0:0:0:
320,192,105012,1,8,0:0:0:0:
320,192,105119,1,8,0:0:0:0:
448,192,105119,1,0,0:0:0:0:
192,192,105226,1,4,0:0:0:0:
64,192,105226,1,2,0:0:0:0:
320,192,105440,1,0,0:0:0:0:
192,192,105547,1,0,0:0:0:0:
448,192,105655,1,0,0:0:0:0:
64,192,105655,1,8,0:0:0:0:
320,192,105762,1,0,0:0:0:0:
64,192,105869,1,0,0:0:0:0:
320,192,105976,1,0,0:0:0:0:
192,192,105976,1,2,0:0:0:0:
448,192,106083,1,0,0:0:0:0:
192,192,106190,1,0,0:0:0:0:
64,192,106297,1,2,0:0:0:0:
448,192,106297,1,0,0:0:0:0:
320,192,106405,1,0,0:0:0:0:
64,192,106512,1,8,0:0:0:0:
192,192,106512,1,0,0:0:0:0:
320,192,106619,1,0,0:0:0:0:
448,192,106726,1,0,0:0:0:0:
192,192,106833,1,0,0:0:0:0:
64,192,106940,1,2,0:0:0:0:
320,192,106940,1,0,0:0:0:0:
448,192,107155,1,0,0:0:0:0:
64,192,107262,1,0,0:0:0:0:
320,192,107369,1,0,0:0:0:0:
192,192,107369,1,8,0:0:0:0:
448,192,107476,1,0,0:0:0:0:
64,192,107583,1,0,0:0:0:0:
320,192,107690,1,2,0:0:0:0:
448,192,107690,1,0,0:0:0:0:
192,192,107797,1,0,0:0:0:0:
64,192,107905,1,0,0:0:0:0:
192,192,108012,1,2,0:0:0:0:
448,192,108012,1,0,0:0:0:0:
320,192,108119,1,0,0:0:0:0:
64,192,108226,1,8,0:0:0:0:
448,192,108226,1,0,0:0:0:0:
320,192,108333,1,0,0:0:0:0:
192,192,108333,1,2,0:0:0:0:
64,192,108440,1,0,0:0:0:0:
192,192,108547,1,0,0:0:0:0:
320,192,108655,1,2,0:0:0:0:
448,192,108655,1,0,0:0:0:0:
64,192,108869,1,0,0:0:0:0:
448,192,108976,1,0,0:0:0:0:
320,192,109083,1,0,0:0:0:0:
192,192,109083,1,8,0:0:0:0:
64,192,109190,1,0,0:0:0:0:
320,192,109297,1,0,0:0:0:0:
448,192,109405,1,0,0:0:0:0:
192,192,109405,1,2,0:0:0:0:
64,192,109512,1,0,0:0:0:0:
320,192,109619,1,0,0:0:0:0:
192,192,109726,1,0,0:0:0:0:
64,192,109726,1,2,0:0:0:0:
448,192,109833,1,0,0:0:0:0:
192,192,109940,1,8,0:0:0:0:
320,192,109940,1,0,0:0:0:0:
448,192,110047,1,0,0:0:0:0:
64,192,110155,1,0,0:0:0:0:
192,192,110262,1,0,0:0:0:0:
320,192,110369,1,2,0:0:0:0:
448,192,110369,1,0,0:0:0:0:
64,192,110583,1,0,0:0:0:0:
320,192,110690,1,0,0:0:0:0:
448,192,110797,1,0,0:0:0:0:
192,192,110797,1,8,0:0:0:0:
64,192,110905,1,0,0:0:0:0:
448,192,111012,1,0,0:0:0:0:
192,192,111119,1,0,0:0:0:0:
64,192,111119,1,2,0:0:0:0:
320,192,111226,1,0,0:0:0:0:
448,192,111333,1,0,0:0:0:0:
320,192,111440,1,0,0:0:0:0:
64,192,111440,1,2,0:0:0:0:
192,192,111547,1,0,0:0:0:0:
448,192,111655,1,0,0:0:0:0:
64,192,111655,1,8,0:0:0:0:
192,192,111762,1,2,0:0:0:0:
320,192,111762,1,0,0:0:0:0:
448,192,111869,1,0,0:0:0:0:
64,192,111976,1,0,0:0:0:0:
192,192,112083,1,2,0:0:0:0:
320,192,112083,128,4,113155:0:0:0:0:
448,192,112297,1,0,0:0:0:0:
64,192,112405,1,0,0:0:0:0:
192,192,112512,1,8,0:0:0:0:
448,192,112512,1,0,0:0:0:0:
64,192,112726,1,0,0:0:0:0:
192,192,112833,1,2,0:0:0:0:
448,192,112833,1,0,0:0:0:0:
64,192,112940,1,0,0:0:0:0:
448,192,113047,1,0,0:0:0:0:
192,192,113155,1,0,0:0:0:0:
64,192,113155,1,2,0:0:0:0:
320,192,113369,1,8,0:0:0:0:
448,192,113369,1,0,0:0:0:0:
192,192,113476,128,0,113797:0:0:0:0:
64,192,113476,1,2,0:0:0:0:
64,192,113797,1,0,0:0:0:0:
320,192,113905,1,0,0:0:0:0:
192,192,114012,1,0,0:0:0:0:
448,192,114119,1,0,0:0:0:0:
192,192,114333,1,0,0:0:0:0:
320,192,114440,1,0,0:0:0:0:
192,192,114547,1,0,0:0:0:0:
64,192,114655,1,0,0:0:0:0:
320,192,114762,1,0,0:0:0:0:
192,192,114869,1,0,0:0:0:0:
448,192,114976,1,0,0:0:0:0:
192,192,115190,1,0,0:0:0:0:
320,192,115297,1,0,0:0:0:0:
192,192,115405,1,0,0:0:0:0:
64,192,115512,1,0,0:0:0:0:
320,192,115619,1,0,0:0:0:0:
192,192,115726,1,0,0:0:0:0:
448,192,115833,128,0,115940:0:0:0:0:
192,192,116047,1,0,0:0:0:0:
320,192,116155,1,0,0:0:0:0:
192,192,116262,1,0,0:0:0:0:
64,192,116369,1,0,0:0:0:0:
320,192,116476,1,0,0:0:0:0:
192,192,116583,1,0,0:0:0:0:
448,192,116690,128,0,116797:0:0:0:0:
192,192,116905,1,0,0:0:0:0:
320,192,117012,1,0,0:0:0:0:
192,192,117119,1,0,0:0:0:0:
64,192,117226,1,0,0:0:0:0:
320,192,117333,1,0,0:0:0:0:
192,192,117440,128,0,117547:0:0:0:0:
448,192,117547,128,0,117655:0:0:0:0:
192,192,117762,1,0,0:0:0:0:
320,192,117869,1,0,0:0:0:0:
192,192,117976,1,0,0:0:0:0:
64,192,118083,1,0,0:0:0:0:
320,192,118190,1,0,0:0:0:0:
192,192,118297,128,0,118405:0:0:0:0:
448,192,118405,128,0,118512:0:0:0:0:
192,192,118619,1,0,0:0:0:0:
320,192,118726,1,0,0:0:0:0:
192,192,118833,1,0,0:0:0:0:
64,192,118940,128,0,119155:0:0:0:0:
320,192,119047,1,0,0:0:0:0:
192,192,119155,128,0,119262:0:0:0:0:
448,192,119262,128,0,119369:0:0:0:0:
192,192,119476,1,0,0:0:0:0:
320,192,119583,1,0,0:0:0:0:
192,192,119690,1,0,0:0:0:0:
64,192,119797,128,0,120012:0:0:0:0:
320,192,119905,1,0,0:0:0:0:
192,192,120012,128,0,120119:0:0:0:0:
448,192,120119,128,0,120226:0:0:0:0:
64,192,120226,128,0,120333:0:0:0:0:
192,192,120333,128,0,120440:0:0:0:0:
320,192,120440,128,0,120547:0:0:0:0:
448,192,120547,128,0,120655:0:0:0:0:
64,192,120655,128,0,120869:0:0:0:0:
320,192,120762,1,0,0:0:0:0:
192,192,120869,128,0,120976:0:0:0:0:
448,192,120976,128,0,121083:0:0:0:0:
192,192,121190,1,0,0:0:0:0:
320,192,121297,1,0,0:0:0:0:
192,192,121405,1,0,0:0:0:0:
64,192,121512,128,0,121726:0:0:0:0:
320,192,121619,1,0,0:0:0:0:
192,192,121726,128,0,121833:0:0:0:0:
448,192,121833,128,0,121940:0:0:0:0:
448,192,122047,128,0,122369:0:0:0:0:
320,192,122155,1,0,0:0:0:0:
192,192,122262,1,0,0:0:0:0:
64,192,122369,128,0,122583:0:0:0:0:
320,192,122476,1,0,0:0:0:0:
192,192,122583,128,0,122690:0:0:0:0:
448,192,122690,128,0,122797:0:0:0:0:
192,192,122905,128,0,123012:0:0:0:0:
320,192,123012,1,0,0:0:0:0:
192,192,123119,128,0,123226:0:0:0:0:
64,192,123226,128,0,123440:0:0:0:0:
320,192,123333,1,0,0:0:0:0:
192,192,123440,128,0,123547:0:0:0:0:
448,192,123547,128,0,123655:0:0:0:0:
448,192,123762,128,0,124083:0:0:0:0:
320,192,123869,1,0,0:0:0:0:
192,192,123976,1,0,0:0:0:0:
64,192,124083,128,0,124297:0:0:0:0:
320,192,124190,1,0,0:0:0:0:
192,192,124297,128,0,124405:0:0:0:0:
448,192,124405,128,0,124512:0:0:0:0:
192,192,124619,128,0,124726:0:0:0:0:
320,192,124726,1,0,0:0:0:0:
192,192,124833,128,0,124940:0:0:0:0:
64,192,124940,128,0,125155:0:0:0:0:
320,192,125047,1,0,0:0:0:0:
192,192,125155,128,0,125262:0:0:0:0:
448,192,125262,128,0,125369:0:0:0:0:
448,192,125476,128,0,125797:0:0:0:0:
320,192,125583,128,0,125690:0:0:0:0:
192,192,125690,128,0,125797:0:0:0:0:
64,192,125797,128,0,126012:0:0:0:0:
320,192,125905,128,0,126012:0:0:0:0:
192,192,126012,128,0,126119:0:0:0:0:
448,192,126119,128,0,126226:0:0:0:0:
192,192,126333,128,0,126440:0:0:0:0:
320,192,126440,128,0,126547:0:0:0:0:
192,192,126547,128,0,126655:0:0:0:0:
64,192,126655,128,0,126869:0:0:0:0:
320,192,126762,128,0,126869:0:0:0:0:
192,192,126869,128,0,126976:0:0:0:0:
448,192,126976,5,0,0:0:0:0:
320,192,126976,1,2,0:0:0:0:
64,192,127190,1,8,0:0:0:0:
192,192,127190,1,0,0:0:0:0:
320,192,127297,1,2,0:0:0:0:
448,192,127297,1,0,0:0:0:0:
192,192,127405,1,0,0:0:0:0:
64,192,127405,1,2,0:0:0:0:
192,192,127512,128,4,127940:0:0:0:0:
64,192,127512,128,2,127940:0:0:0:0:
320,192,127940,1,8,0:0:0:0:
448,192,127940,1,0,0:0:0:0:
192,192,128262,1,2,0:0:0:0:
320,192,128262,1,0,0:0:0:0:
64,192,128583,128,2,128797:0:0:0:0:
448,192,128583,128,0,128797:0:0:0:0:
192,192,128797,1,8,0:0:0:0:
320,192,128797,1,0,0:0:0:0:
64,192,128905,128,2,129226:0:0:0:0:
448,192,128905,128,0,129226:0:0:0:0:
192,192,129226,128,2,129655:0:0:0:0:
320,192,129226,128,0,129655:0:0:0:0:
64,192,129655,1,8,0:0:0:0:
448,192,129655,1,0,0:0:0:0:
64,192,129976,1,2,0:0:0:0:
320,192,129976,1,0,0:0:0:0:
448,192,130297,128,0,130512:0:0:0:0:
192,192,130297,128,2,130512:0:0:0:0:
320,192,130512,1,0,0:0:0:0:
64,192,130512,1,8,0:0:0:0:
448,192,130619,128,0,130940:0:0:0:0:
192,192,130619,128,2,130940:0:0:0:0:
64,192,130940,128,2,131369:0:0:0:0:
320,192,130940,128,0,131369:0:0:0:0:
192,192,131369,1,8,0:0:0:0:
448,192,131369,1,0,0:0:0:0:
320,192,131690,1,2,0:0:0:0:
448,192,131690,1,0,0:0:0:0:
64,192,132012,128,2,132226:0:0:0:0:
192,192,132012,128,0,132226:0:0:0:0:
320,192,132226,1,8,0:0:0:0:
448,192,132226,1,0,0:0:0:0:
192,192,132333,128,0,132655:0:0:0:0:
64,192,132333,128,2,132655:0:0:0:0:
320,192,132655,128,2,132869:0:0:0:0:
448,192,132655,1,0,0:0:0:0:
192,192,132976,1,0,0:0:0:0:
64,192,132976,1,2,0:0:0:0:
448,192,133083,128,0,133405:0:0:0:0:
320,192,133083,1,8,0:0:0:0:
192,192,133405,1,2,0:0:0:0:
64,192,133405,128,0,133726:0:0:0:0:
448,192,133619,1,8,0:0:0:0:
192,192,133726,1,2,0:0:0:0:
320,192,133726,128,0,133940:0:0:0:0:
64,192,133940,128,0,134047:0:0:0:0:
448,192,133940,1,8,0:0:0:0:
192,192,134047,128,2,134155:0:0:0:0:
320,192,134155,128,0,134262:0:0:0:0:
448,192,134262,128,8,134369:0:0:0:0:
192,192,134369,1,2,0:0:0:0:
64,192,134369,128,4,134797:0:0:0:0:
448,192,134476,1,0,0:0:0:0:
320,192,134583,1,0,0:0:0:0:
192,192,134690,1,0,0:0:0:0:
320,192,134797,1,8,0:0:0:0:
448,192,134797,1,0,0:0:0:0:
192,192,134905,1,0,0:0:0:0:
64,192,135012,1,0,0:0:0:0:
448,192,135119,1,0,0:0:0:0:
320,192,135119,1,2,0:0:0:0:
64,192,135226,1,0,0:0:0:0:
320,192,135440,128,0,135655:0:0:0:0:
192,192,135440,1,2,0:0:0:0:
64,192,135655,1,8,0:0:0:0:
448,192,135655,1,0,0:0:0:0:
320,192,135762,128,0,136083:0:0:0:0:
192,192,135762,1,2,0:0:0:0:
64,192,135976,1,8,0:0:0:0:
192,192,136083,128,0,136512:0:0:0:0:
448,192,136083,1,2,0:0:0:0:
320,192,136190,1,0,0:0:0:0:
64,192,136297,1,0,0:0:0:0:
448,192,136405,1,0,0:0:0:0:
320,192,136512,1,0,0:0:0:0:
64,192,136512,1,8,0:0:0:0:
448,192,136619,1,0,0:0:0:0:
192,192,136726,1,0,0:0:0:0:
320,192,136833,1,0,0:0:0:0:
64,192,136833,1,2,0:0:0:0:
192,192,136940,1,0,0:0:0:0:
448,192,137155,128,0,137369:0:0:0:0:
64,192,137155,1,2,0:0:0:0:
192,192,137369,1,8,0:0:0:0:
320,192,137369,1,0,0:0:0:0:
448,192,137476,128,0,137797:0:0:0:0:
64,192,137476,1,2,0:0:0:0:
192,192,137690,1,8,0:0:0:0:
64,192,137797,128,4,138226:0:0:0:0:
320,192,137797,1,2,0:0:0:0:
448,192,137905,1,0,0:0:0:0:
192,192,138012,1,0,0:0:0:0:
320,192,138119,1,0,0:0:0:0:
192,192,138226,1,8,0:0:0:0:
448,192,138226,1,0,0:0:0:0:
320,192,138333,1,0,0:0:0:0:
64,192,138440,1,0,0:0:0:0:
448,192,138547,1,0,0:0:0:0:
192,192,138547,1,2,0:0:0:0:
64,192,138655,1,0,0:0:0:0:
192,192,138869,1,2,0:0:0:0:
320,192,138869,128,0,139083:0:0:0:0:
64,192,139083,1,8,0:0:0:0:
448,192,139083,1,0,0:0:0:0:
320,192,139190,128,0,139512:0:0:0:0:
192,192,139190,1,2,0:0:0:0:
64,192,139405,1,8,0:0:0:0:
192,192,139512,1,2,0:0:0:0:
448,192,139512,128,0,139726:0:0:0:0:
320,192,139619,1,0,0:0:0:0:
64,192,139726,1,0,0:0:0:0:
192,192,139833,128,0,140047:0:0:0:0:
448,192,139833,1,2,0:0:0:0:
64,192,139940,1,8,0:0:0:0:
320,192,139940,1,0,0:0:0:0:
448,192,140047,1,0,0:0:0:0:
320,192,140155,128,0,140369:0:0:0:0:
192,192,140155,1,2,0:0:0:0:
64,192,140262,1,0,0:0:0:0:
192,192,140369,1,0,0:0:0:0:
64,192,140476,128,0,140690:0:0:0:0:
320,192,140476,1,2,0:0:0:0:
192,192,140583,1,8,0:0:0:0:
448,192,140583,1,0,0:0:0:0:
320,192,140690,1,0,0:0:0:0:
64,192,140797,128,0,141119:0:0:0:0:
448,192,140797,1,2,0:0:0:0:
192,192,140905,1,0,0:0:0:0:
448,192,141012,1,0,0:0:0:0:
320,192,141012,1,8,0:0:0:0:
320,192,141119,1,8,0:0:0:0:
448,192,141119,1,0,0:0:0:0:
64,192,141226,1,2,0:0:0:0:
192,192,141226,128,4,141440:0:0:0:0:
320,192,141333,1,0,0:0:0:0:
64,192,141440,1,8,0:0:0:0:
448,192,141440,1,0,0:0:0:0:
320,192,141547,128,0,141762:0:0:0:0:
192,192,141547,1,2,0:0:0:0:
64,192,141655,1,0,0:0:0:0:
448,192,141762,1,0,0:0:0:0:
192,192,141762,1,8,0:0:0:0:
64,192,141869,128,0,142083:0:0:0:0:
320,192,141869,1,2,0:0:0:0:
192,192,141976,1,0,0:0:0:0:
448,192,142083,1,0,0:0:0:0:
320,192,142083,1,8,0:0:0:0:
64,192,142190,1,2,0:0:0:0:
192,192,142190,1,0,0:0:0:0:
64,192,142297,1,2,0:0:0:0:
192,192,142297,1,0,0:0:0:0:
320,192,142405,1,8,0:0:0:0:
448,192,142405,1,0,0:0:0:0:
64,192,142512,1,2,0:0:0:0:
192,192,142512,1,0,0:0:0:0:
448,192,142619,1,0,0:0:0:0:
320,192,142726,1,0,0:0:0:0:
192,192,142833,128,0,144655:0:0:0:0:
320,192,144655,1,4,0:0:0:0:
64,192,144655,1,2,0:0:0:0:
448,192,144869,1,0,0:0:0:0:
320,192,144976,1,0,0:0:0:0:
192,192,145083,1,0,0:0:0:0:
64,192,145083,1,8,0:0:0:0:
448,192,145190,1,0,0:0:0:0:
320,192,145297,1,0,0:0:0:0:
448,192,145405,1,0,0:0:0:0:
192,192,145405,1,2,0:0:0:0:
64,192,145512,1,0,0:0:0:0:
64,192,145726,1,2,0:0:0:0:
320,192,145726,1,0,0:0:0:0:
192,192,145833,1,0,0:0:0:0:
448,192,145940,1,8,0:0:0:0:
320,192,145940,128,0,146155:0:0:0:0:
192,192,146047,1,0,0:0:0:0:
64,192,146155,128,0,146369:0:0:0:0:
448,192,146262,1,0,0:0:0:0:
192,192,146369,1,2,0:0:0:0:
320,192,146369,128,0,146583:0:0:0:0:
64,192,146583,1,0,0:0:0:0:
448,192,146690,1,0,0:0:0:0:
64,192,146797,1,8,0:0:0:0:
320,192,146797,1,0,0:0:0:0:
192,192,146905,1,0,0:0:0:0:
448,192,147012,1,0,0:0:0:0:
320,192,147119,1,0,0:0:0:0:
192,192,147119,1,2,0:0:0:0:
448,192,147226,1,0,0:0:0:0:
64,192,147333,1,0,0:0:0:0:
320,192,147440,1,0,0:0:0:0:
192,192,147440,1,2,0:0:0:0:
448,192,147547,1,0,0:0:0:0:
320,192,147655,128,0,147869:0:0:0:0:
64,192,147655,1,8,0:0:0:0:
448,192,147762,1,0,0:0:0:0:
192,192,147762,1,2,0:0:0:0:
64,192,147869,128,0,148083:0:0:0:0:
192,192,147976,1,0,0:0:0:0:
320,192,148083,128,0,148297:0:0:0:0:
448,192,148083,1,2,0:0:0:0:
64,192,148297,1,0,0:0:0:0:
192,192,148405,1,0,0:0:0:0:
320,192,148512,1,8,0:0:0:0:
448,192,148512,1,0,0:0:0:0:
64,192,148619,1,0,0:0:0:0:
192,192,148726,1,0,0:0:0:0:
448,192,148833,1,0,0:0:0:0:
64,192,148833,1,2,0:0:0:0:
320,192,148940,1,0,0:0:0:0:
64,192,149155,1,2,0:0:0:0:
192,192,149155,1,0,0:0:0:0:
448,192,149262,1,0,0:0:0:0:
64,192,149369,1,8,0:0:0:0:
320,192,149369,128,0,149583:0:0:0:0:
448,192,149476,1,0,0:0:0:0:
192,192,149583,128,0,149797:0:0:0:0:
64,192,149690,1,0,0:0:0:0:
320,192,149797,1,2,0:0:0:0:
448,192,149797,128,0,150012:0:0:0:0:
64,192,150012,1,0,0:0:0:0:
192,192,150119,1,0,0:0:0:0:
448,192,150226,1,0,0:0:0:0:
320,192,150226,1,8,0:0:0:0:
64,192,150333,1,0,0:0:0:0:
320,192,150440,1,0,0:0:0:0:
448,192,150547,1,0,0:0:0:0:
192,192,150547,1,2,0:0:0:0:
64,192,150655,1,0,0:0:0:0:
448,192,150762,1,0,0:0:0:0:
64,192,150869,1,2,0:0:0:0:
320,192,150869,1,0,0:0:0:0:
192,192,150976,1,0,0:0:0:0:
320,192,151083,128,0,151297:0:0:0:0:
448,192,151083,1,8,0:0:0:0:
192,192,151190,1,2,0:0:0:0:
64,192,151297,128,0,151512:0:0:0:0:
448,192,151297,1,8,0:0:0:0:
448,192,151405,1,8,0:0:0:0:
320,192,151512,128,0,151726:0:0:0:0:
192,192,151512,1,2,0:0:0:0:
64,192,151726,1,0,0:0:0:0:
448,192,151833,1,0,0:0:0:0:
320,192,151940,1,0,0:0:0:0:
192,192,151940,1,8,0:0:0:0:
64,192,152047,1,0,0:0:0:0:
448,192,152155,1,0,0:0:0:0:
192,192,152262,1,0,0:0:0:0:
64,192,152262,1,2,0:0:0:0:
320,192,152369,1,0,0:0:0:0:
192,192,152583,1,2,0:0:0:0:
448,192,152583,1,0,0:0:0:0:
64,192,152690,1,0,0:0:0:0:
320,192,152797,128,0,153012:0:0:0:0:
192,192,152797,1,8,0:0:0:0:
448,192,152905,1,0,0:0:0:0:
64,192,153012,128,0,153226:0:0:0:0:
192,192,153119,1,0,0:0:0:0:
320,192,153226,128,0,153440:0:0:0:0:
448,192,153226,1,2,0:0:0:0:
64,192,153440,1,0,0:0:0:0:
192,192,153547,1,0,0:0:0:0:
448,192,153655,1,0,0:0:0:0:
320,192,153655,1,8,0:0:0:0:
192,192,153762,1,0,0:0:0:0:
448,192,153869,1,0,0:0:0:0:
320,192,153976,1,0,0:0:0:0:
64,192,153976,1,2,0:0:0:0:
192,192,154083,1,0,0:0:0:0:
64,192,154190,1,0,0:0:0:0:
320,192,154297,1,2,0:0:0:0:
448,192,154297,1,0,0:0:0:0:
192,192,154405,1,0,0:0:0:0:
320,192,154512,128,0,154726:0:0:0:0:
64,192,154512,1,8,0:0:0:0:
448,192,154619,1,0,0:0:0:0:
192,192,154619,1,2,0:0:0:0:
64,192,154726,128,0,154940:0:0:0:0:
448,192,154833,1,0,0:0:0:0:
320,192,154940,128,0,155155:0:0:0:0:
192,192,154940,1,2,0:0:0:0:
448,192,155155,1,0,0:0:0:0:
192,192,155262,1,0,0:0:0:0:
64,192,155369,1,8,0:0:0:0:
320,192,155369,1,0,0:0:0:0:
448,192,155476,1,0,0:0:0:0:
64,192,155583,1,0,0:0:0:0:
448,192,155690,1,0,0:0:0:0:
320,192,155690,1,2,0:0:0:0:
192,192,155797,1,0,0:0:0:0:
64,192,156012,1,2,0:0:0:0:
320,192,156012,1,0,0:0:0:0:
448,192,156119,1,0,0:0:0:0:
320,192,156226,128,0,156440:0:0:0:0:
192,192,156226,1,8,0:0:0:0:
64,192,156333,1,2,0:0:0:0:
448,192,156333,1,0,0:0:0:0:
192,192,156440,128,0,156655:0:0:0:0:
64,192,156547,1,8,0:0:0:0:
448,192,156655,128,0,157405:0:0:0:0:
320,192,156655,1,2,0:0:0:0:
64,192,156762,1,8,0:0:0:0:
192,192,156869,1,0,0:0:0:0:
320,192,156976,1,2,0:0:0:0:
192,192,157083,1,0,0:0:0:0:
64,192,157083,1,8,0:0:0:0:
320,192,157190,1,0,0:0:0:0:
64,192,157297,1,8,0:0:0:0:
320,192,157405,1,0,0:0:0:0:
192,192,157405,1,2,0:0:0:0:
64,192,157512,128,0,157940:0:0:0:0:
192,192,157619,1,8,0:0:0:0:
448,192,157726,1,0,0:0:0:0:
320,192,157726,1,2,0:0:0:0:
192,192,157833,1,0,0:0:0:0:
320,192,157940,1,8,0:0:0:0:
448,192,157940,1,0,0:0:0:0:
192,192,158047,1,0,0:0:0:0:
64,192,158047,1,2,0:0:0:0:
448,192,158155,1,0,0:0:0:0:
320,192,158155,1,8,0:0:0:0:
320,192,158262,1,8,0:0:0:0:
448,192,158262,1,0,0:0:0:0:
64,192,158369,1,2,0:0:0:0:
192,192,158369,1,4,0:0:0:0:
320,192,158476,1,0,0:0:0:0:
448,192,158583,1,0,0:0:0:0:
192,192,158690,1,0,0:0:0:0:
448,192,158797,1,0,0:0:0:0:
320,192,158797,1,8,0:0:0:0:
64,192,158905,1,0,0:0:0:0:
192,192,159012,1,0,0:0:0:0:
64,192,159119,1,2,0:0:0:0:
320,192,159119,1,0,0:0:0:0:
448,192,159226,1,0,0:0:0:0:
320,192,159333,1,0,0:0:0:0:
64,192,159440,1,2,0:0:0:0:
192,192,159440,1,0,0:0:0:0:
448,192,159547,1,0,0:0:0:0:
64,192,159655,1,8,0:0:0:0:
320,192,159655,1,0,0:0:0:0:
192,192,159762,1,0,0:0:0:0:
448,192,159869,1,0,0:0:0:0:
64,192,159976,1,0,0:0:0:0:
320,192,160083,1,0,0:0:0:0:
192,192,160083,1,2,0:0:0:0:
448,192,160190,1,0,0:0:0:0:
192,192,160297,1,0,0:0:0:0:
64,192,160405,1,0,0:0:0:0:
448,192,160512,1,0,0:0:0:0:
320,192,160512,1,8,0:0:0:0:
192,192,160619,1,0,0:0:0:0:
448,192,160726,1,0,0:0:0:0:
320,192,160833,1,0,0:0:0:0:
64,192,160833,1,2,0:0:0:0:
192,192,160940,1,0,0:0:0:0:
448,192,161047,1,0,0:0:0:0:
192,192,161155,1,2,0:0:0:0:
320,192,161155,1,0,0:0:0:0:
64,192,161262,1,0,0:0:0:0:
448,192,161369,1,0,0:0:0:0:
320,192,161369,1,8,0:0:0:0:
192,192,161476,1,0,0:0:0:0:
64,192,161476,1,2,0:0:0:0:
448,192,161583,1,0,0:0:0:0:
192,192,161690,1,0,0:0:0:0:
64,192,161797,1,2,0:0:0:0:
320,192,161797,1,0,0:0:0:0:
448,192,161905,1,0,0:0:0:0:
320,192,162012,1,0,0:0:0:0:
192,192,162119,1,0,0:0:0:0:
64,192,162226,1,8,0:0:0:0:
448,192,162226,1,0,0:0:0:0:
320,192,162333,1,0,0:0:0:0:
64,192,162440,1,0,0:0:0:0:
448,192,162547,1,0,0:0:0:0:
192,192,162547,1,2,0:0:0:0:
320,192,162655,1,0,0:0:0:0:
64,192,162762,1,0,0:0:0:0:
192,192,162869,1,2,0:0:0:0:
320,192,162869,1,0,0:0:0:0:
448,192,162976,1,0,0:0:0:0:
64,192,163083,1,8,0:0:0:0:
192,192,163083,1,0,0:0:0:0:
448,192,163190,1,0,0:0:0:0:
320,192,163297,1,0,0:0:0:0:
64,192,163405,1,0,0:0:0:0:
320,192,163512,1,0,0:0:0:0:
192,192,163512,1,2,0:0:0:0:
448,192,163619,1,0,0:0:0:0:
64,192,163726,1,0,0:0:0:0:
192,192,163833,1,0,0:0:0:0:
64,192,163940,1,8,0:0:0:0:
448,192,163940,1,0,0:0:0:0:
320,192,164047,1,0,0:0:0:0:
448,192,164155,1,0,0:0:0:0:
64,192,164262,1,2,0:0:0:0:
320,192,164262,1,0,0:0:0:0:
192,192,164369,1,0,0:0:0:0:
448,192,164476,1,0,0:0:0:0:
320,192,164583,1,0,0:0:0:0:
192,192,164583,1,2,0:0:0:0:
64,192,164690,1,0,0:0:0:0:
320,192,164797,1,8,0:0:0:0:
448,192,164797,1,0,0:0:0:0:
64,192,164905,1,2,0:0:0:0:
192,192,164905,1,0,0:0:0:0:
448,192,165012,1,0,0:0:0:0:
320,192,165012,1,8,0:0:0:0:
320,192,165119,1,8,0:0:0:0:
448,192,165119,1,0,0:0:0:0:
192,192,165226,1,4,0:0:0:0:
64,192,165226,1,2,0:0:0:0:
448,192,165333,1,0,0:0:0:0:
64,192,165440,1,0,0:0:0:0:
320,192,165547,1,0,0:0:0:0:
192,192,165655,1,8,0:0:0:0:
448,192,165655,1,0,0:0:0:0:
64,192,165762,1,0,0:0:0:0:
448,192,165869,1,0,0:0:0:0:
192,192,165976,1,2,0:0:0:0:
320,192,165976,1,0,0:0:0:0:
64,192,166083,1,0,0:0:0:0:
448,192,166190,1,0,0:0:0:0:
192,192,166297,1,0,0:0:0:0:
64,192,166297,1,2,0:0:0:0:
320,192,166405,1,0,0:0:0:0:
448,192,166512,1,0,0:0:0:0:
192,192,166512,1,8,0:0:0:0:
64,192,166619,1,0,0:0:0:0:
320,192,166726,1,0,0:0:0:0:
448,192,166833,1,0,0:0:0:0:
320,192,166940,1,0,0:0:0:0:
192,192,166940,1,2,0:0:0:0:
64,192,167047,1,0,0:0:0:0:
448,192,167155,1,0,0:0:0:0:
192,192,167262,1,0,0:0:0:0:
320,192,167369,1,8,0:0:0:0:
448,192,167369,1,0,0:0:0:0:
64,192,167476,1,0,0:0:0:0:
320,192,167583,1,0,0:0:0:0:
448,192,167690,1,0,0:0:0:0:
64,192,167690,1,2,0:0:0:0:
192,192,167797,1,0,0:0:0:0:
448,192,167905,1,0,0:0:0:0:
64,192,168012,1,2,0:0:0:0:
320,192,168012,1,0,0:0:0:0:
192,192,168119,1,0,0:0:0:0:
64,192,168226,1,8,0:0:0:0:
448,192,168226,1,0,0:0:0:0:
320,192,168333,1,0,0:0:0:0:
192,192,168333,1,2,0:0:0:0:
448,192,168440,1,0,0:0:0:0:
64,192,168547,1,0,0:0:0:0:
320,192,168655,1,0,0:0:0:0:
192,192,168655,1,2,0:0:0:0:
448,192,168762,1,0,0:0:0:0:
64,192,168869,1,0,0:0:0:0:
192,192,168976,1,0,0:0:0:0:
64,192,169083,1,8,0:0:0:0:
448,192,169083,1,0,0:0:0:0:
320,192,169190,1,0,0:0:0:0:
448,192,169297,1,0,0:0:0:0:
64,192,169405,1,2,0:0:0:0:
192,192,169405,1,0,0:0:0:0:
320,192,169512,1,0,0:0:0:0:
448,192,169619,1,0,0:0:0:0:
192,192,169726,1,2,0:0:0:0:
320,192,169726,1,0,0:0:0:0:
64,192,169833,1,0,0:0:0:0:
192,192,169940,1,8,0:0:0:0:
448,192,169940,1,0,0:0:0:0:
320,192,170047,1,0,0:0:0:0:
64,192,170155,1,0,0:0:0:0:
192,192,170262,1,0,0:0:0:0:
448,192,170369,1,0,0:0:0:0:
320,192,170369,1,2,0:0:0:0:
64,192,170476,1,0,0:0:0:0:
448,192,170583,1,0,0:0:0:0:
192,192,170690,1,0,0:0:0:0:
64,192,170797,1,8,0:0:0:0:
320,192,170797,1,0,0:0:0:0:
192,192,170905,1,0,0:0:0:0:
64,192,171012,1,0,0:0:0:0:
320,192,171119,1,2,0:0:0:0:
448,192,171119,1,0,0:0:0:0:
192,192,171226,1,0,0:0:0:0:
64,192,171333,1,0,0:0:0:0:
448,192,171440,1,0,0:0:0:0:
192,192,171440,1,2,0:0:0:0:
320,192,171547,1,0,0:0:0:0:
64,192,171655,1,8,0:0:0:0:
448,192,171655,1,0,0:0:0:0:
192,192,171762,1,2,0:0:0:0:
320,192,171762,1,0,0:0:0:0:
64,192,171869,1,0,0:0:0:0:
192,192,171976,1,0,0:0:0:0:
448,192,172083,1,2,0:0:0:0:
320,192,172083,128,4,172940:0:0:0:0:
192,192,172297,1,0,0:0:0:0:
448,192,172405,1,0,0:0:0:0:
192,192,172512,1,0,0:0:0:0:
64,192,172512,1,8,0:0:0:0:
448,192,172726,1,0,0:0:0:0:
64,192,172833,1,2,0:0:0:0:
192,192,172833,1,0,0:0:0:0:
448,192,172940,1,0,0:0:0:0:
64,192,173047,1,0,0:0:0:0:
192,192,173155,1,2,0:0:0:0:
320,192,173155,1,0,0:0:0:0:
448,192,173369,1,0,0:0:0:0:
320,192,173369,1,8,0:0:0:0:
64,192,173476,1,2,0:0:0:0:
192,192,173476,1,0,0:0:0:0:
448,192,173583,1,0,0:0:0:0:
320,192,173690,1,8,0:0:0:0:
64,192,173797,1,2,0:0:0:0:
192,192,173797,128,0,174655:0:0:0:0:
64,192,174012,1,2,0:0:0:0:
320,192,174012,1,0,0:0:0:0:
320,192,174226,1,8,0:0:0:0:
448,192,174226,1,0,0:0:0:0:
64,192,174333,1,2,0:0:0:0:
448,192,174440,1,0,0:0:0:0:
64,192,174547,1,8,0:0:0:0:
320,192,174655,1,2,0:0:0:0:
448,192,174655,1,0,0:0:0:0:
192,192,174976,1,0,0:0:0:0:
64,192,175297,1,0,0:0:0:0:
64,192,175512,1,2,0:0:0:0:
448,192,175512,128,0,175726:0:0:0:0:
320,192,175726,128,0,175833:0:0:0:0:
448,192,175833,128,0,175940:0:0:0:0:
64,192,175940,1,8,0:0:0:0:
192,192,175940,1,0,0:0:0:0:
448,192,176047,128,0,176155:0:0:0:0:
192,192,176262,1,2,0:0:0:0:
448,192,176262,128,0,176369:0:0:0:0:
320,192,176369,128,0,176583:0:0:0:0:
64,192,176583,1,2,0:0:0:0:
192,192,176583,128,0,176690:0:0:0:0:
320,192,176690,128,0,176797:0:0:0:0:
64,192,176797,1,8,0:0:0:0:
448,192,176797,1,0,0:0:0:0:
320,192,176905,128,0,177226:0:0:0:0:
448,192,177119,128,0,177226:0:0:0:0:
64,192,177226,1,2,0:0:0:0:
192,192,177226,128,0,177440:0:0:0:0:
64,192,177440,128,0,177547:0:0:0:0:
192,192,177547,128,0,177655:0:0:0:0:
448,192,177655,1,0,0:0:0:0:
320,192,177655,1,8,0:0:0:0:
192,192,177762,128,0,177869:0:0:0:0:
448,192,177976,1,2,0:0:0:0:
192,192,177976,128,0,178083:0:0:0:0:
64,192,178083,128,0,178297:0:0:0:0:
320,192,178190,1,8,0:0:0:0:
192,192,178297,1,2,0:0:0:0:
448,192,178297,128,0,178405:0:0:0:0:
64,192,178405,128,0,178512:0:0:0:0:
320,192,178512,1,8,0:0:0:0:
448,192,178512,1,0,0:0:0:0:
64,192,178619,1,2,0:0:0:0:
192,192,178619,1,0,0:0:0:0:
448,192,178940,128,4,179155:0:0:0:0:
320,192,178940,1,2,0:0:0:0:
64,192,179155,1,0,0:0:0:0:
192,192,179262,1,0,0:0:0:0:
64,192,179369,1,8,0:0:0:0:
448,192,179369,1,0,0:0:0:0:
320,192,179476,1,0,0:0:0:0:
448,192,179583,1,0,0:0:0:0:
192,192,179690,1,0,0:0:0:0:
64,192,179690,1,2,0:0:0:0:
320,192,179797,1,0,0:0:0:0:
64,192,180012,128,0,180226:0:0:0:0:
448,192,180012,1,2,0:0:0:0:
192,192,180119,1,0,0:0:0:0:
320,192,180226,1,8,0:0:0:0:
448,192,180226,1,0,0:0:0:0:
64,192,180333,128,0,180655:0:0:0:0:
192,192,180440,1,0,0:0:0:0:
448,192,180547,1,0,0:0:0:0:
320,192,180655,128,0,180869:0:0:0:0:
192,192,180655,1,2,0:0:0:0:
448,192,180869,1,0,0:0:0:0:
192,192,180976,1,0,0:0:0:0:
320,192,181083,1,0,0:0:0:0:
64,192,181083,1,8,0:0:0:0:
448,192,181190,1,0,0:0:0:0:
320,192,181297,1,0,0:0:0:0:
64,192,181405,1,2,0:0:0:0:
192,192,181405,1,0,0:0:0:0:
448,192,181512,1,0,0:0:0:0:
192,192,181726,128,0,181940:0:0:0:0:
320,192,181726,1,2,0:0:0:0:
448,192,181833,1,0,0:0:0:0:
64,192,181940,1,8,0:0:0:0:
320,192,181940,1,0,0:0:0:0:
192,192,182047,128,0,182369:0:0:0:0:
448,192,182047,1,2,0:0:0:0:
64,192,182155,1,0,0:0:0:0:
320,192,182262,1,0,0:0:0:0:
448,192,182369,128,0,182583:0:0:0:0:
64,192,182369,1,2,0:0:0:0:
320,192,182583,1,0,0:0:0:0:
64,192,182690,1,0,0:0:0:0:
320,192,182797,1,0,0:0:0:0:
192,192,182797,1,8,0:0:0:0:
64,192,182905,1,0,0:0:0:0:
448,192,183012,1,0,0:0:0:0:
320,192,183119,1,0,0:0:0:0:
192,192,183119,1,2,0:0:0:0:
448,192,183226,1,0,0:0:0:0:
64,192,183440,128,0,183655:0:0:0:0:
320,192,183440,1,2,0:0:0:0:
192,192,183547,1,0,0:0:0:0:
320,192,183655,1,8,0:0:0:0:
448,192,183655,1,0,0:0:0:0:
64,192,183762,128,0,184083:0:0:0:0:
192,192,183869,1,0,0:0:0:0:
448,192,183976,1,0,0:0:0:0:
320,192,184083,128,0,184297:0:0:0:0:
192,192,184083,1,2,0:0:0:0:
448,192,184297,1,0,0:0:0:0:
64,192,184405,1,0,0:0:0:0:
320,192,184512,1,0,0:0:0:0:
192,192,184512,1,8,0:0:0:0:
448,192,184619,1,0,0:0:0:0:
192,192,184726,1,0,0:0:0:0:
320,192,184833,1,0,0:0:0:0:
64,192,184833,1,2,0:0:0:0:
448,192,184940,1,0,0:0:0:0:
320,192,185047,1,0,0:0:0:0:
192,192,185155,128,0,185369:0:0:0:0:
64,192,185155,1,2,0:0:0:0:
448,192,185369,1,0,0:0:0:0:
320,192,185369,1,8,0:0:0:0:
192,192,185476,128,0,185690:0:0:0:0:
64,192,185476,1,2,0:0:0:0:
448,192,185583,1,0,0:0:0:0:
320,192,185583,1,8,0:0:0:0:
448,192,185690,1,0,0:0:0:0:
320,192,185690,1,8,0:0:0:0:
64,192,185797,128,4,186012:0:0:0:0:
192,192,185797,1,2,0:0:0:0:
448,192,186012,1,0,0:0:0:0:
192,192,186119,1,0,0:0:0:0:
320,192,186226,1,0,0:0:0:0:
64,192,186226,1,8,0:0:0:0:
448,192,186333,1,0,0:0:0:0:
192,192,186440,1,0,0:0:0:0:
448,192,186547,1,0,0:0:0:0:
64,192,186547,1,2,0:0:0:0:
320,192,186655,1,0,0:0:0:0:
448,192,186869,128,0,187083:0:0:0:0:
192,192,186869,1,2,0:0:0:0:
320,192,186976,1,0,0:0:0:0:
192,192,187083,1,0,0:0:0:0:
64,192,187083,1,8,0:0:0:0:
448,192,187190,128,0,187512:0:0:0:0:
320,192,187297,1,0,0:0:0:0:
64,192,187405,1,0,0:0:0:0:
192,192,187512,128,0,187726:0:0:0:0:
320,192,187512,1,2,0:0:0:0:
64,192,187726,1,0,0:0:0:0:
320,192,187833,1,0,0:0:0:0:
64,192,187940,1,8,0:0:0:0:
448,192,187940,1,0,0:0:0:0:
192,192,188047,1,0,0:0:0:0:
320,192,188155,1,0,0:0:0:0:
192,192,188262,1,0,0:0:0:0:
64,192,188262,1,2,0:0:0:0:
448,192,188369,1,0,0:0:0:0:
320,192,188583,128,0,188797:0:0:0:0:
192,192,188583,1,2,0:0:0:0:
64,192,188690,1,0,0:0:0:0:
192,192,188797,1,8,0:0:0:0:
448,192,188797,1,0,0:0:0:0:
320,192,188905,128,0,189226:0:0:0:0:
64,192,188905,1,2,0:0:0:0:
448,192,189012,1,0,0:0:0:0:
192,192,189119,1,0,0:0:0:0:
64,192,189226,128,0,189440:0:0:0:0:
448,192,189226,1,2,0:0:0:0:
192,192,189440,1,0,0:0:0:0:
320,192,189547,1,0,0:0:0:0:
64,192,189655,1,8,0:0:0:0:
448,192,189655,1,0,0:0:0:0:
192,192,189762,1,0,0:0:0:0:
64,192,189869,1,0,0:0:0:0:
320,192,189976,1,2,0:0:0:0:
448,192,189976,1,0,0:0:0:0:
192,192,190083,1,0,0:0:0:0:
448,192,190297,128,0,190512:0:0:0:0:
64,192,190297,1,2,0:0:0:0:
320,192,190405,1,0,0:0:0:0:
64,192,190512,1,8,0:0:0:0:
192,192,190512,1,0,0:0:0:0:
448,192,190619,128,0,190940:0:0:0:0:
320,192,190726,1,0,0:0:0:0:
64,192,190833,1,0,0:0:0:0:
192,192,190940,128,0,191155:0:0:0:0:
320,192,190940,1,2,0:0:0:0:
64,192,191155,1,0,0:0:0:0:
448,192,191262,1,0,0:0:0:0:
64,192,191369,1,8,0:0:0:0:
320,192,191369,1,0,0:0:0:0:
192,192,191476,1,0,0:0:0:0:
448,192,191583,1,0,0:0:0:0:
320,192,191690,1,0,0:0:0:0:
192,192,191690,1,2,0:0:0:0:
64,192,191797,1,0,0:0:0:0:
448,192,191905,1,8,0:0:0:0:
320,192,192012,128,0,192226:0:0:0:0:
192,192,192012,1,2,0:0:0:0:
448,192,192226,1,0,0:0:0:0:
192,192,192226,1,8,0:0:0:0:
320,192,192333,128,0,192655:0:0:0:0:
64,192,192333,1,2,0:0:0:0:
192,192,192547,1,8,0:0:0:0:
448,192,192655,128,4,192869:0:0:0:0:
64,192,192655,1,2,0:0:0:0:
64,192,192869,1,0,0:0:0:0:
192,192,192976,1,2,0:0:0:0:
320,192,193083,1,8,0:0:0:0:
448,192,193083,1,0,0:0:0:0:
64,192,193297,1,0,0:0:0:0:
320,192,193405,1,0,0:0:0:0:
192,192,193405,1,2,0:0:0:0:
64,192,193512,1,0,0:0:0:0:
192,192,193726,128,0,193940:0:0:0:0:
448,192,193726,1,2,0:0:0:0:
64,192,193940,1,8,0:0:0:0:
320,192,193940,1,0,0:0:0:0:
192,192,194047,128,0,194369:0:0:0:0:
448,192,194155,1,0,0:0:0:0:
64,192,194262,1,2,0:0:0:0:
320,192,194369,128,0,194583:0:0:0:0:
448,192,194369,1,2,0:0:0:0:
64,192,194583,1,0,0:0:0:0:
448,192,194690,1,2,0:0:0:0:
192,192,194797,1,0,0:0:0:0:
64,192,194797,1,8,0:0:0:0:
448,192,195012,1,0,0:0:0:0:
192,192,195119,1,2,0:0:0:0:
320,192,195119,1,0,0:0:0:0:
448,192,195226,1,0,0:0:0:0:
64,192,195440,128,0,195655:0:0:0:0:
192,192,195440,1,2,0:0:0:0:
320,192,195655,1,8,0:0:0:0:
448,192,195655,1,0,0:0:0:0:
64,192,195762,128,0,196083:0:0:0:0:
192,192,195762,1,2,0:0:0:0:
320,192,195869,1,0,0:0:0:0:
192,192,195976,1,2,0:0:0:0:
448,192,196083,128,0,196297:0:0:0:0:
320,192,196083,1,2,0:0:0:0:
192,192,196297,1,0,0:0:0:0:
64,192,196405,1,2,0:0:0:0:
320,192,196512,1,8,0:0:0:0:
448,192,196512,1,0,0:0:0:0:
320,192,196726,1,0,0:0:0:0:
64,192,196833,1,2,0:0:0:0:
192,192,196833,1,0,0:0:0:0:
448,192,196940,1,0,0:0:0:0:
192,192,197155,128,0,197369:0:0:0:0:
448,192,197155,1,2,0:0:0:0:
64,192,197369,1,8,0:0:0:0:
320,192,197369,1,0,0:0:0:0:
192,192,197476,128,0,197797:0:0:0:0:
448,192,197583,1,0,0:0:0:0:
64,192,197690,1,2,0:0:0:0:
320,192,197797,128,0,198012:0:0:0:0:
448,192,197797,1,2,0:0:0:0:
64,192,198012,1,0,0:0:0:0:
448,192,198119,1,2,0:0:0:0:
192,192,198226,1,8,0:0:0:0:
320,192,198226,1,0,0:0:0:0:
192,192,198440,1,0,0:0:0:0:
64,192,198547,1,2,0:0:0:0:
448,192,198547,1,0,0:0:0:0:
320,192,198655,1,0,0:0:0:0:
448,192,198762,1,8,0:0:0:0:
64,192,198869,128,0,199083:0:0:0:0:
192,192,198869,1,2,0:0:0:0:
320,192,199083,1,8,0:0:0:0:
448,192,199083,1,0,0:0:0:0:
64,192,199190,128,0,199405:0:0:0:0:
192,192,199190,1,2,0:0:0:0:
448,192,199297,1,0,0:0:0:0:
320,192,199297,1,8,0:0:0:0:
448,192,199405,1,0,0:0:0:0:
320,192,199405,1,8,0:0:0:0:
192,192,199512,128,4,199726:0:0:0:0:
64,192,199512,1,2,0:0:0:0:
320,192,199726,1,0,0:0:0:0:
448,192,199833,1,2,0:0:0:0:
64,192,199940,1,8,0:0:0:0:
320,192,199940,1,0,0:0:0:0:
192,192,200262,1,2,0:0:0:0:
320,192,200262,1,0,0:0:0:0:
448,192,200583,128,0,200797:0:0:0:0:
192,192,200583,1,2,0:0:0:0:
64,192,200797,1,8,0:0:0:0:
320,192,200797,1,0,0:0:0:0:
448,192,200905,128,0,201226:0:0:0:0:
192,192,201119,1,2,0:0:0:0:
64,192,201226,128,0,201440:0:0:0:0:
320,192,201226,1,2,0:0:0:0:
192,192,201440,1,0,0:0:0:0:
320,192,201547,1,2,0:0:0:0:
64,192,201655,1,8,0:0:0:0:
448,192,201655,1,0,0:0:0:0:
64,192,201976,1,2,0:0:0:0:
192,192,201976,1,0,0:0:0:0:
320,192,202297,128,0,202512:0:0:0:0:
192,192,202297,1,2,0:0:0:0:
448,192,202512,1,0,0:0:0:0:
64,192,202512,1,8,0:0:0:0:
320,192,202619,128,0,202940:0:0:0:0:
192,192,202619,1,2,0:0:0:0:
64,192,202833,1,2,0:0:0:0:
192,192,202940,128,0,203155:0:0:0:0:
448,192,202940,1,2,0:0:0:0:
64,192,203155,1,0,0:0:0:0:
320,192,203262,1,2,0:0:0:0:
192,192,203369,1,8,0:0:0:0:
448,192,203369,1,0,0:0:0:0:
64,192,203690,1,2,0:0:0:0:
192,192,203690,1,0,0:0:0:0:
448,192,204012,128,0,204226:0:0:0:0:
64,192,204012,1,2,0:0:0:0:
320,192,204226,1,0,0:0:0:0:
192,192,204226,1,8,0:0:0:0:
448,192,204333,128,0,204655:0:0:0:0:
192,192,204547,1,2,0:0:0:0:
64,192,204655,128,0,204869:0:0:0:0:
320,192,204655,1,2,0:0:0:0:
192,192,204869,1,0,0:0:0:0:
320,192,204976,1,2,0:0:0:0:
64,192,205083,1,8,0:0:0:0:
448,192,205083,1,0,0:0:0:0:
192,192,205190,1,0,0:0:0:70:tom01.wav
320,192,205405,1,2,0:0:0:0:
448,192,205405,1,0,0:0:0:0:
64,192,205512,1,2,0:0:0:0:
192,192,205512,128,0,205833:0:0:0:0:
320,192,205833,128,0,206155:0:0:0:0:
64,192,206155,128,0,206369:0:0:0:0:
