osu file format v14

[General]
AudioFilename: Midnight Stroller.mp3
AudioLeadIn: 0
PreviewTime: 43468
Countdown: 0
SampleSet: Soft
StackLeniency: 0.7
Mode: 0
LetterboxInBreaks: 0
EpilepsyWarning: 1
WidescreenStoryboard: 1

[Editor]
DistanceSpacing: 1
BeatDivisor: 4
GridSize: 4
TimelineZoom: 1.4

[Metadata]
Title:Midnight Stroller
TitleUnicode:ミッドナイトストロウラ
Artist:Reol
ArtistUnicode:れをる
Creator:Chaoslitz
Version:Nightfall
Source:
Tags:ezfg gokusaishoku 極彩色 Mochizuki Kei 望月けい ZZHBOY Kencho DreaM117er
BeatmapID:847341
BeatmapSetID:388428

[Difficulty]
HPDrainRate:6
CircleSize:4
OverallDifficulty:8
ApproachRate:9
SliderMultiplier:1.8
SliderTickRate:1

[Events]
//Background and Video events
0,0,"sb/bg/bg.jpg",0,0
//Break Periods
2,58923,61752
2,113659,126359
//Storyboard Layer 0 (Background)
//Storyboard Layer 1 (Fail)
//Storyboard Layer 2 (Pass)
//Storyboard Layer 3 (Foreground)
//Storyboard Sound Samples

[TimingPoints]
638,428.571428571429,4,2,1,30,1,0
638,-133.333333333333,4,2,1,30,0,0
13495,-133.333333333333,4,2,2,60,0,0
14352,-100,4,2,2,60,0,0
43066,-133.333333333333,4,2,2,60,0,0
43495,-83.3333333333333,4,2,2,80,0,1
58066,-83.3333333333333,4,2,2,60,0,0
62352,-100,4,2,2,60,0,0
98352,-83.3333333333333,4,2,2,80,0,1
113459,-133.333333333333,4,2,2,60,0,0
126959,-133.333333333333,4,2,2,60,0,0
127495,-100,4,2,2,60,0,0
139495,-100,4,2,2,70,0,0
142709,-200,4,2,2,60,0,0
144638,-100,4,2,2,60,0,0
158352,-83.3333333333333,4,2,2,80,0,1
172066,-100,4,2,2,80,0,1
175495,-100,4,2,2,50,0,0
192638,-100,4,2,2,40,0,0

[Colours]
Combo1 : 138,138,138
Combo2 : 46,89,203
Combo3 : 200,200,200
Combo4 : 243,24,24

[HitObjects]
84,303,638,6,0,P|134:302|183:313,2,101.250003862381
163,209,1709,2,0,L|156:98,1,101.250003862381
264,76,2352,6,0,L|257:189,2,101.250003862381
351,194,3423,2,0,P|400:184|450:186,1,101.250003862381
404,275,4066,6,0,P|394:345|389:388,2,101.250003862381
269,216,5138,2,0,P|276:274|281:319,1,101.250003862381
179,337,5780,6,0,P|130:326|80:328,2,101.250003862381
196,344,7495,5,2,0:0:0:0:
133,278,7709,1,0,0:0:0:0:
203,192,7923,2,0,L|208:113,1,67.5000025749208
288,263,8352,2,0,L|294:346,1,67.5000025749208
294,349,8673,2,0,P|325:337|358:334,1,67.5000025749208
379,336,8995,1,0,0:0:0:0:
435,248,9209,5,2,0:0:0:0:
352,183,9423,2,0,L|357:104,2,67.5000025749208
275,261,10066,2,0,P|244:262|208:263,1,67.5000025749208
190,264,10388,2,0,P|142:248|97:251,1,67.5000025749208
105,250,10709,1,0,0:0:0:0:
133,349,10923,5,2,0:0:0:0:
184,176,11138,2,0,L|178:95,2,67.5000025749208
100,100,11780,2,0,P|107:52|111:17,1,67.5000025749208
112,12,12102,2,0,P|164:27|197:26,1,67.5000025749208
197,26,12423,1,0,0:0:0:0:
320,73,12638,6,0,P|369:62|418:55,2,101.250003862381,2|0|0,0:0|0:0|0:0,0:0:0:0:
329,183,13495,1,2,0:0:0:0:
181,194,13816,6,0,L|186:164,2,16.8750006437302,8|8|4,0:3|0:3|0:3,0:0:0:0:
151,209,14030,5,4,0:3:0:0:
138,239,14137,1,4,0:3:0:0:
145,272,14244,1,4,0:3:0:0:
172,302,14352,6,0,P|216:298|261:294,1,90,6|0,0:0|0:0,0:0:0:0:
355,249,14673,1,0,0:0:0:0:
358,277,14780,2,0,L|366:366,1,90,8|0,0:0|0:0,0:0:0:0:
424,204,15102,2,0,P|468:201|514:194,1,90,2|0,0:0|0:0,0:0:0:0:
449,295,15423,1,2,0:0:0:0:
449,295,15530,1,0,0:0:0:0:
449,295,15638,2,0,P|451:318|453:340,1,45,8|0,0:0|0:0,0:0:0:0:
340,204,15852,2,0,P|342:181|344:159,1,45
338,41,16066,6,0,P|293:45|238:50,1,90,2|0,0:0|0:0,0:0:0:0:
159,128,16388,1,0,0:0:0:0:
179,143,16495,2,0,P|224:135|268:133,1,90,8|0,0:0|0:0,0:0:0:0:
340,204,16816,2,0,P|385:204|429:210,1,90,2|0,0:0|0:0,0:0:0:0:
349,124,17138,2,0,P|377:120|395:118,1,45,2|0,0:0|0:0,0:0:0:0:
257,217,17352,1,8,0:0:0:0:
257,217,17459,1,0,0:0:0:0:
257,217,17566,2,0,P|259:244|261:266,1,45
268,133,17780,6,0,P|276:75|280:39,1,90,2|0,0:0|0:0,0:0:0:0:
340,204,18102,1,0,0:0:0:0:
345,227,18209,2,0,L|352:277|359:327,1,90,8|0,0:0|0:0,0:0:0:0:
377,112,18530,2,0,P|421:109|462:125,1,90,2|0,0:0|0:0,0:0:0:0:
360,90,18852,2,0,P|362:67|363:45,1,45,2|0,0:0|0:0,0:0:0:0:
411,198,19066,1,8,0:0:0:0:
417,209,19173,1,0,0:0:0:0:
424,220,19280,2,0,L|420:270,1,45
359,90,19495,6,0,P|426:84|490:106,1,135,2|0,0:0|0:0,0:0:0:0:
429,234,19923,2,0,L|425:278,1,45,8|0,0:0|0:0,0:0:0:0:
323,174,20138,1,0,0:0:0:0:
311,166,20245,1,2,0:0:0:0:
299,159,20352,2,0,L|296:181|293:203,1,45,0|8,0:0|0:0,0:0:0:0:
203,105,20566,1,2,0:0:0:0:
200,84,20673,1,0,0:0:0:0:
187,56,20780,5,8,0:0:0:0:
143,45,20887,1,0,0:0:0:0:
101,59,20994,1,8,0:0:0:0:
72,92,21101,1,8,0:0:0:0:
64,136,21209,6,0,P|72:182|78:229,1,90,6|0,0:0|0:0,0:0:0:0:
80,256,21530,1,0,0:0:0:0:
80,256,21638,2,0,P|61:250|35:247,1,45,8|0,0:0|0:0,0:0:0:0:
166,289,21852,1,0,0:0:0:0:
166,289,21959,1,2,0:0:0:0:
166,289,22066,2,0,P|211:281|265:281,1,90,0|2,0:0|0:0,0:0:0:0:
350,268,22388,1,0,0:0:0:0:
350,268,22495,2,0,L|347:290|344:312,1,45,8|0,0:0|0:0,0:0:0:0:
315,186,22709,1,0,0:0:0:0:
310,154,22816,1,0,0:0:0:0:
306,123,22923,6,0,P|311:78|317:33,1,90,2|0,0:0|0:0,0:0:0:0:
393,80,23245,1,0,0:0:0:0:
393,80,23352,2,0,P|418:82|447:89,1,45,8|0,0:0|0:0,0:0:0:0:
276,140,23566,1,0,0:0:0:0:
247,151,23673,2,0,L|202:145|157:139,1,90,2|0,0:0|0:0,0:0:0:0:
200,236,23995,2,0,P|205:258|210:283,1,45,2|0,0:0|0:0,0:0:0:0:
77,145,24209,1,8,0:0:0:0:
77,145,24316,1,0,0:0:0:0:
77,145,24423,2,0,P|84:116|89:98,1,45
123,224,24638,6,0,P|120:269|115:323,1,90,2|0,0:0|0:0,0:0:0:0:
109,340,24959,1,0,0:0:0:0:
109,340,25066,2,0,P|137:335|163:334,1,45,8|0,0:0|0:0,0:0:0:0:
44,258,25280,2,0,P|24:254|0:252,1,45,0|2,0:0|0:0,0:0:0:0:
139,179,25495,2,2,P|177:157|221:157,1,90,0|2,0:0|0:0,0:0:0:0:
247,167,25816,1,0,0:0:0:0:
247,167,25923,2,0,L|249:211,1,45,8|0,0:0|0:0,0:0:0:0:
331,109,26138,2,0,L|328:64,1,45
378,192,26352,6,0,P|372:250|369:288,1,90,2|0,0:0|0:0,0:0:0:0:
455,324,26673,1,0,0:0:0:0:
455,324,26780,2,0,P|475:310|500:293,1,45,8|0,0:0|0:0,0:0:0:0:
456,153,26995,1,0,0:0:0:0:
450,123,27102,1,2,0:0:0:0:
418,106,27209,5,0,0:0:0:0:
374,97,27316,1,8,0:0:0:0:
331,109,27423,1,2,0:0:0:0:
298,140,27530,1,0,0:0:0:0:
287,182,27638,5,8,0:0:0:0:
243,204,27745,1,0,0:0:0:0:
194,207,27852,1,8,0:0:0:0:
149,185,27959,1,8,0:0:0:0:
119,147,28066,6,0,L|106:298,1,135,6|0,0:0|0:0,0:0:0:0:
120,314,28495,1,8,0:0:0:0:
213,114,28709,2,0,P|216:80|218:63,1,45,0|2,0:0|0:0,0:0:0:0:
287,182,28923,2,0,L|391:174,1,90,0|2,0:0|0:0,0:0:0:0:
404,188,29245,1,0,0:0:0:0:
404,188,29352,2,0,P|396:234|395:284,1,90,8|0,0:0|0:0,0:0:0:0:
473,153,29673,1,0,0:0:0:0:
490,134,29780,6,0,L|499:32,1,90,2|0,0:0|0:0,0:0:0:0:
471,26,30102,1,0,0:0:0:0:
439,24,30209,1,8,0:0:0:0:
412,38,30316,1,0,0:0:0:0:
389,59,30423,1,0,0:0:0:0:
359,68,30530,1,2,0:0:0:0:
327,61,30638,2,0,P|324:34|321:11,1,45,0|8,0:0|0:0,0:0:0:0:
268,141,30852,2,0,P|262:176|259:193,1,45,2|0,0:0|0:0,0:0:0:0:
199,77,31066,1,8,0:0:0:0:
163,79,31173,1,0,0:0:0:0:
127,81,31280,1,0,0:0:0:0:
91,83,31387,1,0,0:0:0:0:
55,86,31495,6,0,P|39:148|59:229,1,135,2|0,0:0|0:0,0:0:0:0:
74,244,31923,1,8,0:0:0:0:
250,212,32138,2,0,L|253:167,1,45,0|2,0:0|0:0,0:0:0:0:
327,249,32352,2,0,P|329:291|333:344,1,90,0|2,0:0|0:0,0:0:0:0:
335,371,32673,1,0,0:0:0:0:
335,371,32780,2,0,L|438:360,1,90,8|0,0:0|0:0,0:0:0:0:
252,315,33102,1,0,0:0:0:0:
230,337,33209,6,0,P|185:334|140:330,1,90,2|0,0:0|0:0,0:0:0:0:
110,319,33530,1,0,0:0:0:0:
90,294,33638,1,8,0:0:0:0:
84,263,33745,1,0,0:0:0:0:
93,233,33852,1,0,0:0:0:0:
118,214,33959,1,2,0:0:0:0:
148,207,34066,2,0,L|147:185|146:163,1,45,0|8,0:0|0:0,0:0:0:0:
241,129,34280,2,0,L|244:84,1,45,2|0,0:0|0:0,0:0:0:0:
292,222,34495,1,8,0:0:0:0:
322,203,34602,1,0,0:0:0:0:
357,195,34709,1,0,0:0:0:0:
393,200,34816,1,0,0:0:0:0:
426,213,34923,6,0,L|451:78,1,135,6|0,0:0|0:0,0:0:0:0:
457,46,35352,1,8,0:0:0:0:
326,70,35566,2,0,P|328:92|331:114,1,45,0|2,0:0|0:0,0:0:0:0:
246,41,35780,2,0,P|201:45|153:46,1,90,0|2,0:0|0:0,0:0:0:0:
123,41,36102,1,0,0:0:0:0:
123,41,36209,2,0,P|83:39|35:51,1,90,8|0,0:0|0:0,0:0:0:0:
44,157,36530,1,0,0:0:0:0:
64,161,36638,6,0,P|80:136|89:117,1,45,2|0,0:0|0:0,0:0:0:0:
143,192,36852,1,0,0:0:0:0:
156,225,36959,2,0,L|161:281,2,45,0|8|0,0:0|0:0|0:0,0:0:0:0:
250,233,37280,1,0,0:0:0:0:
278,259,37388,2,0,P|284:306|289:356,1,90,2|8,0:0|0:0,0:0:0:0:
371,328,37709,2,0,P|376:358|380:375,1,45,2|0,0:0|0:0,0:0:0:0:
417,253,37923,2,0,P|448:259|476:261,1,45,8|0,0:0|0:0,0:0:0:0:
343,186,38138,1,0,0:0:0:0:
343,186,38245,1,0,0:0:0:0:
343,186,38352,6,0,L|353:48,1,135,2|0,0:0|0:0,0:0:0:0:
355,22,38780,1,8,0:0:0:0:
431,164,38995,2,0,P|466:158|497:155,1,45,0|2,0:0|0:0,0:0:0:0:
306,118,39209,2,0,P|261:112|216:113,1,90,0|2,0:0|0:0,0:0:0:0:
182,124,39530,1,0,0:0:0:0:
182,124,39638,2,0,P|193:181|199:238,1,90,8|0,0:0|0:0,0:0:0:0:
85,99,39959,1,0,0:0:0:0:
60,87,40066,6,0,P|66:52|71:36,1,45,2|0,0:0|0:0,0:0:0:0:
62,179,40280,2,0,P|34:174|18:169,1,45
153,143,40495,2,0,P|153:214|107:267,1,135,8|2,0:0|0:0,0:0:0:0:
196,212,40923,1,0,0:0:0:0:
225,210,41030,2,0,L|289:202,1,45,8|2,0:0|0:0,0:0:0:0:
348,335,41245,1,0,0:0:0:0:
345,306,41352,2,0,L|337:242,1,45,8|0,0:0|0:0,0:0:0:0:
439,325,41566,2,0,L|433:369,1,45
411,236,41780,6,0,L|515:228,1,90,2|8,0:0|0:0,0:0:0:0:
332,138,42209,1,0,0:0:0:0:
332,138,42316,1,8,0:0:0:0:
332,138,42423,2,0,P|333:115|337:93,1,45,0|8,0:0|0:0,0:0:0:0:
269,204,42638,2,0,L|265:249,1,45,2|8,0:0|0:0,0:0:0:0:
200,128,42852,1,0,0:0:0:0:
343,55,43066,6,0,L|420:48,1,67.5000025749208,8|0,0:0|0:0,0:0:0:0:
200,128,43495,6,0,L|84:119,1,107.999996704102,6|0,0:0|0:0,0:0:0:0:
49,115,43816,1,0,0:0:0:0:
6,110,43923,1,8,0:0:0:0:
56,280,44138,2,0,P|61:310|64:336,1,53.9999983520508,0|2,0:0|0:0,0:0:0:0:
207,294,44352,2,0,P|258:278|311:286,1,107.999996704102,0|2,0:0|0:0,0:0:0:0:
351,302,44673,1,0,0:0:0:0:
351,302,44780,2,0,L|358:362,1,53.9999983520508,8|0,0:0|0:0,0:0:0:0:
255,240,44995,1,0,0:0:0:0:
255,240,45102,1,0,0:0:0:0:
255,240,45209,6,0,L|241:113,1,107.999996704102,2|0,0:0|0:0,0:0:0:0:
237,89,45530,1,0,0:0:0:0:
231,46,45638,1,8,0:0:0:0:
381,169,45852,1,0,0:0:0:0:
381,169,45959,1,2,0:0:0:0:
381,169,46066,2,0,L|440:159,1,53.9999983520508
316,60,46280,2,0,L|309:-1,1,53.9999983520508,2|0,0:0|0:0,0:0:0:0:
422,197,46495,1,8,0:0:0:0:
459,217,46602,2,0,L|518:207,1,53.9999983520508,2|0,0:0|0:0,0:0:0:0:
307,246,46816,1,2,0:0:0:0:
270,269,46923,6,0,L|264:323|257:386,1,107.999996704102,2|0,0:0|0:0,0:0:0:0:
173,205,47245,1,0,0:0:0:0:
173,205,47352,2,0,P|141:196|115:198,1,53.9999983520508,8|0,0:0|0:0,0:0:0:0:
277,91,47566,2,0,L|270:37,1,53.9999983520508,0|2,0:0|0:0,0:0:0:0:
344,228,47780,2,0,P|396:215|450:217,1,107.999996704102,0|2,0:0|0:0,0:0:0:0:
487,239,48102,1,0,0:0:0:0:
501,279,48209,1,8,0:0:0:0:
483,318,48316,2,0,P|484:344|487:371,1,53.9999983520508
339,272,48530,1,0,0:0:0:0:
344,228,48638,6,0,P|349:174|355:120,1,107.999996704102,2|0,0:0|0:0,0:0:0:0:
288,70,48959,1,0,0:0:0:0:
288,70,49066,2,0,L|281:16,1,53.9999983520508,8|0,0:0|0:0,0:0:0:0:
168,153,49280,1,0,0:0:0:0:
168,153,49388,1,2,0:0:0:0:
168,153,49495,2,0,L|162:99,1,53.9999983520508
75,207,49709,1,2,0:0:0:0:
102,230,49816,1,0,0:0:0:0:
132,251,49923,2,0,L|209:243,1,53.9999983520508,8|0,0:0|0:0,0:0:0:0:
261,243,50138,1,8,0:0:0:0:
288,310,50245,1,8,0:0:0:0:
244,368,50352,6,4,P|193:355|140:354,1,107.999996704102,6|0,0:0|0:0,0:0:0:0:
137,354,50673,1,0,0:0:0:0:
137,354,50780,1,8,0:0:0:0:
268,141,50995,1,0,0:0:0:0:
268,141,51102,1,2,0:0:0:0:
268,141,51209,2,0,L|274:63,1,53.9999983520508
154,115,51423,2,0,L|158:168,1,53.9999983520508,2|0,0:0|0:0,0:0:0:0:
221,28,51638,1,8,0:0:0:0:
259,10,51745,1,0,0:0:0:0:
302,14,51852,1,0,0:0:0:0:
337,38,51959,1,0,0:0:0:0:
354,77,52066,6,0,L|345:201,1,107.999996704102,2|0,0:0|0:0,0:0:0:0:
438,97,52388,1,0,0:0:0:0:
477,78,52495,2,0,P|480:50|482:19,1,53.9999983520508,8|0,0:0|0:0,0:0:0:0:
462,199,52709,2,0,P|467:231|469:254,1,53.9999983520508,0|2,0:0|0:0,0:0:0:0:
358,350,52923,1,0,0:0:0:0:
322,326,53030,1,0,0:0:0:0:
303,287,53137,1,2,0:0:0:0:
304,245,53244,1,0,0:0:0:0:
319,204,53352,2,0,L|324:143,1,53.9999983520508,8|2,0:0|0:0,0:0:0:0:
174,244,53566,2,0,P|179:279|180:302,1,53.9999983520508,0|2,0:0|0:0,0:0:0:0:
228,129,53780,6,0,P|180:111|123:111,1,107.999996704102,2|0,0:0|0:0,0:0:0:0:
123,110,54102,1,0,0:0:0:0:
123,110,54209,1,8,0:0:0:0:
223,274,54423,1,0,0:0:0:0:
223,274,54530,1,2,0:0:0:0:
223,274,54638,2,0,L|221:333,1,53.9999983520508
319,204,54852,1,2,0:0:0:0:
339,165,54959,1,0,0:0:0:0:
361,128,55066,2,0,P|394:125|428:123,1,53.9999983520508,8|0,0:0|0:0,0:0:0:0:
314,28,55280,1,0,0:0:0:0:
271,20,55388,1,0,0:0:0:0:
233,42,55495,6,0,P|184:64|131:60,1,107.999996704102,2|0,0:0|0:0,0:0:0:0:
333,67,55816,1,0,0:0:0:0:
353,72,55923,2,0,L|410:64,1,53.9999983520508,8|0,0:0|0:0,0:0:0:0:
248,129,56138,1,0,0:0:0:0:
209,148,56245,1,2,0:0:0:0:
170,166,56352,2,0,P|132:162|102:159,1,53.9999983520508,0|8,0:0|0:0,0:0:0:0:
263,258,56566,2,0,P|265:290|267:318,1,53.9999983520508,2|0,0:0|0:0,0:0:0:0:
324,179,56780,1,8,0:0:0:0:
363,162,56887,1,0,0:0:0:0:
406,165,56994,1,8,0:0:0:0:
444,185,57101,1,8,0:0:0:0:
465,223,57209,6,0,P|475:163|485:111,1,107.999996704102,4|0,0:0|0:0,0:0:0:0:
488,73,57530,1,0,0:0:0:0:
488,73,57638,2,0,P|483:43|480:17,1,53.9999983520508,8|0,0:0|0:0,0:0:0:0:
363,162,57852,2,0,P|359:188|355:215,1,53.9999983520508,2|8,0:0|0:0,0:0:0:0:
323,46,58066,1,2,0:0:0:0:
376,251,62352,6,0,P|369:296|362:340,1,90,6|0,0:0|0:0,0:0:0:0:
312,192,62673,1,0,0:0:0:0:
285,186,62780,2,0,P|238:178|184:173,1,90,8|0,0:0|0:0,0:0:0:0:
307,102,63102,2,0,P|353:94|407:89,1,90,2|0,0:0|0:0,0:0:0:0:
405,181,63423,2,0,P|403:203|402:225,1,45,2|0,0:0|0:0,0:0:0:0:
289,273,63637,1,8,0:0:0:0:
278,279,63744,1,0,0:0:0:0:
266,286,63851,2,0,L|216:282,1,45
312,192,64066,6,0,L|307:90,1,90,2|0,0:0|0:0,0:0:0:0:
194,144,64388,1,0,2:0:0:0:
192,116,64495,2,0,L|196:14,1,90,8|0,2:0|2:0,2:0:0:0:
107,88,64816,2,0,P|66:98|17:99,1,90,2|0,0:0|0:0,0:0:0:0:
115,174,65138,2,0,P|119:199|123:221,1,45,2|0,0:0|0:0,0:0:0:0:
214,292,65352,1,8,0:0:0:0:
205,302,65459,1,0,0:0:0:0:
196,312,65566,2,0,P|200:337|204:359,1,45
267,199,65780,6,0,L|356:208,1,90,2|0,0:0|0:0,0:0:0:0:
299,123,66102,1,0,0:0:0:0:
293,91,66209,2,0,P|289:47|299:3,1,90,8|0,0:0|0:0,0:0:0:0:
395,105,66530,2,0,P|435:124|468:154,1,90,2|0,0:0|0:0,0:0:0:0:
356,208,66852,2,0,P|337:220|316:231,1,45,2|0,0:0|0:0,0:0:0:0:
192,172,67066,1,8,0:0:0:0:
193,158,67173,1,0,0:0:0:0:
194,144,67280,2,0,L|196:99,1,45
104,208,67495,6,0,L|96:66,1,135,2|0,0:0|0:0,0:0:0:0:
95,41,67923,1,8,0:0:0:0:
9,187,68138,1,0,0:0:0:0:
9,187,68245,1,2,0:0:0:0:
9,187,68352,2,0,P|13:212|16:238,1,45,0|8,0:0|0:0,0:0:0:0:
72,304,68566,2,0,P|68:326|65:348,1,45,2|0,0:0|0:0,0:0:0:0:
134,229,68780,1,8,0:0:0:0:
164,237,68887,1,0,0:0:0:0:
195,236,68994,1,8,0:0:0:0:
225,227,69101,1,8,0:0:0:0:
251,209,69209,6,0,P|254:251|260:298,1,90,6|0,0:0|0:0,0:0:0:0:
307,137,69530,1,0,0:0:0:0:
307,137,69638,2,0,L|204:111,1,90,8|0,0:0|0:0,0:0:0:0:
334,220,69959,2,0,P|378:213|423:213,1,90,2|0,0:0|0:0,0:0:0:0:
342,304,70280,2,0,P|334:331|330:351,1,45,2|0,0:0|0:0,0:0:0:0:
244,237,70495,1,8,0:0:0:0:
231,230,70602,1,0,0:0:0:0:
218,224,70709,2,0,P|186:220|164:219,1,45
46,120,70923,6,0,P|90:120|135:112,1,90,2|0,0:0|0:0,0:0:0:0:
246,67,71245,1,0,0:0:0:0:
224,52,71352,2,0,L|232:147,1,90,8|0,0:0|0:0,0:0:0:0:
334,220,71673,2,0,L|341:131,1,90,2|0,0:0|0:0,0:0:0:0:
412,251,71995,2,0,P|435:247|457:246,1,45,2|0,0:0|0:0,0:0:0:0:
330,309,72209,1,8,0:0:0:0:
317,314,72316,1,0,0:0:0:0:
304,319,72423,2,0,P|281:322|259:323,1,45
152,291,72638,6,0,P|107:289|62:295,1,90,2|0,0:0|0:0,0:0:0:0:
214,218,72959,1,0,0:0:0:0:
245,232,73066,2,0,P|290:229|334:219,1,90,8|0,0:0|0:0,0:0:0:0:
145,147,73388,2,0,P|101:137|56:135,1,90,2|0,0:0|0:0,0:0:0:0:
182,65,73709,2,0,P|179:32|176:14,1,45,2|0,0:0|0:0,0:0:0:0:
235,143,73923,1,8,0:0:0:0:
248,145,74030,1,0,0:0:0:0:
261,146,74138,2,0,P|284:146|307:144,1,45
436,145,74352,6,0,P|452:81|413:29,1,135,2|0,0:0|0:0,0:0:0:0:
305,58,74780,2,0,P|282:58|260:55,1,45,8|0,0:0|0:0,0:0:0:0:
334,166,74995,1,0,0:0:0:0:
347,164,75102,1,2,0:0:0:0:
359,162,75209,2,0,P|382:162|404:164,1,45,0|8,0:0|0:0,0:0:0:0:
289,274,75423,1,2,0:0:0:0:
266,270,75530,1,0,0:0:0:0:
235,279,75638,5,8,0:0:0:0:
195,260,75745,1,0,0:0:0:0:
173,221,75852,1,8,0:0:0:0:
179,177,75959,1,8,0:0:0:0:
210,146,76066,6,0,P|213:100|217:55,1,90,6|0,0:0|0:0,0:0:0:0:
222,24,76388,1,0,0:0:0:0:
222,24,76495,2,0,P|199:26|177:28,1,45,8|0,0:0|0:0,0:0:0:0:
304,83,76709,1,0,0:0:0:0:
302,114,76816,1,2,0:0:0:0:
300,145,76923,2,0,P|296:195|294:243,1,90,0|2,0:0|0:0,0:0:0:0:
389,243,77245,1,0,0:0:0:0:
389,243,77352,2,0,P|395:282|399:300,1,45,8|0,0:0|0:0,0:0:0:0:
461,169,77566,1,0,0:0:0:0:
470,153,77673,1,0,0:0:0:0:
479,137,77780,6,0,L|390:144,1,90,2|0,0:0|0:0,0:0:0:0:
284,184,78102,1,0,0:0:0:0:
266,181,78209,2,0,P|221:175|202:174,1,45,8|0,0:0|0:0,0:0:0:0:
329,64,78423,1,0,0:0:0:0:
346,58,78530,2,0,P|390:51|435:46,1,90,2|0,0:0|0:0,0:0:0:0:
248,97,78852,2,0,P|244:74|241:52,1,45,2|0,0:0|0:0,0:0:0:0:
356,153,79066,1,8,2:0:0:0:
365,179,79173,1,0,2:0:0:0:
365,209,79280,1,0,2:0:0:0:
349,237,79387,1,0,2:0:0:0:
323,256,79495,6,0,P|273:253|231:251,1,90,2|0,0:0|0:0,0:0:0:0:
203,239,79816,1,0,0:0:0:0:
203,239,79923,2,0,P|159:235|138:233,1,45,8|0,0:0|0:0,0:0:0:0:
57,203,80138,2,0,L|59:225|61:247,1,45,0|2,0:0|0:0,0:0:0:0:
104,105,80352,2,0,L|216:113,1,90,0|2,0:0|0:0,0:0:0:0:
217,124,80673,1,0,0:0:0:0:
217,124,80780,2,0,P|243:125|265:121,1,45,8|0,0:0|0:0,0:0:0:0:
393,63,80995,2,0,P|367:61|345:55,1,45
349,166,81209,6,0,L|455:157,1,90,2|0,0:0|0:0,0:0:0:0:
472,239,81530,1,0,0:0:0:0:
472,239,81638,2,0,P|449:237|427:237,1,45,8|0,0:0|0:0,0:0:0:0:
315,260,81852,1,0,0:0:0:0:
311,290,81959,1,2,0:0:0:0:
315,325,82066,5,0,0:0:0:0:
286,292,82173,1,8,0:0:0:0:
245,276,82280,1,2,0:0:0:0:
200,282,82387,1,0,0:0:0:0:
168,314,82495,5,8,0:0:0:0:
122,331,82602,1,0,0:0:0:0:
74,322,82709,1,8,0:0:0:0:
36,290,82816,1,8,0:0:0:0:
20,244,82923,6,0,L|32:104,1,135,6|0,0:0|0:0,0:0:0:0:
44,75,83352,1,8,0:0:0:0:
246,116,83566,2,0,L|253:168,1,45,0|2,0:0|0:0,0:0:0:0:
324,79,83780,2,0,L|337:176,1,90,0|2,0:0|0:0,0:0:0:0:
340,204,84102,1,0,0:0:0:0:
340,204,84209,2,0,P|385:197|432:199,1,90,8|0,0:0|0:0,0:0:0:0:
387,309,84530,1,0,0:0:0:0:
365,325,84638,6,0,P|318:328|268:331,1,90,2|0,0:0|0:0,0:0:0:0:
245,341,84959,1,0,0:0:0:0:
221,319,85066,1,8,0:0:0:0:
191,309,85173,1,0,0:0:0:0:
159,312,85280,1,0,0:0:0:0:
130,327,85388,1,2,0:0:0:0:
110,351,85495,2,0,P|130:363|150:373,1,45,0|8,0:0|0:0,0:0:0:0:
110,243,85709,2,0,P|88:229|59:217,1,45,2|0,0:0|0:0,0:0:0:0:
192,179,85923,1,8,0:0:0:0:
227,174,86030,1,0,0:0:0:0:
263,171,86137,1,0,0:0:0:0:
299,169,86244,1,0,0:0:0:0:
334,168,86352,6,0,P|351:101|314:42,1,135,2|0,0:0|0:0,0:0:0:0:
286,32,86780,1,8,0:0:0:0:
443,136,86995,2,0,P|465:133|487:131,1,45,0|2,0:0|0:0,0:0:0:0:
403,216,87209,2,0,L|397:322,1,90,0|2,0:0|0:0,0:0:0:0:
406,340,87530,1,0,0:0:0:0:
406,340,87638,2,0,P|361:333|316:329,1,90,8|0,0:0|0:0,0:0:0:0:
209,248,87959,1,0,0:0:0:0:
178,267,88066,6,0,P|134:270|80:275,1,90,2|0,0:0|0:0,0:0:0:0:
52,269,88388,1,0,0:0:0:0:
29,247,88495,1,8,0:0:0:0:
19,218,88602,1,0,0:0:0:0:
21,187,88709,1,0,0:0:0:0:
37,160,88816,1,2,0:0:0:0:
63,142,88923,2,0,P|79:169|87:193,1,45,0|8,0:0|0:0,0:0:0:0:
128,77,89138,2,0,P|133:45|134:29,1,45,2|0,0:0|0:0,0:0:0:0:
177,152,89352,1,8,0:0:0:0:
210,164,89459,1,0,0:0:0:0:
246,164,89566,1,0,0:0:0:0:
280,153,89673,1,0,0:0:0:0:
308,132,89780,6,0,P|374:131|424:180,1,135,6|0,0:0|0:0,0:0:0:0:
428,212,90209,1,8,0:0:0:0:
232,77,90423,2,0,L|236:32,1,45,0|2,0:0|0:0,0:0:0:0:
177,152,90638,2,0,L|183:251,1,90,0|2,0:0|0:0,0:0:0:0:
186,277,90959,1,0,0:0:0:0:
186,277,91066,2,0,P|233:281|282:271,1,90,8|0,0:0|0:0,0:0:0:0:
363,349,91388,1,0,0:0:0:0:
385,345,91495,6,0,L|407:343|429:341,1,45,2|0,0:0|0:0,0:0:0:0:
351,242,91709,1,0,0:0:0:0:
347,205,91816,2,0,L|351:159,2,45,0|8|0,0:0|0:0|0:0,0:0:0:0:
257,181,92138,1,0,0:0:0:0:
224,164,92245,2,0,P|179:155|134:155,1,90,2|8,0:0|0:0,0:0:0:0:
168,276,92566,2,0,L|162:320,1,45,2|0,0:0|0:0,0:0:0:0:
288,294,92780,1,8,0:0:0:0:
315,315,92887,1,0,0:0:0:0:
350,324,92994,1,0,0:0:0:0:
385,318,93101,1,0,0:0:0:0:
414,298,93209,6,0,P|421:226|427:155,1,135,2|0,0:0|0:0,0:0:0:0:
430,127,93638,1,8,0:0:0:0:
239,39,93852,2,0,P|227:57|214:76,1,45,0|2,0:0|0:0,0:0:0:0:
93,105,94066,2,0,P|108:147|117:191,1,90,0|2,0:0|0:0,0:0:0:0:
120,227,94388,1,0,0:0:0:0:
120,227,94495,2,0,P|164:214|208:208,1,90,8|0,0:0|0:0,0:0:0:0:
276,131,94816,1,0,0:0:0:0:
305,151,94923,6,0,P|337:148|360:146,1,45,2|0,0:0|0:0,0:0:0:0:
283,292,95138,2,0,L|226:284,1,45
334,172,95352,2,0,L|479:159,1,135,8|2,0:0|0:0,0:0:0:0:
403,85,95780,1,0,0:0:0:0:
408,62,95888,2,0,L|416:15,1,45,8|2,0:0|0:0,0:0:0:0:
407,211,96102,1,0,0:0:0:0:
412,234,96210,2,0,L|420:281,1,45,8|0,0:0|0:0,0:0:0:0:
276,131,96423,2,0,L|285:86,1,45,0|8,0:0|0:0,0:0:0:0:
328,222,96638,6,0,L|346:323,1,90,2|8,0:0|0:0,0:0:0:0:
183,150,97066,1,0,0:0:0:0:
183,150,97173,1,8,0:0:0:0:
183,150,97280,2,0,P|157:147|130:147,1,45,0|8,0:0|0:0,0:0:0:0:
246,216,97495,2,0,L|253:263,1,45,8|8,0:0|0:0,0:0:0:0:
276,131,97709,1,0,0:0:0:0:
182,325,97923,1,8,0:0:0:0:
146,330,98030,1,8,0:0:0:0:
111,324,98137,1,8,0:0:0:0:
80,306,98244,1,8,0:0:0:0:
56,279,98352,6,0,L|63:171,1,107.999996704102,6|0,0:0|0:0,0:0:0:0:
66,128,98673,1,0,0:0:0:0:
71,85,98780,1,8,0:0:0:0:
334,193,98995,2,0,P|364:188|390:185,1,53.9999983520508,0|2,0:0|0:0,0:0:0:0:
262,312,99209,2,0,P|209:320|157:304,1,107.999996704102,0|2,0:0|0:0,0:0:0:0:
346,300,99530,1,0,0:0:0:0:
346,300,99637,2,0,L|353:360,1,53.9999983520508,8|0,0:0|0:0,0:0:0:0:
280,179,99852,1,0,0:0:0:0:
280,179,99959,1,0,0:0:0:0:
280,179,100066,6,0,L|387:186,1,107.999996704102,2|0,0:0|0:0,0:0:0:0:
431,189,100387,1,0,0:0:0:0:
474,194,100494,1,8,0:0:0:0:
212,91,100709,1,0,0:0:0:0:
212,91,100816,1,2,0:0:0:0:
212,91,100923,2,0,L|202:32,1,53.9999983520508
178,193,101138,2,0,L|131:231,1,53.9999983520508,2|0,0:0|0:0,0:0:0:0:
301,100,101352,1,8,0:0:0:0:
293,57,101459,2,0,L|283:-2,1,53.9999983520508,2|0,0:0|0:0,0:0:0:0:
437,154,101673,1,2,0:0:0:0:
444,110,101780,6,0,L|461:-5,1,107.999996704102,2|0,0:0|0:0,0:0:0:0:
361,153,102102,1,0,0:0:0:0:
370,195,102209,1,8,0:0:0:0:
402,223,102316,1,0,0:0:0:0:
444,231,102423,2,0,P|469:255|479:274,1,53.9999983520508,0|2,0:0|0:0,0:0:0:0:
279,276,102638,2,0,P|249:275|210:266,1,53.9999983520508
369,291,102852,1,2,0:0:0:0:
409,304,102959,1,0,0:0:0:0:
433,339,103066,2,0,P|458:348|485:351,1,53.9999983520508,8|0,0:0|0:0,0:0:0:0:
312,360,103280,2,0,P|274:365|248:364,1,53.9999983520508
165,215,103495,6,0,P|120:190|61:188,1,107.999996704102,2|0,0:0|0:0,0:0:0:0:
26,208,103816,1,0,0:0:0:0:
26,208,103923,2,0,L|33:262,1,53.9999983520508,8|0,0:0|0:0,0:0:0:0:
40,91,104137,1,0,0:0:0:0:
80,76,104245,1,2,0:0:0:0:
121,63,104352,2,0,L|175:66,1,53.9999983520508
268,177,104566,1,2,0:0:0:0:
308,165,104673,1,0,0:0:0:0:
345,158,104780,2,0,P|372:158|399:161,1,53.9999983520508,8|0,0:0|0:0,0:0:0:0:
473,178,104995,1,8,0:0:0:0:
422,233,105102,1,8,0:0:0:0:
399,161,105209,6,0,L|392:48,1,107.999996704102,6|0,0:0|0:0,0:0:0:0:
389,10,105530,1,0,0:0:0:0:
389,10,105638,2,0,P|426:24|455:29,1,53.9999983520508,8|0,0:0|0:0,0:0:0:0:
266,71,105852,2,0,P|230:88|201:95,1,53.9999983520508,0|2,0:0|0:0,0:0:0:0:
88,196,106066,1,0,0:0:0:0:
126,213,106173,1,0,0:0:0:0:
154,246,106280,1,2,0:0:0:0:
165,288,106387,1,0,0:0:0:0:
156,330,106495,2,0,P|198:319|224:316,1,53.9999983520508,8|0,0:0|0:0,0:0:0:0:
70,285,106709,2,0,P|42:279|17:276,1,53.9999983520508
245,210,106923,6,0,L|365:199,1,107.999996704102,2|0,0:0|0:0,0:0:0:0:
391,220,107245,1,0,0:0:0:0:
391,220,107352,2,0,L|456:222,1,53.9999983520508,8|0,0:0|0:0,0:0:0:0:
306,118,107566,1,0,0:0:0:0:
263,121,107673,1,2,0:0:0:0:
219,126,107780,2,0,L|227:68,1,53.9999983520508
307,261,107995,2,0,P|311:297|314:323,1,53.9999983520508,2|0,0:0|0:0,0:0:0:0:
392,132,108209,1,8,0:0:0:0:
392,89,108316,1,2,0:0:0:0:
371,52,108423,1,0,0:0:0:0:
334,30,108530,1,2,0:0:0:0:
291,29,108638,6,0,P|237:41|184:42,1,107.999996704102,2|0,0:0|0:0,0:0:0:0:
142,32,108959,1,0,0:0:0:0:
142,32,109066,2,0,P|143:69|141:88,1,53.9999983520508,8|0,0:0|0:0,0:0:0:0:
31,203,109280,1,0,0:0:0:0:
31,203,109388,1,2,0:0:0:0:
31,203,109495,2,0,P|35:173|38:146,1,53.9999983520508
148,268,109709,1,2,0:0:0:0:
190,276,109816,1,0,0:0:0:0:
232,283,109923,2,0,P|271:279|293:278,1,53.9999983520508,8|0,0:0|0:0,0:0:0:0:
142,351,110138,2,0,P|102:344|79:341,1,53.9999983520508
244,197,110352,6,0,P|299:198|352:203,1,107.999996704102,2|0,0:0|0:0,0:0:0:0:
395,209,110673,1,0,0:0:0:0:
437,214,110780,2,0,P|443:180|446:157,1,53.9999983520508,8|0,0:0|0:0,0:0:0:0:
373,316,110995,1,0,0:0:0:0:
373,316,111102,1,2,0:0:0:0:
373,316,111209,2,0,P|382:351|385:375,1,53.9999983520508,0|8,0:0|0:0,0:0:0:0:
481,224,111423,2,0,P|487:256|490:277,1,53.9999983520508,2|0,0:0|0:0,0:0:0:0:
360,113,111638,1,8,0:0:0:0:
339,75,111745,1,0,0:0:0:0:
305,50,111852,1,8,0:0:0:0:
263,42,111959,1,8,0:0:0:0:
221,54,112066,6,0,P|168:62|111:65,1,107.999996704102,6|0,0:0|0:0,0:0:0:0:
70,62,112388,1,0,0:0:0:0:
70,62,112495,2,0,P|83:102|86:125,1,53.9999983520508,8|0,0:0|0:0,0:0:0:0:
181,237,112709,1,0,0:0:0:0:
164,277,112816,1,2,0:0:0:0:
147,316,112923,2,0,P|151:358|150:376,1,53.9999983520508,0|8,0:0|0:0,0:0:0:0:
46,247,113138,1,2,0:0:0:0:
304,314,113352,2,0,L|361:309,1,53.9999983520508,8|0,0:0|0:0,0:0:0:0:
435,127,126959,6,0,L|430:196,1,67.5000025749208,2|8,0:0|0:0,0:0:0:0:
429,225,127280,2,0,L|433:268,1,33.7500012874604
370,313,127495,5,6,0:0:0:0:
350,319,127602,2,0,P|328:322|305:322,2,45
323,244,127923,1,8,0:0:0:0:
287,242,128030,1,0,0:0:0:0:
254,257,128137,1,0,0:0:0:0:
232,285,128244,1,2,0:0:0:0:
223,319,128352,2,0,P|218:274|210:230,1,90
102,106,128780,1,8,0:0:0:0:
107,70,128888,1,0,0:0:0:0:
1,228,129209,5,2,0:0:0:0:
22,235,129316,2,0,L|114:228,1,90
157,165,129638,1,8,0:0:0:0:
187,146,129745,1,0,0:0:0:0:
223,144,129852,1,0,0:0:0:0:
257,157,129959,2,0,P|307:153|360:150,1,90,2|0,0:0|0:0,0:0:0:0:
382,148,130280,1,0,0:0:0:0:
457,297,130495,1,8,0:0:0:0:
462,332,130603,1,0,0:0:0:0:
302,254,130923,6,0,P|269:245|246:239,1,45,2|0,0:0|0:0,0:0:0:0:
260,330,131138,2,0,P|225:326|202:324,1,45,0|0,0:0|0:0,0:0:0:0:
299,333,131352,1,8,0:0:0:0:
334,326,131459,1,0,0:0:0:0:
362,305,131566,1,0,0:0:0:0:
378,273,131673,1,2,0:0:0:0:
378,237,131780,2,0,L|383:182,1,45
437,125,131995,1,0,0:0:0:0:
275,74,132209,1,8,0:0:0:0:
269,38,132317,1,0,0:0:0:0:
119,232,132638,6,0,P|119:264|121:282,2,45,2|0|0,0:0|0:0|0:0,0:0:0:0:
147,157,132959,1,0,0:0:0:0:
153,134,133066,2,0,P|152:86|142:41,1,90,8|0,0:0|0:0,0:0:0:0:
247,120,133388,2,0,P|288:135|330:153,1,90,2|0,0:0|0:0,0:0:0:0:
221,196,133709,2,0,P|227:230|229:245,1,45
303,58,133923,1,8,0:0:0:0:
335,72,134030,1,0,0:0:0:0:
371,73,134137,1,0,0:0:0:0:
403,58,134244,1,0,0:0:0:0:
427,32,134352,5,6,0:0:0:0:
443,47,134459,2,0,P|454:71|460:92,2,45
380,96,134780,1,8,0:0:0:0:
393,129,134887,1,0,0:0:0:0:
418,154,134994,1,0,0:0:0:0:
452,166,135101,1,2,0:0:0:0:
487,163,135209,2,0,P|481:209|480:217,1,45
504,309,135423,1,0,0:0:0:0:
353,346,135638,1,8,0:0:0:0:
317,337,135746,1,0,0:0:0:0:
177,259,135959,1,0,0:0:0:0:
141,250,136066,5,2,0:0:0:0:
119,255,136173,2,0,P|94:260|69:262,2,45
164,175,136495,1,8,0:0:0:0:
199,176,136602,1,0,0:0:0:0:
230,194,136709,1,0,0:0:0:0:
251,222,136816,1,2,0:0:0:0:
258,257,136923,2,0,P|254:286|252:304,1,45
184,367,137138,1,0,0:0:0:0:
342,259,137352,1,8,0:0:0:0:
377,251,137460,1,0,0:0:0:0:
309,77,137673,1,0,0:0:0:0:
274,64,137781,5,2,0:0:0:0:
239,52,137888,2,0,P|193:56|149:59,1,90
52,108,138209,1,8,0:0:0:0:
23,129,138316,1,0,0:0:0:0:
9,162,138423,1,0,0:0:0:0:
13,197,138530,1,2,0:0:0:0:
34,226,138638,2,0,P|78:227|123:234,1,90
202,265,138959,1,0,0:0:0:0:
218,280,139066,2,0,P|212:311|206:341,1,45,8|0,0:0|0:0,0:0:0:0:
285,176,139280,1,0,0:0:0:0:
295,141,139388,1,0,0:0:0:0:
305,106,139495,6,0,L|294:59,1,45,4|0,0:0|0:0,0:0:0:0:
384,164,139709,1,0,0:0:0:0:
418,172,139816,1,0,0:0:0:0:
452,183,139923,2,0,P|477:181|496:181,1,45,8|0,0:0|0:0,0:0:0:0:
404,268,140138,2,0,P|409:289|415:311,1,45,0|2,0:0|0:0,0:0:0:0:
320,335,140352,1,0,0:0:0:0:
284,330,140459,1,0,0:0:0:0:
249,341,140566,2,0,P|217:344|201:344,1,45,2|0,0:0|0:0,0:0:0:0:
169,248,140780,1,8,0:0:0:0:
201,259,140887,1,0,0:0:0:0:
236,257,140994,1,0,0:0:0:0:
269,240,141101,1,0,0:0:0:0:
296,214,141209,6,0,L|302:153,1,45,2|0,0:0|0:0,0:0:0:0:
338,37,141423,2,0,P|340:59|340:81,1,45
454,152,141638,1,8,0:0:0:0:
483,131,141745,2,0,P|479:93|478:68,2,45,0|0|2,0:0|0:0|0:0,0:0:0:0:
512,244,142066,1,0,0:0:0:0:
483,278,142173,1,0,0:0:0:0:
443,296,142280,1,2,0:0:0:0:
398,293,142387,1,0,0:0:0:0:
360,270,142494,1,8,0:0:0:0:
225,163,142709,6,0,B|135:135|75:153|82:199|52:225|26:200|-13:182|-20:147|-13:118|32:73|85:92|95:138|88:154,1,382.5,4|0,0:0|0:0,0:0:0:0:
45,218,144638,6,0,P|48:261|52:318,1,90,6|0,0:0|0:0,0:0:0:0:
51,307,144959,1,0,0:0:0:0:
51,307,145066,1,8,0:0:0:0:
172,189,145280,1,0,0:0:0:0:
172,189,145388,1,2,0:0:0:0:
172,189,145495,2,0,L|176:139,1,45
237,245,145709,2,0,P|261:248|282:252,1,45,2|0,0:0|0:0,0:0:0:0:
265,337,145923,2,0,P|309:331|354:329,1,90,8|0,0:0|0:0,0:0:0:0:
406,268,146245,1,0,0:0:0:0:
438,288,146352,6,0,P|435:338|432:382,1,90,2|0,0:0|0:0,0:0:0:0:
432,377,146673,1,0,0:0:0:0:
432,377,146780,1,8,0:0:0:0:
358,187,146995,1,0,0:0:0:0:
358,187,147102,1,2,0:0:0:0:
358,187,147209,2,0,L|352:142,1,45,0|8,0:0|0:0,0:0:0:0:
260,220,147423,2,0,L|254:175,1,45,2|0,0:0|0:0,0:0:0:0:
207,70,147638,1,8,0:0:0:0:
174,55,147745,1,2,0:0:0:0:
138,54,147852,1,0,0:0:0:0:
105,67,147959,1,2,0:0:0:0:
79,92,148066,6,0,P|76:135|73:187,1,90,2|0,0:0|0:0,0:0:0:0:
154,132,148388,1,0,0:0:0:0:
184,151,148495,2,0,P|229:145|276:140,1,90,8|0,0:0|0:0,0:0:0:0:
341,86,148816,1,2,0:0:0:0:
376,87,148923,2,0,L|430:92,1,45
353,215,149138,2,0,P|347:246|344:265,1,45,2|0,0:0|0:0,0:0:0:0:
451,248,149352,2,0,L|460:342,1,90,8|0,0:0|0:0,0:0:0:0:
362,369,149673,1,0,0:0:0:0:
335,343,149780,6,0,P|296:337|247:333,1,90,2|0,0:0|0:0,0:0:0:0:
140,239,150102,1,0,0:0:0:0:
174,234,150209,2,0,L|263:224,1,90,8|0,0:0|0:0,0:0:0:0:
284,214,150530,1,2,0:0:0:0:
306,208,150638,5,0,0:0:0:0:
341,214,150745,1,8,0:0:0:0:
376,207,150852,1,2,0:0:0:0:
405,186,150959,1,0,0:0:0:0:
424,156,151066,5,8,0:0:0:0:
419,210,151173,1,0,0:0:0:0:
415,263,151280,1,8,0:0:0:0:
410,317,151387,1,8,0:0:0:0:
405,371,151495,6,0,P|398:319|391:274,1,90,4|0,0:0|0:0,0:0:0:0:
345,127,151816,1,0,0:0:0:0:
357,92,151923,2,0,P|399:78|443:72,1,90,8|0,0:0|0:0,0:0:0:0:
297,32,152245,1,2,0:0:0:0:
268,54,152352,2,0,P|223:46|178:42,1,90,0|2,0:0|0:0,0:0:0:0:
261,135,152673,1,0,0:0:0:0:
257,157,152780,2,0,L|247:216,1,45,8|0,0:0|0:0,0:0:0:0:
133,287,152995,2,0,L|140:242,1,45
226,332,153209,6,0,P|270:328|315:324,1,90,2|0,0:0|0:0,0:0:0:0:
351,321,153530,1,0,0:0:0:0:
387,318,153638,1,8,0:0:0:0:
345,127,153852,1,0,0:0:0:0:
345,127,153959,1,2,0:0:0:0:
345,127,154066,2,0,P|367:128|389:131,1,45,0|8,0:0|0:0,0:0:0:0:
459,249,154280,2,0,P|461:226|465:204,1,45,2|0,0:0|0:0,0:0:0:0:
311,209,154495,1,8,0:0:0:0:
279,191,154602,1,2,0:0:0:0:
244,189,154709,1,0,0:0:0:0:
210,201,154816,1,2,0:0:0:0:
186,227,154923,6,0,L|183:272|180:317,1,90,2|0,0:0|0:0,0:0:0:0:
124,164,155245,1,0,0:0:0:0:
88,160,155352,2,0,P|43:163|0:174,1,90,8|0,0:0|0:0,0:0:0:0:
179,94,155673,1,2,0:0:0:0:
182,71,155780,2,0,P|186:36|188:21,1,45
263,142,155995,2,0,P|276:124|290:106,1,45,2|0,0:0|0:0,0:0:0:0:
290,229,156209,1,8,0:0:0:0:
282,263,156316,1,2,0:0:0:0:
286,299,156423,1,0,0:0:0:0:
303,330,156530,1,2,0:0:0:0:
331,354,156638,6,0,P|381:350|435:346,1,90,2|0,0:0|0:0,0:0:0:0:
376,264,156959,1,0,0:0:0:0:
393,231,157066,2,0,P|398:196|400:175,1,45,8|0,0:0|0:0,0:0:0:0:
494,281,157280,2,0,P|498:302|502:325,1,45,8|2,0:0|0:0,0:0:0:0:
475,199,157495,1,0,0:0:0:0:
477,163,157603,1,8,0:0:0:0:
480,127,157709,1,2,0:0:0:0:
483,91,157816,1,0,0:0:0:0:
486,55,157924,5,8,0:0:0:0:
442,32,158030,1,0,0:0:0:0:
393,32,158138,1,8,0:0:0:0:
349,54,158244,1,8,0:0:0:0:
321,94,158352,6,0,P|270:86|212:80,1,107.999996704102,6|0,0:0|0:0,0:0:0:0:
346,197,158673,1,0,0:0:0:0:
387,206,158780,2,0,P|416:204|448:202,1,53.9999983520508,8|0,0:0|0:0,0:0:0:0:
254,248,158995,1,0,0:0:0:0:
254,248,159102,1,2,0:0:0:0:
254,248,159209,2,0,P|203:229|150:232,1,107.999996704102,0|2,0:0|0:0,0:0:0:0:
300,321,159530,1,0,0:0:0:0:
331,351,159638,2,0,P|359:351|390:354,1,53.9999983520508,8|0,0:0|0:0,0:0:0:0:
183,330,159852,2,0,P|156:332|129:336,1,53.9999983520508
254,248,160066,6,0,P|306:239|357:257,1,107.999996704102,2|0,0:0|0:0,0:0:0:0:
458,187,160388,1,0,0:0:0:0:
479,224,160495,2,0,L|486:279,1,53.9999983520508,8|0,0:0|0:0,0:0:0:0:
402,374,160709,2,0,P|405:348|410:321,1,53.9999983520508,0|2,0:0|0:0,0:0:0:0:
329,161,160923,1,0,0:0:0:0:
301,128,161030,1,8,0:0:0:0:
298,85,161137,1,2,0:0:0:0:
320,49,161244,1,0,0:0:0:0:
359,32,161352,2,0,P|380:72|385:84,1,53.9999983520508,8|2,0:0|0:0,0:0:0:0:
209,117,161566,1,0,0:0:0:0:
166,109,161673,1,2,0:0:0:0:
122,101,161780,6,0,P|70:113|16:117,1,107.999996704102,2|0,0:0|0:0,0:0:0:0:
173,215,162102,1,0,0:0:0:0:
201,247,162209,2,0,P|204:282|206:302,1,53.9999983520508,8|0,0:0|0:0,0:0:0:0:
244,91,162423,2,0,P|275:86|300:84,1,53.9999983520508,0|2,0:0|0:0,0:0:0:0:
241,258,162638,2,0,P|234:312|230:366,1,107.999996704102,0|2,0:0|0:0,0:0:0:0:
131,196,162959,1,0,0:0:0:0:
88,190,163066,2,0,L|30:183,1,53.9999983520508,8|0,0:0|0:0,0:0:0:0:
113,295,163280,2,0,L|115:322|117:349,1,53.9999983520508
286,266,163495,6,0,P|340:260|399:256,1,107.999996704102,2|0,0:0|0:0,0:0:0:0:
346,119,163816,1,0,0:0:0:0:
350,76,163923,2,0,L|355:18,1,53.9999983520508,8|0,0:0|0:0,0:0:0:0:
464,176,164138,1,0,0:0:0:0:
482,215,164245,1,2,0:0:0:0:
487,257,164352,2,0,P|480:294|477:314,1,53.9999983520508
286,266,164566,1,2,0:0:0:0:
262,231,164673,1,0,0:0:0:0:
224,214,164781,2,0,P|197:214|171:219,1,53.9999983520508,8|0,0:0|0:0,0:0:0:0:
209,291,164995,1,8,0:0:0:0:
262,231,165102,1,8,0:0:0:0:
218,166,165209,6,0,P|165:157|111:153,1,107.999996704102,6|0,0:0|0:0,0:0:0:0:
286,106,165530,1,0,0:0:0:0:
328,96,165638,2,0,P|381:87|435:83,1,107.999996704102,8|0,0:0|0:0,0:0:0:0:
345,190,165959,1,2,0:0:0:0:
388,191,166066,2,0,P|416:193|448:197,1,53.9999983520508
298,270,166280,2,0,P|295:293|291:325,1,53.9999983520508,2|0,0:0|0:0,0:0:0:0:
171,156,166495,1,8,0:0:0:0:
171,156,166602,1,0,0:0:0:0:
171,156,166709,2,0,P|167:129|164:102,1,53.9999983520508
213,248,166923,6,0,P|206:307|201:356,1,107.999996704102,2|0,0:0|0:0,0:0:0:0:
258,149,167245,1,0,0:0:0:0:
262,106,167352,2,0,L|254:53,1,53.9999983520508,8|0,0:0|0:0,0:0:0:0:
340,180,167566,1,0,0:0:0:0:
347,136,167673,1,2,0:0:0:0:
351,93,167780,2,0,L|343:40,1,53.9999983520508,0|8,0:0|0:0,0:0:0:0:
449,172,167995,2,0,P|482:166|511:164,1,53.9999983520508,2|0,0:0|0:0,0:0:0:0:
361,279,168209,1,8,0:0:0:0:
332,245,168316,1,2,0:0:0:0:
294,227,168423,1,0,0:0:0:0:
251,229,168530,1,2,0:0:0:0:
213,248,168638,6,0,P|161:243|104:240,1,107.999996704102,2|0,0:0|0:0,0:0:0:0:
279,312,168959,1,0,0:0:0:0:
279,312,169066,2,0,P|285:345|291:368,1,53.9999983520508,8|0,0:0|0:0,0:0:0:0:
377,227,169280,2,0,P|365:258|359:281,1,53.9999983520508,0|2,0:0|0:0,0:0:0:0:
262,143,169495,1,0,0:0:0:0:
218,149,169602,1,0,0:0:0:0:
175,157,169709,2,0,P|145:156|113:155,1,53.9999983520508,2|0,0:0|0:0,0:0:0:0:
236,64,169923,2,0,P|239:30|241:6,1,53.9999983520508,8|0,0:0|0:0,0:0:0:0:
345,191,170138,2,0,P|342:225|340:249,1,53.9999983520508
341,82,170352,6,0,P|394:85|446:72,1,107.999996704102,2|0,0:0|0:0,0:0:0:0:
463,207,170673,1,0,0:0:0:0:
499,230,170780,2,0,P|503:262|506:290,1,53.9999983520508,8|0,0:0|0:0,0:0:0:0:
343,347,170995,2,0,P|340:320|336:293,1,53.9999983520508,0|2,0:0|0:0,0:0:0:0:
237,180,171209,1,0,0:0:0:0:
194,170,171316,2,0,P|167:170|140:174,1,53.9999983520508,8|2,0:0|0:0,0:0:0:0:
311,115,171530,1,0,0:0:0:0:
341,82,171638,2,0,P|354:58|363:33,1,53.9999983520508,8|2,0:0|0:0,0:0:0:0:
333,212,171852,1,8,0:0:0:0:
375,221,171959,1,10,0:0:0:0:
410,246,172066,6,0,P|416:188|420:143,1,90,6|0,0:0|0:0,0:0:0:0:
418,156,172388,1,0,0:0:0:0:
418,156,172495,1,8,0:0:0:0:
190,258,172709,1,0,0:0:0:0:
190,258,172816,1,2,0:0:0:0:
190,258,172923,2,0,P|163:254|136:252,1,45
255,318,173138,2,0,P|253:347|252:369,1,45,2|0,0:0|0:0,0:0:0:0:
256,200,173352,1,8,0:0:0:0:
246,165,173459,1,0,0:0:0:0:
223,138,173566,1,0,0:0:0:0:
191,123,173673,1,0,0:0:0:0:
155,122,173780,5,2,0:0:0:0:
410,246,173995,1,2,0:0:0:0:
162,351,174209,1,8,0:0:0:0:
165,315,174316,1,0,0:0:0:0:
169,279,174423,1,0,0:0:0:0:
173,243,174530,1,0,0:0:0:0:
177,207,174637,5,2,0:0:0:0:
435,88,174959,1,0,0:0:0:0:
104,51,175280,1,0,0:0:0:0:
256,200,175495,6,0,L|346:192,1,90,6|0,0:0|0:0,0:0:0:0:
381,189,175816,1,0,0:0:0:0:
381,189,175923,2,0,P|387:226|390:242,1,45,8|0,0:0|0:0,0:0:0:0:
200,267,176245,1,2,0:0:0:0:
173,243,176352,6,0,L|167:141,1,90,2|0,0:0|0:0,0:0:0:0:
167,117,176673,1,0,0:0:0:0:
167,117,176780,2,0,P|192:122|213:124,1,45,8|0,0:0|0:0,0:0:0:0:
304,312,177102,1,2,0:0:0:0:
335,294,177209,6,0,P|381:282|429:285,1,90,2|0,0:0|0:0,0:0:0:0:
457,292,177530,1,0,0:0:0:0:
457,291,177638,2,0,P|462:313|466:336,1,45,8|0,0:0|0:0,0:0:0:0:
282,206,177959,1,2,0:0:0:0:
286,184,178066,5,2,0:0:0:0:
301,151,178173,1,8,0:0:0:0:
305,116,178280,1,0,0:0:0:0:
297,81,178387,1,0,0:0:0:0:
277,51,178495,2,0,P|249:48|220:44,1,45,8|0,0:0|0:0,0:0:0:0:
78,162,178923,6,0,L|184:151,1,90,6|0,0:0|0:0,0:0:0:0:
167,152,179245,1,0,0:0:0:0:
167,152,179352,1,8,0:0:0:0:
358,212,179566,1,0,0:0:0:0:
377,181,179673,2,0,P|381:119|380:68,1,90,2|0,0:0|0:0,0:0:0:0:
447,216,179995,2,0,P|470:213|491:211,1,45,2|0,0:0|0:0,0:0:0:0:
401,290,180209,1,8,0:0:0:0:
365,288,180316,1,0,0:0:0:0:
329,286,180423,1,0,0:0:0:0:
293,284,180530,1,0,0:0:0:0:
257,282,180638,6,0,P|250:237|250:192,1,90,2|0,0:0|0:0,0:0:0:0:
250,192,180959,1,0,0:0:0:0:
250,192,181066,1,8,0:0:0:0:
123,287,181280,1,0,0:0:0:0:
96,312,181388,2,0,L|-6:319,1,90,2|0,0:0|0:0,0:0:0:0:
124,204,181709,2,0,P|146:207|167:214,1,45,2|0,0:0|0:0,0:0:0:0:
196,98,181923,1,8,0:0:0:0:
230,107,182030,1,0,0:0:0:0:
266,105,182137,1,0,0:0:0:0:
298,90,182244,1,0,0:0:0:0:
324,64,182352,6,0,P|367:54|412:53,1,90,2|0,0:0|0:0,0:0:0:0:
412,53,182673,1,0,0:0:0:0:
412,53,182780,1,8,0:0:0:0:
358,212,182995,1,0,0:0:0:0:
335,239,183102,2,0,P|330:284|328:331,1,90,2|0,0:0|0:0,0:0:0:0:
259,207,183423,2,0,P|236:203|214:200,1,45,2|0,0:0|0:0,0:0:0:0:
197,310,183638,1,8,0:0:0:0:
164,295,183745,1,0,0:0:0:0:
128,292,183852,1,0,0:0:0:0:
94,304,183959,1,0,0:0:0:0:
66,326,184066,6,0,L|79:192,1,135,2|0,0:0|0:0,0:0:0:0:
79,155,184495,1,8,0:0:0:0:
268,131,184709,1,0,0:0:0:0:
268,131,184816,1,2,0:0:0:0:
268,130,184923,2,0,L|270:152|272:174,1,45,0|8,0:0|0:0,0:0:0:0:
380,260,185138,2,0,P|377:237|375:215,1,45,2|0,0:0|0:0,0:0:0:0:
344,98,185352,1,8,0:0:0:0:
316,62,185459,1,0,0:0:0:0:
275,46,185566,1,8,0:0:0:0:
231,54,185673,1,8,0:0:0:0:
198,84,185780,6,0,P|153:82|108:77,1,90,6|0,0:0|0:0,0:0:0:0:
161,166,186102,1,0,0:0:0:0:
186,191,186209,2,0,P|189:235|192:280,1,90,8|0,0:0|0:0,0:0:0:0:
185,315,186530,2,0,P|227:301|272:300,1,90,2|0,0:0|0:0,0:0:0:0:
352,322,186852,2,0,P|355:343|359:368,1,45,2|0,0:0|0:0,0:0:0:0:
333,241,187066,1,8,0:0:0:0:
368,238,187173,1,0,0:0:0:0:
404,236,187280,1,0,0:0:0:0:
440,234,187387,1,0,0:0:0:0:
476,232,187495,6,0,P|483:187|476:143,1,90,2|0,0:0|0:0,0:0:0:0:
403,76,187816,1,0,0:0:0:0:
373,97,187923,2,0,L|283:104,1,90,8|0,0:0|0:0,0:0:0:0:
251,121,188245,2,0,P|208:116|161:112,1,90,2|0,0:0|0:0,0:0:0:0:
74,73,188566,2,0,P|75:50|77:28,1,45,2|0,0:0|0:0,0:0:0:0:
86,169,188780,1,8,0:0:0:0:
71,201,188887,1,0,0:0:0:0:
67,237,188994,1,0,0:0:0:0:
75,272,189101,1,0,0:0:0:0:
94,303,189209,6,0,P|150:307|195:312,1,90,2|0,0:0|0:0,0:0:0:0:
235,244,189530,1,0,0:0:0:0:
268,258,189638,2,0,P|315:265|360:256,1,90,8|0,0:0|0:0,0:0:0:0:
387,240,189959,2,0,P|393:194|399:151,1,90,2|0,0:0|0:0,0:0:0:0:
303,127,190280,2,0,P|306:149|307:171,1,45,2|0,0:0|0:0,0:0:0:0:
360,61,190495,1,8,0:0:0:0:
395,55,190602,1,0,0:0:0:0:
430,61,190709,1,0,0:0:0:0:
461,79,190816,1,0,0:0:0:0:
483,107,190923,6,0,L|494:259,1,135,2|0,0:0|0:0,0:0:0:0:
483,277,191352,1,8,0:0:0:0:
303,134,191566,1,0,0:0:0:0:
303,134,191673,1,2,0:0:0:0:
302,134,191780,2,0,P|281:128|259:123,1,45,0|8,0:0|0:0,0:0:0:0:
345,239,191995,2,0,P|366:244|388:249,1,45,2|0,0:0|0:0,0:0:0:0:
240,228,192209,1,8,0:0:0:0:
198,212,192316,1,0,0:0:0:0:
153,214,192423,1,8,0:0:0:0:
113,234,192530,1,8,0:0:0:0:
84,266,192638,6,0,P|90:199|97:132,1,135,6|0,0:0|0:0,0:0:0:0:
101,106,193066,1,8,0:0:0:0:
208,190,193280,1,0,0:0:0:0:
208,190,193387,2,0,P|200:257|194:324,1,135,2|2,0:0|0:0,0:0:0:0:
190,346,193816,1,0,0:0:0:0:
208,333,193923,1,8,0:0:0:0:
229,324,194030,1,0,0:0:0:0:
250,317,194137,1,0,0:0:0:0:
272,312,194244,1,0,0:0:0:0:
308,308,194352,6,0,P|376:320|445:293,1,135,2|0,0:0|0:0,0:0:0:0:
463,274,194780,1,8,0:0:0:0:
420,133,194995,1,0,0:0:0:0:
420,133,195102,2,0,P|354:120|291:142,1,135,2|2,0:0|0:0,0:0:0:0:
274,157,195530,1,0,0:0:0:0:
253,167,195638,1,8,0:0:0:0:
231,171,195745,1,0,0:0:0:0:
209,171,195852,1,0,0:0:0:0:
187,166,195959,1,0,0:0:0:0:
156,146,196066,6,0,L|148:297,1,135,2|0,0:0|0:0,0:0:0:0:
147,317,196495,1,8,0:0:0:0:
259,270,196709,1,0,0:0:0:0:
259,269,196816,2,0,P|319:240|384:252,1,135,2|2,0:0|0:0,0:0:0:0:
416,268,197245,1,0,0:0:0:0:
418,245,197352,1,8,0:0:0:0:
420,223,197459,1,0,0:0:0:0:
422,200,197566,1,0,0:0:0:0:
424,178,197673,1,0,0:0:0:0:
442,147,197780,6,0,P|377:155|313:126,1,135,2|0,0:0|0:0,0:0:0:0:
292,112,198209,1,8,0:0:0:0:
169,43,198423,1,0,0:0:0:0:
147,39,198530,1,2,0:0:0:0:
123,52,198638,5,0,0:0:0:0:
97,77,198745,1,8,0:0:0:0:
82,109,198852,1,2,0:0:0:0:
81,145,198959,1,0,0:0:0:0:
118,172,199066,5,8,0:0:0:0:
152,200,199173,1,0,0:0:0:0:
168,241,199280,1,8,0:0:0:0:
167,285,199387,1,8,0:0:0:0:
153,328,199495,6,0,L|297:321,1,135,6|0,0:0|0:0,0:0:0:0:
323,319,199923,1,8,0:0:0:0:
452,257,200138,1,0,0:0:0:0:
452,257,200245,2,0,P|466:191|446:128,1,135,2|2,0:0|0:0,0:0:0:0:
428,111,200673,1,0,0:0:0:0:
408,102,200780,1,8,0:0:0:0:
386,98,200887,1,0,0:0:0:0:
364,100,200994,1,0,0:0:0:0:
343,107,201101,1,0,0:0:0:0:
318,133,201209,6,0,P|251:124|183:117,1,135,2|0,0:0|0:0,0:0:0:0:
147,113,201638,1,8,0:0:0:0:
228,228,201852,1,0,0:0:0:0:
228,228,201959,2,0,P|294:219|362:212,1,135,2|2,0:0|0:0,0:0:0:0:
384,209,202388,1,0,0:0:0:0:
375,228,202495,1,8,0:0:0:0:
372,250,202602,1,0,0:0:0:0:
373,274,202709,1,0,0:0:0:0:
380,295,202816,1,0,0:0:0:0:
405,322,202923,6,0,P|340:302|267:320,1,135,2|0,0:0|0:0,0:0:0:0:
246,338,203352,1,8,0:0:0:0:
82,291,203566,1,0,0:0:0:0:
82,291,203673,2,0,L|68:135,1,135,2|2,0:0|0:0,0:0:0:0:
68,132,204102,1,0,0:0:0:0:
69,109,204209,1,8,0:0:0:0:
72,86,204316,1,0,0:0:0:0:
82,66,204423,1,0,0:0:0:0:
97,49,204530,1,0,0:0:0:0:
132,40,204638,6,0,P|183:63|278:56,1,135,2|0,0:0|0:0,0:0:0:0:
294,48,205066,1,8,0:0:0:0:
316,46,205173,1,0,0:0:0:0:
336,54,205280,1,0,0:0:0:0:
358,52,205387,1,2,0:0:0:0:
389,69,205495,6,0,P|380:136|373:203,2,135,2|0|0,0:0|0:0|0:0,0:0:0:0:
