osu file format v14

[General]
AudioFilename: 15. MONSTER.mp3
AudioLeadIn: 0
PreviewTime: 146111
Countdown: 0
SampleSet: Normal
StackLeniency: 0.5
Mode: 0
LetterboxInBreaks: 0
WidescreenStoryboard: 1

[Editor]
DistanceSpacing: 0.8
BeatDivisor: 4
GridSize: 4
TimelineZoom: 1.8

[Metadata]
Title:MONSTER
TitleUnicode:MONSTER
Artist:Reol
ArtistUnicode:れをる
Creator:handsome
Version:VINXIS' INSANE
Source:
Tags:umetora reworu gokusaishoku -kevincela- regraz sharkie bearizm vinxis asahina momoko mokori fort byfar れをる 極彩色 梅とら
BeatmapID:825308
BeatmapSetID:366440

[Difficulty]
HPDrainRate:6
CircleSize:4
OverallDifficulty:7.5
ApproachRate:9
SliderMultiplier:1.5
SliderTickRate:1

[Events]
//Background and Video events
0,0,"14.jpg",0,0
//Break Periods
2,78263,80572
2,141372,142036
//Storyboard Layer 0 (Background)
//Storyboard Layer 1 (Fail)
//Storyboard Layer 2 (Pass)
//Storyboard Layer 3 (Foreground)
//Storyboard Sound Samples

[TimingPoints]
685,365.853658536585,4,2,1,40,1,0
685,-125,4,2,1,40,0,0
12392,-83.3333333333333,4,2,1,65,0,0
24099,-125,4,2,1,40,0,0
34343,-106.382978723404,4,2,1,50,0,0
35806,-99.009900990099,4,2,1,65,0,0
48063,-111.111111111111,4,2,1,65,0,0
48977,-76.9230769230769,4,1,1,75,0,1
69465,-83.3333333333333,4,1,1,70,0,0
81172,-111.111111111111,4,1,1,70,0,0
89953,-90.9090909090908,4,1,1,70,0,0
106050,-76.9230769230769,4,1,1,75,0,1
126538,-100,4,2,1,65,0,0
135319,-111.111111111111,4,2,1,65,0,0
147758,365.853658536585,4,1,1,75,1,1
147758,-76.9230769230769,4,1,1,75,0,1
168611,-76.9230769230769,4,1,1,85,0,1
171172,-100,4,1,1,70,0,0
182879,-86.9565217391304,4,1,1,70,0,0
194587,-120.481927710843,4,2,1,50,0,0

[Colours]
Combo1 : 255,47,52
Combo2 : 183,183,183
Combo3 : 118,192,220
Combo4 : 91,109,236
Combo5 : 210,38,253

[HitObjects]
152,108,685,6,0,P|196:92|288:116,1,120,2|0,0:0|0:0,0:0:0:0:
360,276,1416,2,0,P|316:292|224:268,1,120,0|2,0:0|0:0,0:0:0:0:
152,108,2148,6,0,P|196:92|288:116,1,120,0|0,0:0|0:0,0:0:0:0:
360,276,2880,2,0,P|316:292|224:268,1,120,2|2,0:0|0:0,0:0:0:0:
152,108,3611,54,0,L|140:232,1,120,2|0,0:0|0:0,0:0:0:0:
360,276,4343,2,0,L|372:152,1,120,0|0,0:0|0:0,0:0:0:0:
152,108,5075,6,0,L|140:232,1,120,0|0,0:0|0:0,0:0:0:0:
360,276,5807,2,0,L|372:152,1,120,0|0,0:0|0:0,0:0:0:0:
140,227,6538,54,0,P|184:243|276:219,1,120,2|0,0:0|0:0,0:0:0:0:
348,59,7270,2,0,P|304:43|212:67,1,120,0|2,0:0|0:0,0:0:0:0:
140,227,8001,6,0,P|184:243|276:219,1,120,0|0,0:0|0:0,0:0:0:0:
348,59,8733,2,0,P|304:43|212:67,1,120,2|2,0:0|0:0,0:0:0:0:
140,227,9465,54,0,L|128:103,1,120,2|0,0:0|0:0,0:0:0:0:
348,59,10197,2,0,L|360:183,1,120,0|0,0:0|0:0,0:0:0:0:
140,227,10928,6,0,L|128:103,1,120,0|8,0:0|1:0,0:0:0:0:
252,27,11569,1,8,0:1:0:0:
252,27,11660,2,0,L|273:249,1,210,0|0,0:0|0:0,0:0:0:0:
272,236,12392,6,0,P|339:244|381:235,1,89.9999972534181,4|0,3:2|0:0,0:0:0:0:
160,201,12758,2,0,P|93:193|51:202,1,89.9999972534181,8|0,0:0|0:0,0:0:0:0:
173,320,13124,1,0,3:0:0:0:
173,320,13306,1,0,0:0:0:0:
248,124,13489,2,0,L|239:35,1,89.9999972534181,8|0,0:0|0:0,0:0:0:0:
346,153,13855,54,0,P|397:159|455:146,1,89.9999972534181,0|0,3:0|0:0,0:0:0:0:
481,279,14221,2,0,L|489:368,1,89.9999972534181,8|0,0:0|0:0,0:0:0:0:
307,259,14587,2,0,P|256:253|198:266,1,89.9999972534181,0|0,3:0|0:0,0:0:0:0:
112,177,14953,2,0,L|103:87,1,89.9999972534181,8|0,0:0|0:0,0:0:0:0:
235,145,15319,6,0,B|280:134|280:134|326:141,1,89.9999972534181,0|0,3:0|0:0,0:0:0:0:
160,258,15684,2,0,B|115:269|115:269|69:262,1,89.9999972534181,8|0,0:0|0:0,0:0:0:0:
198,362,16050,1,0,3:0:0:0:
198,362,16233,1,0,0:0:0:0:
301,257,16416,2,0,L|305:355,1,89.9999972534181,8|0,0:0|0:0,0:0:0:0:
417,173,16782,54,0,P|420:102|413:60,1,89.9999972534181,0|0,3:0|0:0,0:0:0:0:
181,94,17148,2,0,P|178:165|185:207,1,89.9999972534181,8|0,0:0|0:0,0:0:0:0:
257,246,17422,1,0,0:0:0:0:
257,246,17514,2,0,P|318:236|361:244,1,89.9999972534181,8|0,0:0|0:0,0:0:0:0:
447,318,17880,1,0,3:0:0:0:
407,152,18063,1,0,3:0:0:0:
447,318,18245,6,0,B|336:331,1,89.9999972534181,4|0,3:2|0:0,0:0:0:0:
333,145,18611,2,0,B|444:132,1,89.9999972534181,8|0,0:0|0:0,0:0:0:0:
255,59,18977,1,0,3:0:0:0:
255,59,19160,1,0,0:0:0:0:
187,189,19343,2,0,P|183:246|190:293,1,89.9999972534181,8|0,0:0|0:0,0:0:0:0:
94,146,19709,54,0,P|49:154|5:149,1,89.9999972534181,0|0,3:0|0:0,0:0:0:0:
278,320,20075,2,0,P|323:312|367:317,1,89.9999972534181,8|0,0:0|0:0,0:0:0:0:
501,383,20441,1,0,3:0:0:0:
483,264,20624,1,0,0:0:0:0:
465,145,20806,2,0,L|451:30,1,89.9999972534181,8|0,0:0|0:0,0:0:0:0:
283,194,21172,6,0,B|325:204|325:204|370:193,1,89.9999972534181,0|0,3:0|0:0,0:0:0:0:
201,129,21538,2,0,B|156:118|156:118|113:128,1,89.9999972534181,8|0,0:0|0:0,0:0:0:0:
158,267,21904,1,0,3:0:0:0:
158,267,22087,1,0,0:0:0:0:
295,90,22270,2,0,L|299:0,1,89.9999972534181,8|0,0:0|0:0,0:0:0:0:
465,145,22636,54,0,P|469:189|466:234,1,89.9999972534181,0|0,3:0|0:0,0:0:0:0:
123,234,23002,2,0,P|120:189|125:145,1,89.9999972534181,8|0,0:0|0:0,0:0:0:0:
208,84,23276,1,0,0:0:0:0:
208,84,23367,2,0,P|251:96|295:89,1,89.9999972534181,8|0,0:0|0:0,0:0:0:0:
427,29,23733,1,8,0:0:0:0:
430,73,23824,1,0,0:0:0:0:
434,118,23915,1,0,0:0:0:0:
437,163,24007,1,0,0:0:0:0:
441,208,24099,54,0,P|396:222|315:208,1,120,4|0,0:1|0:0,0:0:0:0:
208,84,24648,1,0,0:0:0:0:
208,84,24831,2,0,P|204:124|192:160,1,60,0|0,0:0|0:0,0:0:0:0:
193,344,25197,2,0,P|197:304|209:268,1,60,0|0,0:0|0:0,0:0:0:0:
258,207,25563,6,0,L|119:221,1,120,0|0,0:0|0:0,0:0:0:0:
58,163,26111,1,0,0:0:0:0:
28,278,26294,2,0,L|30:353,1,60,0|0,0:0|0:0,0:0:0:0:
58,163,26660,2,0,L|56:88,1,60,0|0,0:0|0:0,0:0:0:0:
139,52,27026,54,0,P|178:62|265:41,1,120,0|0,0:0|0:0,0:0:0:0:
421,40,27575,1,0,0:0:0:0:
421,40,27758,2,0,P|424:86|420:107,1,60,0|0,0:0|0:0,0:0:0:0:
225,213,28124,2,0,P|222:167|226:146,1,60,0|0,0:0|0:0,0:0:0:0:
337,176,28489,6,0,L|346:304,1,120,0|0,0:0|0:0,0:0:0:0:
427,357,29038,1,0,0:0:0:0:
241,340,29221,2,0,L|166:331,1,60,0|0,0:0|0:0,0:0:0:0:
427,357,29587,2,0,L|502:366,1,60,0|0,0:0|0:0,0:0:0:0:
469,248,29953,54,0,P|458:190|456:130,1,120,0|0,0:0|0:0,0:0:0:0:
319,226,30502,1,0,0:0:0:0:
319,226,30684,2,0,P|313:255|312:285,1,60,0|0,0:0|0:0,0:0:0:0:
180,119,31050,2,0,P|174:89|173:59,1,60,0|0,0:0|0:0,0:0:0:0:
92,167,31416,6,0,L|89:311,1,120,0|0,0:0|0:0,0:0:0:0:
178,216,31965,2,0,L|175:360,1,120,0|0,0:0|0:0,0:0:0:0:
265,264,32514,1,0,0:0:0:0:
262,383,32696,1,0,0:0:0:0:
352,312,32880,54,0,L|355:168,1,120,0|0,0:0|0:0,0:0:0:0:
348,61,33428,1,0,0:0:0:0:
348,61,33611,2,0,P|318:59|288:63,1,60,0|0,0:0|0:0,0:0:0:0:
176,177,33977,2,0,P|205:178|235:174,1,60,0|0,0:0|0:0,0:0:0:0:
90,111,34343,6,0,L|86:221,1,105.749998386383,4|0,3:2|3:0,0:0:0:0:
86,216,34709,2,0,P|141:271|172:277,1,105.749998386383,8|0,0:0|3:0,0:0:0:0:
233,232,35075,5,0,3:0:0:0:
243,256,35166,1,0,0:0:0:0:
245,282,35257,1,8,0:0:0:0:
238,308,35349,1,0,0:0:0:0:
224,330,35440,1,8,0:0:0:0:
203,346,35532,1,0,0:0:0:0:
178,355,35623,1,0,3:0:0:0:
152,355,35715,1,0,3:0:0:0:
127,348,35806,54,0,L|32:344,1,75.7499984973908,4|0,3:2|0:0,0:0:0:0:
112,181,36172,1,8,0:0:0:0:
165,276,36355,1,0,0:0:0:0:
245,134,36538,2,0,L|340:138,1,75.7499984973908,0|0,3:0|3:0,0:0:0:0:
465,107,36904,2,0,P|472:57|461:17,1,75.7499984973908,8|0,0:0|0:0,0:0:0:0:
348,246,37270,5,0,3:0:0:0:
348,246,37453,1,0,0:0:0:0:
360,67,37636,1,8,0:0:0:0:
245,134,37819,1,0,0:0:0:0:
472,182,38002,2,0,L|464:106,1,75.7499984973908,0|0,3:0|3:0,0:0:0:0:
245,134,38367,2,0,L|253:210,1,75.7499984973908,8|0,0:0|0:0,0:0:0:0:
205,286,38642,1,0,0:0:0:0:
205,286,38733,54,0,P|160:280|110:292,1,75.7499984973908,0|0,3:0|0:0,0:0:0:0:
15,176,39099,1,8,0:0:0:0:
199,143,39282,1,0,0:0:0:0:
15,176,39465,2,0,P|60:182|110:170,1,75.7499984973908,0|0,3:0|0:0,0:0:0:0:
308,108,39831,2,0,L|312:195,1,75.7499984973908,8|0,0:0|0:0,0:0:0:0:
281,353,40197,5,0,3:0:0:0:
205,286,40380,1,0,0:0:0:0:
405,308,40563,1,8,0:0:0:0:
184,383,40745,1,0,0:0:0:0:
200,146,40928,1,0,3:0:0:0:
200,146,41111,1,0,3:0:0:0:
205,286,41294,1,8,0:0:0:0:
76,180,41477,1,8,0:0:0:0:
73,142,41568,1,0,0:0:0:0:
71,104,41660,54,0,L|64:15,1,75.7499984973908,0|0,3:0|0:0,0:0:0:0:
200,146,42026,1,8,0:0:0:0:
287,42,42209,1,0,0:0:0:0:
389,130,42392,2,0,L|395:218,1,75.7499984973908,0|0,3:0|3:0,0:0:0:0:
237,364,42758,2,0,P|199:368|162:358,1,75.7499984973908,8|0,0:0|0:0,0:0:0:0:
20,276,43124,5,0,3:0:0:0:
73,142,43306,1,0,0:0:0:0:
287,281,43489,1,8,0:0:0:0:
127,242,43672,1,0,0:0:0:0:
228,117,43855,2,0,L|314:135,1,75.7499984973908,0|0,3:0|3:0,0:0:0:0:
287,281,44221,2,0,L|200:262,1,75.7499984973908,8|0,0:0|0:0,0:0:0:0:
130,48,44587,53,4,3:2:0:0:
228,117,44770,1,0,0:0:0:0:
317,39,44953,1,8,0:0:0:0:
317,39,45044,2,0,P|337:81|329:132,1,75.7499984973908,8|0,0:0|0:0,0:0:0:0:
329,134,45319,5,8,0:0:0:0:
139,142,45502,2,0,P|87:150|70:150,2,37.8749992486954,8|8|4,0:0|0:0|3:2,0:0:0:0:
240,221,45867,1,8,0:0:0:0:
196,52,46050,54,0,P|265:23|338:41,1,151.499996994782,4|0,3:2|0:0,0:0:0:0:
237,140,46599,2,0,P|271:73|338:41,1,151.499996994782,0|0,0:0|3:0,0:0:0:0:
459,93,47148,1,0,3:0:0:0:
329,190,47331,1,0,3:0:0:0:
329,190,48063,5,0,0:0:0:0:
255,310,48245,2,0,P|222:317|188:314,1,67.4999979400635
214,187,48611,2,0,P|215:136|237:91,1,101.249996910095
285,84,48977,6,0,P|333:78|381:83,1,97.4999955368044,4|0,3:2|0:0,0:0:0:0:
494,209,49343,1,8,0:0:0:0:
472,55,49526,1,0,0:0:0:0:
347,206,49709,6,0,L|337:318,1,97.4999955368044,0|0,3:0|0:0,0:0:0:0:
186,157,50075,2,0,L|196:45,1,97.4999955368044,8|0,0:0|0:0,0:0:0:0:
197,273,50441,54,0,P|150:282|102:275,1,97.4999955368044,0|0,3:0|0:0,0:0:0:0:
50,137,50806,1,8,0:0:0:0:
136,35,50989,1,0,0:0:0:0:
27,231,51172,5,0,3:0:0:0:
186,157,51355,1,0,0:0:0:0:
145,357,51538,53,8,0:0:0:0:
50,137,51721,1,0,0:0:0:0:
283,195,51904,6,0,P|331:201|392:195,1,97.4999955368044,0|0,3:0|0:0,0:0:0:0:
459,9,52270,1,8,0:0:0:0:
336,57,52453,1,0,0:0:0:0:
411,280,52636,54,0,P|449:250|465:205,1,97.4999955368044,0|0,3:0|0:0,0:0:0:0:
459,9,53002,1,8,0:0:0:0:
459,9,53185,1,0,0:0:0:0:
213,105,53367,5,0,3:0:0:0:
213,105,53550,1,0,0:0:0:0:
278,322,53733,53,8,0:0:0:0:
278,322,53916,1,0,0:0:0:0:
155,220,54099,5,0,3:0:0:0:
326,129,54282,1,0,0:0:0:0:
278,322,54465,53,8,0:0:0:0:
213,105,54648,1,0,0:0:0:0:
97,335,54831,37,4,3:2:0:0:
97,335,55197,2,0,P|142:351|189:342,1,97.4999955368044,8|0,0:0|0:0,0:0:0:0:
195,147,55563,2,0,P|147:138|102:154,1,97.4999955368044,0|0,3:0|0:0,0:0:0:0:
14,303,55928,1,8,0:0:0:0:
155,233,56111,1,0,0:0:0:0:
278,322,56294,6,0,P|345:341|387:334,1,97.4999955368044,0|0,3:0|0:0,0:0:0:0:
453,157,56660,1,8,0:0:0:0:
340,237,56843,1,0,0:0:0:0:
462,254,57026,54,0,L|452:156,1,97.4999955368044,0|0,3:0|0:0,0:0:0:0:
195,147,57392,2,0,L|204:244,1,97.4999955368044,8|0,0:0|0:0,0:0:0:0:
238,71,57758,6,0,P|190:63|144:77,1,97.4999955368044,0|0,3:0|0:0,0:0:0:0:
44,190,58124,1,8,0:0:0:0:
44,190,58306,1,0,0:0:0:0:
161,320,58489,54,0,P|208:327|254:313,1,97.4999955368044,0|0,3:0|0:0,0:0:0:0:
337,132,58855,2,0,P|301:165|284:210,1,97.4999955368044,8|0,0:0|0:0,0:0:0:0:
399,372,59221,2,0,P|388:324|359:287,1,97.4999955368044,0|0,3:0|0:0,0:0:0:0:
195,147,59587,2,0,L|87:142,1,97.4999955368044,8|0,0:0|3:0,0:0:0:0:
44,244,59953,5,0,3:0:0:0:
235,292,60136,1,8,0:0:0:0:
274,299,60227,1,0,3:0:0:0:
315,299,60318,1,8,0:0:0:0:
354,288,60410,1,8,0:0:0:0:
394,280,60501,1,8,0:0:0:0:
434,283,60593,1,8,0:0:0:0:
474,291,60684,6,0,L|462:176,1,97.4999955368044,4|0,3:2|0:0,0:0:0:0:
434,45,61050,1,8,0:0:0:0:
441,191,61233,1,0,0:0:0:0:
291,99,61416,6,0,P|220:88|150:108,1,146.249993305207,0|0,3:0|0:0,0:0:0:0:
150,108,61782,1,8,0:0:0:0:
157,248,61965,1,0,0:0:0:0:
40,185,62148,54,0,P|27:138|40:91,1,97.4999955368044,0|0,3:0|0:0,0:0:0:0:
150,108,62514,2,0,P|174:66|216:42,1,97.4999955368044,8|0,0:0|0:0,0:0:0:0:
283,131,62880,2,0,P|329:118|376:131,1,97.4999955368044,0|0,3:0|0:0,0:0:0:0:
359,242,63245,2,0,P|400:266|424:308,1,97.4999955368044,8|0,0:0|0:0,0:0:0:0:
255,317,63611,5,0,3:0:0:0:
283,131,63794,1,0,0:0:0:0:
164,233,63977,1,8,0:0:0:0:
359,242,64160,1,0,0:0:0:0:
139,336,64343,54,0,B|89:343|89:343|39:336,1,97.4999955368044,0|0,3:0|0:0,0:0:0:0:
186,131,64709,2,0,B|236:124|236:124|286:131,1,97.4999955368044,8|0,0:0|0:0,0:0:0:0:
455,241,65075,6,0,P|407:249|359:242,1,97.4999955368044,0|0,3:0|0:0,0:0:0:0:
404,104,65441,1,8,0:0:0:0:
404,104,65624,1,0,0:0:0:0:
237,212,65806,53,8,3:2:0:0:
201,219,65897,1,8,0:0:0:0:
165,217,65988,1,8,0:0:0:0:
131,205,66080,1,8,0:0:0:0:
101,184,66171,1,8,0:0:0:0:
51,343,66355,1,8,0:0:0:0:
51,343,66447,1,8,0:0:0:0:
51,343,66538,5,4,3:2:0:0:
198,28,66904,1,8,0:0:0:0:
375,330,67270,1,8,0:0:0:0:
32,252,67636,1,8,0:0:0:0:
348,98,68002,54,0,L|458:87,1,97.4999955368044,8|0,0:0|0:0,0:0:0:0:
300,201,68367,2,0,L|190:212,1,97.4999955368044,8|0,0:0|0:0,0:0:0:0:
35,133,68733,37,8,0:0:0:0:
77,155,68824,1,8,0:0:0:0:
124,153,68915,1,8,0:0:0:0:
164,125,69007,1,8,0:0:0:0:
182,81,69099,1,8,0:0:0:0:
186,133,69190,1,8,0:0:0:0:
191,187,69281,1,8,0:0:0:0:
196,239,69373,1,8,0:0:0:0:
201,293,69465,6,0,P|268:301|310:292,1,89.9999972534181,4|0,3:2|0:0,0:0:0:0:
89,258,69831,2,0,P|22:250|-20:259,1,89.9999972534181,8|0,0:0|0:0,0:0:0:0:
102,377,70197,1,0,3:0:0:0:
102,377,70379,1,0,0:0:0:0:
177,181,70562,2,0,L|168:92,1,89.9999972534181,8|0,0:0|0:0,0:0:0:0:
273,164,70928,54,0,P|288:207|292:252,1,89.9999972534181,0|0,3:0|0:0,0:0:0:0:
68,267,71294,2,0,P|65:222|75:178,1,89.9999972534181,8|0,0:0|0:0,0:0:0:0:
202,53,71660,2,0,L|312:44,1,89.9999972534181,0|0,3:0|0:0,0:0:0:0:
310,369,72026,2,0,L|221:362,1,89.9999972534181,8|0,0:0|0:0,0:0:0:0:
177,181,72392,6,0,L|192:277,1,89.9999972534181,0|0,3:0|0:0,0:0:0:0:
369,181,72758,2,0,L|384:85,1,89.9999972534181,8|0,0:0|0:0,0:0:0:0:
273,164,73124,1,0,3:0:0:0:
273,164,73306,1,0,0:0:0:0:
253,348,73489,2,0,P|214:367|169:365,1,89.9999972534181,8|0,0:0|0:0,0:0:0:0:
118,104,73855,54,0,P|157:84|202:86,1,89.9999972534181,0|0,3:0|0:0,0:0:0:0:
369,181,74221,2,0,P|413:183|453:163,1,89.9999972534181,8|0,0:0|0:0,0:0:0:0:
473,258,74495,1,8,0:0:0:0:
473,258,74587,2,0,L|480:363,1,89.9999972534181,0|0,3:0|0:0,0:0:0:0:
344,274,74953,1,8,0:0:0:0:
306,243,75044,1,8,0:0:0:0:
262,229,75135,1,8,0:0:0:0:
215,231,75227,1,8,0:0:0:0:
172,252,75319,6,0,L|82:255,1,89.9999972534181,4|0,3:2|0:0,0:0:0:0:
28,106,75684,2,0,L|118:103,1,89.9999972534181,8|0,0:0|0:0,0:0:0:0:
325,102,76050,1,0,3:0:0:0:
325,102,76233,1,0,0:0:0:0:
181,165,76416,2,0,P|166:207|171:251,1,89.9999972534181,8|0,0:0|0:0,0:0:0:0:
400,155,76782,54,0,P|414:112|409:68,1,89.9999972534181,0|0,3:0|0:0,0:0:0:0:
295,231,77148,2,0,L|299:338,1,89.9999972534181,8|0,0:0|0:0,0:0:0:0:
89,297,77514,5,0,3:0:0:0:
85,125,77697,1,0,0:0:0:0:
208,246,77880,53,8,0:0:0:0:
256,20,78063,1,0,0:0:0:0:
174,91,81172,54,0,P|232:93|321:77,1,134.999995880127,0|8,3:0|0:0,0:0:0:0:
436,28,81721,1,0,0:0:0:0:
479,160,81904,2,0,L|486:255,1,67.4999979400635,0|0,3:0|3:0,0:0:0:0:
313,257,82270,2,0,L|306:162,1,67.4999979400635,8|0,0:0|0:0,0:0:0:0:
308,189,82544,1,0,0:0:0:0:
308,189,82636,5,0,3:0:0:0:
425,333,82819,1,8,0:0:0:0:
425,333,83184,1,8,0:0:0:0:
240,322,83367,54,0,P|193:317|144:324,1,67.4999979400635,0|0,3:0|3:0,0:0:0:0:
78,228,83733,1,8,0:0:0:0:
108,214,83824,1,0,0:0:0:0:
129,188,83915,1,0,0:0:0:0:
137,155,84007,1,0,0:0:0:0:
130,123,84099,6,0,P|189:136|261:109,1,134.999995880127,0|8,3:0|0:0,0:0:0:0:
339,26,84648,1,0,0:0:0:0:
444,130,84831,2,0,P|451:187|446:207,1,67.4999979400635,0|0,3:0|3:0,0:0:0:0:
379,318,85197,1,8,0:0:0:0:
294,184,85380,1,0,3:0:0:0:
294,184,85471,1,0,0:0:0:0:
294,184,85563,53,0,3:0:0:0:
174,300,85745,2,0,P|155:239|156:175,1,101.249996910095,8|0,0:0|0:0,0:0:0:0:
162,176,86111,1,8,0:0:0:0:
73,276,86294,6,0,P|73:317|59:353,1,67.4999979400635,0|8,3:0|0:0,0:0:0:0:
38,118,86660,1,8,0:0:0:0:
72,116,86751,1,0,0:0:0:0:
105,114,86842,1,0,0:0:0:0:
139,112,86934,1,0,0:0:0:0:
173,109,87026,54,0,L|308:101,1,134.999995880127,0|8,3:0|0:0,0:0:0:0:
442,92,87575,1,0,0:0:0:0:
411,263,87758,1,0,3:0:0:0:
348,184,87941,1,0,3:0:0:0:
274,329,88124,2,0,L|264:244,1,67.4999979400635,8|0,0:0|0:0,0:0:0:0:
247,71,88489,5,0,3:0:0:0:
109,62,88672,1,8,0:0:0:0:
93,91,88763,1,0,0:0:0:0:
85,124,88854,1,0,0:0:0:0:
87,158,88946,1,0,0:0:0:0:
97,190,89037,1,0,0:0:0:0:
115,218,89129,53,8,0:0:0:0:
100,248,89221,1,0,0:0:0:0:
92,281,89312,1,0,0:0:0:0:
94,315,89404,1,0,3:0:0:0:
104,347,89495,1,0,0:0:0:0:
122,375,89587,1,8,0:0:0:0:
389,375,89770,1,8,0:0:0:0:
389,375,89861,1,0,3:0:0:0:
389,375,89953,6,0,L|391:277,1,82.5000025177003,4|0,3:2|0:0,0:0:0:0:
390,292,90227,1,0,3:0:0:0:
390,292,90319,1,8,0:0:0:0:
343,100,90502,2,0,L|335:44,2,41.2500012588501,0|0|0,0:0|3:0|3:0,0:0:0:0:
489,181,90867,1,8,0:0:0:0:
254,212,91050,1,0,3:0:0:0:
204,212,91141,1,0,0:0:0:0:
159,187,91232,1,0,3:0:0:0:
134,142,91324,1,0,0:0:0:0:
136,91,91415,53,0,3:0:0:0:
256,192,91508,12,0,92331,0:0:0:0:
323,316,92880,6,0,P|387:323|424:314,1,82.5000025177003,4|0,3:2|0:0,0:0:0:0:
495,182,93245,1,8,0:0:0:0:
495,182,93428,1,0,0:0:0:0:
264,107,93611,2,0,P|260:147|268:188,1,82.5000025177003,0|0,3:0|0:0,0:0:0:0:
323,316,93976,1,8,0:0:0:0:
359,143,94159,1,0,0:0:0:0:
220,305,94343,6,0,L|125:309,1,82.5000025177003,0|0,3:0|0:0,0:0:0:0:
65,126,94709,2,0,L|160:122,1,82.5000025177003,8|0,0:0|0:0,0:0:0:0:
262,214,95075,2,0,P|222:223|181:220,1,82.5000025177003,0|0,3:0|0:0,0:0:0:0:
180,24,95441,2,0,P|221:21|262:31,1,82.5000025177003,8|0,0:0|0:0,0:0:0:0:
368,96,95715,1,0,0:0:0:0:
368,96,95806,54,0,L|364:0,1,82.5000025177003,0|0,3:0|0:0,0:0:0:0:
466,131,96172,1,8,0:0:0:0:
466,131,96355,1,0,0:0:0:0:
361,230,96538,2,0,P|299:232|253:211,1,82.5000025177003,0|0,3:0|0:0,0:0:0:0:
168,134,96904,1,8,0:0:0:0:
145,277,97087,1,0,0:0:0:0:
303,83,97270,5,0,3:0:0:0:
33,185,97453,1,0,3:0:0:0:
280,226,97636,2,0,P|331:231|403:213,1,123.75000377655,8|0,0:0|0:0,0:0:0:0:
400,213,98002,53,0,3:0:0:0:
461,57,98184,1,0,3:0:0:0:
432,234,98367,2,0,B|430:325,1,82.5000025177003,8|8,0:0|0:0,0:0:0:0:
344,363,98642,1,0,0:0:0:0:
343,362,98733,6,0,P|303:356|263:366,1,82.5000025177003,0|0,3:0|0:0,0:0:0:0:
44,325,99099,2,0,P|84:331|124:321,1,82.5000025177003,8|0,0:0|0:0,0:0:0:0:
252,205,99465,1,0,3:0:0:0:
183,375,99648,1,0,0:0:0:0:
302,274,99831,2,0,L|291:150,1,123.75000377655,8|0,0:0|0:0,0:0:0:0:
321,142,100197,54,0,P|385:140|417:132,1,82.5000025177003,0|0,3:0|0:0,0:0:0:0:
205,84,100563,2,0,P|141:86|109:94,1,82.5000025177003,8|0,0:0|0:0,0:0:0:0:
14,182,100928,1,0,3:0:0:0:
144,210,101111,1,0,0:0:0:0:
110,5,101294,1,8,0:0:0:0:
97,119,101477,1,0,0:0:0:0:
259,71,101660,6,0,P|322:67|359:71,1,82.5000025177003,0|0,3:0|0:0,0:0:0:0:
419,202,102026,1,0,3:0:0:0:
350,54,102209,1,0,0:0:0:0:
289,201,102392,53,0,3:0:0:0:
423,107,102575,1,0,0:0:0:0:
193,91,102758,1,0,3:0:0:0:
284,306,102941,1,0,0:0:0:0:
475,171,103124,54,0,P|505:98|457:33,1,165.000005035401,2|2,0:0|0:0,0:0:0:0:
285,97,103855,2,0,B|206:108|206:108|150:100,1,123.75000377655,2|0,0:0|0:0,0:0:0:0:
162,101,104221,5,0,0:0:0:0:
97,206,104404,1,0,2:0:0:0:
216,237,104587,1,0,0:0:0:0:
216,360,104770,1,0,0:0:0:0:
319,291,104953,1,0,0:0:0:0:
421,360,105136,1,0,0:0:0:0:
457,241,105319,6,0,L|466:140,1,82.5000025177003,0|0,0:0|2:0,0:0:0:0:
319,291,105684,2,0,L|310:392,1,82.5000025177003,0|0,0:0|2:0,0:0:0:0:
148,190,106050,6,0,P|226:181|288:190,1,97.4999955368044,4|0,3:2|0:0,0:0:0:0:
377,249,106416,1,8,0:0:0:0:
326,71,106599,1,0,0:0:0:0:
242,272,106782,6,0,P|237:328|243:375,1,97.4999955368044,0|0,3:0|0:0,0:0:0:0:
512,368,107148,2,0,P|517:320|512:272,1,97.4999955368044,8|0,0:0|0:0,0:0:0:0:
463,84,107514,53,0,3:0:0:0:
353,217,107697,1,0,0:0:0:0:
231,182,107880,5,8,0:0:0:0:
450,200,108063,1,0,0:0:0:0:
314,322,108245,53,0,3:1:0:0:
248,81,108428,1,0,0:0:0:0:
450,200,108611,5,8,0:0:0:0:
231,182,108794,1,0,0:0:0:0:
345,83,108977,54,0,L|219:80,1,97.4999955368044,0|0,3:0|0:0,0:0:0:0:
107,174,109343,1,8,0:0:0:0:
188,272,109526,1,0,0:0:0:0:
283,161,109709,6,0,L|299:258,1,97.4999955368044,0|0,3:0|0:0,0:0:0:0:
227,381,110075,1,8,0:0:0:0:
227,381,110258,1,0,0:0:0:0:
107,174,110441,53,0,3:0:0:0:
107,174,110624,1,0,0:0:0:0:
298,257,110806,5,8,0:0:0:0:
298,257,110989,1,0,0:0:0:0:
188,272,111172,53,0,3:0:0:0:
283,161,111355,1,0,0:0:0:0:
227,381,111538,5,8,0:0:0:0:
107,174,111721,1,0,0:0:0:0:
298,257,111904,21,4,3:2:0:0:
298,257,112270,2,0,P|343:273|390:264,1,97.4999955368044,8|0,0:0|0:0,0:0:0:0:
396,69,112636,2,0,P|348:60|303:76,1,97.4999955368044,0|0,3:0|0:0,0:0:0:0:
215,225,113001,1,8,0:0:0:0:
356,155,113184,1,0,0:0:0:0:
497,221,113367,6,0,L|506:333,1,97.4999955368044,0|0,3:0|0:0,0:0:0:0:
306,353,113733,2,0,L|297:241,1,97.4999955368044,8|0,0:0|0:0,0:0:0:0:
287,52,114099,53,0,3:0:0:0:
356,155,114282,1,0,0:0:0:0:
215,225,114465,2,0,P|139:230|94:224,1,97.4999955368044,8|0,0:0|0:0,0:0:0:0:
93,42,114831,6,0,L|116:155,1,97.4999955368044,0|0,3:0|0:0,0:0:0:0:
180,335,115197,1,8,0:0:0:0:
180,335,115380,1,0,0:0:0:0:
243,157,115563,54,0,P|290:150|336:164,1,97.4999955368044,0|0,3:0|0:0,0:0:0:0:
419,345,115929,2,0,P|383:312|366:267,1,97.4999955368044,8|0,0:0|0:0,0:0:0:0:
481,105,116295,2,0,P|470:153|441:190,1,97.4999955368044,0|0,3:0|0:0,0:0:0:0:
277,330,116661,2,0,L|169:335,1,97.4999955368044,8|0,0:0|3:0,0:0:0:0:
13,313,117026,5,0,3:0:0:0:
103,215,117209,1,8,0:0:0:0:
118,197,117300,1,0,3:0:0:0:
123,173,117391,1,8,0:0:0:0:
119,149,117483,1,8,0:0:0:0:
105,130,117575,1,8,0:0:0:0:
84,87,117666,1,8,0:0:0:0:
102,44,117758,6,0,P|150:39|196:52,1,97.4999955368044,0|0,3:0|0:0,0:0:0:0:
361,185,118124,1,8,0:0:0:0:
224,175,118306,1,0,0:0:0:0:
394,171,118489,6,0,L|404:58,1,97.4999955368044,0|0,3:0|0:0,0:0:0:0:
191,189,118855,2,0,L|181:302,1,97.4999955368044,8|0,0:0|0:0,0:0:0:0:
44,116,119221,54,0,P|92:110|140:115,1,97.4999955368044,0|0,3:0|0:0,0:0:0:0:
329,359,119587,2,0,P|280:364|232:359,1,97.4999955368044,8|0,0:0|0:0,0:0:0:0:
140,115,119953,5,0,3:0:0:0:
92,271,120136,1,0,0:0:0:0:
234,101,120319,53,8,0:0:0:0:
232,359,120502,1,0,0:0:0:0:
324,147,120684,6,0,P|332:99|320:52,1,97.4999955368044,0|0,3:0|0:0,0:0:0:0:
140,115,121050,1,8,0:0:0:0:
380,234,121233,1,0,0:0:0:0:
203,231,121416,53,0,3:0:0:0:
304,297,121598,1,0,0:0:0:0:
128,284,121782,2,0,P|116:236|124:189,1,97.4999955368044,8|0,0:0|0:0,0:0:0:0:
311,121,122148,6,0,P|263:128|214:123,1,97.4999955368044,0|0,3:0|0:0,0:0:0:0:
29,85,122514,2,0,P|77:78|126:83,1,97.4999955368044,8|0,0:0|0:0,0:0:0:0:
346,138,122880,53,8,3:2:0:0:
373,109,122971,1,8,0:0:0:0:
354,75,123063,1,8,0:0:0:0:
316,82,123154,1,8,0:0:0:0:
311,121,123245,1,8,0:0:0:0:
438,225,123428,1,8,0:0:0:0:
438,225,123520,1,8,0:0:0:0:
438,225,123611,5,4,3:2:0:0:
109,104,123977,1,8,0:0:0:0:
459,81,124343,1,8,0:0:0:0:
174,286,124709,1,8,0:0:0:0:
354,61,125075,54,0,P|401:50|449:55,1,97.4999955368044,8|0,0:0|0:0,0:0:0:0:
332,182,125441,2,0,P|285:193|237:188,1,97.4999955368044,8|0,0:0|0:0,0:0:0:0:
94,88,125806,37,8,0:0:0:0:
107,134,125897,1,8,0:0:0:0:
102,182,125988,1,8,0:0:0:0:
79,225,126080,1,8,0:0:0:0:
42,256,126172,1,8,0:0:0:0:
91,259,126263,1,8,0:0:0:0:
139,262,126354,1,8,0:0:0:0:
188,264,126446,1,8,0:0:0:0:
237,267,126538,6,0,L|363:273,2,112.5,4|0|0,3:2|3:0|3:0,0:0:0:0:
136,180,127270,1,4,0:0:0:0:
87,352,127453,1,0,0:0:0:0:
164,186,127636,6,0,P|168:130|153:76,2,112.5,0|0|0,3:0|3:0|3:0,0:0:0:0:
60,259,128367,1,8,0:0:0:0:
268,113,128550,1,8,0:0:0:0:
268,113,128642,1,0,0:0:0:0:
268,113,128733,54,0,L|385:103,2,112.5,0|0|0,3:0|3:0|3:0,0:0:0:0:
164,186,129465,1,8,0:0:0:0:
114,92,129648,1,8,0:0:0:0:
104,293,129831,6,0,L|221:303,2,112.5,0|0|0,3:0|3:0|3:0,0:0:0:0:
104,293,130471,1,0,0:0:0:0:
104,293,130563,1,4,3:2:0:0:
94,158,130745,1,0,3:0:0:0:
94,158,130837,1,0,3:0:0:0:
94,158,130928,54,0,P|96:101|92:45,2,112.5,4|0|0,3:2|3:0|3:0,0:0:0:0:
85,185,131569,1,0,0:0:0:0:
85,185,131660,1,8,0:0:0:0:
93,333,131843,5,0,0:0:0:0:
123,355,131934,1,0,0:0:0:0:
157,369,132025,1,0,3:0:0:0:
194,373,132117,1,0,0:0:0:0:
231,367,132208,1,0,0:0:0:0:
266,352,132300,1,0,3:0:0:0:
295,329,132392,54,0,L|316:260,3,37.5,0|0|0|0,0:0|0:0|3:0|0:0,0:0:0:0:
240,214,132758,2,0,L|175:202,3,37.5,0|0|0|0,1:0|1:0|1:0|1:0,0:0:0:0:
263,196,133124,5,0,1:0:0:0:
434,68,133398,1,0,1:0:0:0:
427,338,133672,1,0,1:0:0:0:
427,338,134221,53,8,0:0:0:0:
257,190,134495,2,0,L|244:133,4,37.5,8|0|0|0|0,0:0|1:0|1:0|1:0|1:0,0:0:0:0:
273,224,134953,1,0,3:0:0:0:
285,259,135044,1,0,3:0:0:0:
290,296,135135,1,0,3:0:0:0:
285,333,135227,1,0,3:0:0:0:
273,367,135319,38,0,P|239:372|206:367,1,67.4999979400635,6|0,3:2|0:0,0:0:0:0:
110,256,135684,2,0,P|143:251|176:256,1,67.4999979400635,0|0,0:0|0:0,0:0:0:0:
275,277,136050,1,0,0:0:0:0:
368,224,136233,1,0,0:0:0:0:
291,295,136416,1,0,0:0:0:0:
264,158,136599,1,0,0:0:0:0:
400,315,136782,6,0,P|447:314|491:298,1,67.4999979400635,0|0,0:0|0:0,0:0:0:0:
336,133,137148,2,0,P|289:134|245:150,1,67.4999979400635
268,310,137514,2,0,L|283:400,1,67.4999979400635
161,213,137880,2,0,L|146:123,1,67.4999979400635
48,244,138245,54,0,P|47:277|53:310,1,67.4999979400635,2|0,0:0|0:0,0:0:0:0:
268,310,138611,2,0,P|268:276|262:243,1,67.4999979400635,0|0,0:0|0:0,0:0:0:0:
205,94,138977,1,0,0:0:0:0:
226,228,139160,1,0,0:0:0:0:
225,112,139343,1,0,0:0:0:0:
352,204,139526,1,0,0:0:0:0:
100,252,139709,6,0,L|27:266,1,67.4999979400635,0|0,0:0|0:0,0:0:0:0:
121,124,140075,2,0,L|194:110,1,67.4999979400635,0|0,0:0|0:0,0:0:0:0:
344,109,140441,2,0,P|346:170|337:195,1,67.4999979400635
223,313,140806,2,0,P|221:252|230:227,1,67.4999979400635
223,247,141081,1,0,0:0:0:0:
223,247,141172,53,2,0:0:0:0:
350,93,142636,5,2,0:0:0:0:
222,275,143276,1,0,3:0:0:0:
222,275,143367,1,0,3:0:0:0:
222,275,143459,1,0,3:0:0:0:
222,275,143550,2,0,L|210:217,1,33.7499989700318,8|0,0:0|0:0,0:0:0:0:
126,221,143733,2,0,L|114:163,1,33.7499989700318,8|0,0:0|0:0,0:0:0:0:
65,101,143916,1,0,3:0:0:0:
65,101,144008,1,0,3:0:0:0:
65,101,144099,5,4,3:2:0:0:
31,286,144282,1,0,0:0:0:0:
240,259,144465,1,0,3:0:0:0:
145,164,144648,53,0,0:0:0:0:
242,370,144831,1,0,3:0:0:0:
336,164,145014,1,0,3:0:0:0:
135,273,145197,5,0,3:0:0:0:
345,273,145380,1,0,3:0:0:0:
345,273,146111,53,0,0:0:0:0:
400,150,146294,2,0,P|366:149|335:163,1,67.4999979400635
227,300,146660,1,0,0:0:0:0:
227,300,147758,22,0,P|179:306|131:301,1,97.4999955368044,4|0,3:2|0:0,0:0:0:0:
24,187,148123,1,8,0:0:0:0:
132,104,148306,1,0,0:0:0:0:
28,209,148489,6,0,L|37:340,1,97.4999955368044,0|0,3:0|0:0,0:0:0:0:
179,207,148855,2,0,L|170:76,1,97.4999955368044,8|0,0:0|0:0,0:0:0:0:
277,24,149221,53,0,3:0:0:0:
373,177,149404,1,0,0:3:0:0:
179,207,149587,5,8,0:0:0:0:
371,59,149770,1,0,0:0:0:0:
315,313,149953,53,0,3:0:0:0:
277,24,150136,1,0,0:0:0:0:
373,177,150318,5,8,0:0:0:0:
181,325,150501,1,0,0:0:0:0:
72,178,150684,54,0,P|67:128|77:80,1,97.4999955368044,0|0,3:0|0:0,0:0:0:0:
179,207,151050,1,8,0:0:0:0:
277,24,151233,1,0,0:0:0:0:
434,89,151416,6,0,P|443:137|439:186,1,97.4999955368044,0|0,3:0|0:0,0:0:0:0:
179,207,151782,1,8,0:0:0:0:
179,207,151965,1,0,0:0:0:0:
277,24,152148,53,0,3:0:0:0:
277,24,152331,1,0,0:0:0:0:
315,313,152514,5,8,0:0:0:0:
315,313,152697,1,0,0:0:0:0:
179,207,152879,53,0,3:0:0:0:
140,351,153062,1,0,0:0:0:0:
259,132,153245,5,8,0:0:0:0:
54,104,153428,1,0,0:0:0:0:
201,234,153611,21,4,3:2:0:0:
201,234,153977,2,0,P|246:250|293:241,1,97.4999955368044,8|0,0:0|0:0,0:0:0:0:
299,46,154343,2,0,P|251:37|206:53,1,97.4999955368044,0|0,3:0|0:0,0:0:0:0:
118,202,154708,1,8,0:0:0:0:
259,132,154891,1,0,0:0:0:0:
437,174,155075,6,0,P|444:223|437:272,1,97.4999955368044,0|0,3:0|0:0,0:0:0:0:
220,334,155440,2,0,P|213:285|220:236,1,97.4999955368044,8|0,0:0|0:0,0:0:0:0:
303,67,155806,53,0,3:0:0:0:
129,160,155989,1,0,0:0:0:0:
359,186,156172,2,0,L|461:188,1,97.4999955368044,8|0,0:0|0:0,0:0:0:0:
309,335,156538,6,0,L|206:332,1,97.4999955368044,0|0,3:0|0:0,0:0:0:0:
61,268,156904,1,8,0:0:0:0:
61,268,157087,1,0,0:0:0:0:
124,90,157270,54,0,P|171:83|217:97,1,97.4999955368044,0|0,3:0|0:0,0:0:0:0:
300,278,157636,2,0,P|264:245|247:200,1,97.4999955368044,8|0,0:0|0:0,0:0:0:0:
362,38,158002,2,0,P|351:86|322:123,1,97.4999955368044,0|0,3:0|0:0,0:0:0:0:
158,263,158368,2,0,L|50:268,1,97.4999955368044,8|0,0:0|3:0,0:0:0:0:
164,156,158733,5,0,3:0:0:0:
326,329,158916,1,8,3:2:0:0:
346,297,159007,1,0,3:0:0:0:
358,262,159099,1,8,0:0:0:0:
362,225,159190,1,8,0:0:0:0:
356,188,159282,1,8,0:0:0:0:
342,153,159373,1,8,0:0:0:0:
321,123,159465,6,0,B|194:119,1,97.4999955368044,4|0,3:2|0:0,0:0:0:0:
49,69,159831,1,8,0:0:0:0:
228,155,160014,1,0,0:0:0:0:
66,322,160197,6,0,P|52:252|68:168,1,146.249993305207,0|0,3:0|0:0,0:0:0:0:
63,178,160562,1,8,0:0:0:0:
214,251,160745,1,0,0:0:0:0:
457,197,160928,54,0,P|470:244|457:291,1,97.4999955368044,0|0,3:0|0:0,0:0:0:0:
347,274,161294,2,0,P|323:316|281:340,1,97.4999955368044,8|0,0:0|0:0,0:0:0:0:
214,251,161660,2,0,P|168:264|121:251,1,97.4999955368044,0|0,3:0|0:0,0:0:0:0:
138,140,162026,2,0,P|97:116|73:74,1,97.4999955368044,8|0,0:0|0:0,0:0:0:0:
289,72,162392,5,0,3:0:0:0:
289,72,162575,1,0,0:0:0:0:
138,140,162757,1,8,0:0:0:0:
367,170,162940,1,0,0:0:0:0:
145,277,163123,54,0,B|95:284|95:284|45:277,1,97.4999955368044,0|0,3:0|0:0,0:0:0:0:
171,64,163489,2,0,B|221:57|221:57|271:64,1,97.4999955368044,8|0,0:0|0:0,0:0:0:0:
461,182,163855,6,0,P|413:190|365:183,1,97.4999955368044,0|0,3:0|0:0,0:0:0:0:
410,45,164221,1,8,0:0:0:0:
410,45,164404,1,0,0:0:0:0:
220,154,164587,53,8,3:2:0:0:
214,187,164678,1,8,0:0:0:0:
213,220,164769,1,8,0:0:0:0:
218,254,164861,1,8,0:0:0:0:
228,286,164952,1,8,0:0:0:0:
48,277,165135,1,8,0:0:0:0:
48,277,165227,1,8,0:0:0:0:
48,277,165318,5,0,3:0:0:0:
313,91,165684,1,8,0:0:0:0:
88,361,166050,1,8,0:0:0:0:
171,19,166416,1,8,0:0:0:0:
375,304,166782,54,0,B|445:308|492:298,1,97.4999955368044,8|0,0:0|0:0,0:0:0:0:
367,159,167148,2,0,B|297:155|250:165,1,97.4999955368044,8|0,0:0|0:0,0:0:0:0:
114,245,167514,37,8,0:0:0:0:
181,83,167697,1,0,0:0:0:0:
181,83,167788,1,0,0:0:0:0:
181,83,167879,2,0,L|183:148,1,48.7499977684022,8|8,3:2|3:0,0:0:0:0:
351,245,168062,2,0,L|349:180,1,48.7499977684022,8|8,3:0|3:0,0:0:0:0:
347,108,168245,21,4,3:2:0:0:
56,305,168611,1,8,0:0:0:0:
405,336,168977,1,8,0:0:0:0:
165,79,169343,1,8,0:0:0:0:
499,184,169709,6,0,P|499:242|477:283,1,97.4999955368044,8|0,0:0|0:0,0:0:0:0:
306,254,170075,2,0,P|306:196|328:155,1,97.4999955368044,8|0,0:0|0:0,0:0:0:0:
438,28,170440,53,8,3:2:0:0:
404,51,170531,1,8,0:0:0:0:
366,66,170622,1,0,0:0:0:0:
326,72,170714,1,8,0:0:0:0:
286,68,170805,1,8,0:0:0:0:
247,55,170897,1,0,0:0:0:0:
213,34,170989,2,0,L|203:97,1,48.7499977684022,0|0,0:0|0:0,0:0:0:0:
184,216,171172,37,4,3:2:0:0:
184,216,171355,1,0,0:0:0:0:
300,335,171538,2,0,L|312:258,1,75,4|0,0:2|0:0,0:0:0:0:
349,100,171904,5,0,3:0:0:0:
349,100,172087,1,0,0:0:0:0:
300,335,172270,2,0,P|306:295|312:258,1,75,4|0,0:2|0:0,0:0:0:0:
230,133,172636,53,0,3:0:0:0:
230,133,172818,1,0,0:0:0:0:
300,335,173001,2,0,P|308:297|312:258,1,75,4|0,0:2|0:0,0:0:0:0:
110,322,173367,5,0,3:0:0:0:
110,322,173550,1,0,0:0:0:0:
300,335,173733,2,0,P|309:297|312:258,1,75,4|0,0:2|0:0,0:0:0:0:
349,100,174099,53,0,3:0:0:0:
349,100,174282,1,0,0:0:0:0:
185,59,174465,2,0,P|148:49|108:46,1,75,4|0,0:2|0:0,0:0:0:0:
179,195,174831,5,0,3:0:0:0:
179,195,175014,1,0,0:0:0:0:
185,59,175197,2,0,P|149:48|108:46,1,75,4|0,0:2|0:0,0:0:0:0:
48,237,175562,53,0,3:0:0:0:
48,237,175745,1,0,0:0:0:0:
185,59,175928,2,0,P|148:46|108:46,1,75,4|0,0:2|0:0,0:0:0:0:
112,45,176203,1,8,0:0:0:0:
112,45,176294,5,0,3:0:0:0:
166,260,176477,1,0,0:0:0:0:
276,124,176660,1,0,3:0:0:0:
353,355,176843,1,0,3:0:0:0:
421,137,177026,53,4,3:2:0:0:
421,137,177209,1,0,0:0:0:0:
269,238,177392,2,0,P|306:251|346:251,1,75,4|0,0:2|0:0,0:0:0:0:
135,322,177757,5,0,3:0:0:0:
135,322,177940,1,0,0:0:0:0:
269,238,178123,2,0,P|305:249|346:251,1,75,4|0,0:2|0:0,0:0:0:0:
219,59,178489,53,0,3:0:0:0:
219,59,178672,1,0,0:0:0:0:
269,238,178855,2,0,P|306:248|346:251,1,75,4|0,0:2|0:0,0:0:0:0:
499,149,179221,5,0,3:0:0:0:
499,149,179404,1,0,0:0:0:0:
269,238,179587,2,0,P|307:247|346:250,1,75,4|0,0:2|0:0,0:0:0:0:
276,124,179953,53,0,3:0:0:0:
276,124,180136,1,0,0:0:0:0:
128,217,180318,2,0,P|120:255|116:294,1,75,4|0,0:2|0:0,0:0:0:0:
271,332,180684,5,0,3:0:0:0:
271,332,180867,1,0,0:0:0:0:
128,217,181050,2,0,P|122:257|116:294,1,75,4|0,0:2|0:0,0:0:0:0:
72,82,181416,53,0,3:0:0:0:
72,82,181599,1,8,0:0:0:0:
128,217,181782,2,0,L|116:294,1,75,8|0,0:0|0:0,0:0:0:0:
116,291,182056,1,0,3:0:0:0:
116,291,182148,1,0,3:0:0:0:
225,141,182331,5,0,0:0:0:0:
258,124,182422,1,0,0:0:0:0:
295,115,182513,1,0,0:0:0:0:
332,115,182605,1,0,0:0:0:0:
369,124,182696,1,0,0:0:0:0:
403,140,182788,1,0,0:0:0:0:
432,164,182879,6,0,L|441:282,1,86.2500016450882,12|0,0:2|0:0,0:0:0:0:
290,258,183245,2,0,L|299:376,1,86.2500016450882,8|0,0:0|0:0,0:0:0:0:
159,133,183611,2,0,L|168:251,1,86.2500016450882,8|0,0:0|0:0,0:0:0:0:
17,227,183977,2,0,L|26:345,1,86.2500016450882,8|0,0:0|0:0,0:0:0:0:
174,330,184343,53,8,0:0:0:0:
159,133,184526,1,0,0:0:0:0:
284,283,184709,1,8,0:0:0:0:
95,236,184892,1,0,0:0:0:0:
275,162,185075,5,8,0:0:0:0:
284,283,185257,1,0,0:0:0:0:
159,133,185440,1,8,0:0:0:0:
346,78,185623,1,0,0:0:0:0:
181,232,185806,54,0,P|138:235|94:235,1,86.2500016450882,8|0,0:0|0:0,0:0:0:0:
137,34,186172,2,0,P|179:30|223:30,1,86.2500016450882,8|0,0:0|0:0,0:0:0:0:
385,93,186538,2,0,L|398:197,1,86.2500016450882,8|0,0:0|0:0,0:0:0:0:
284,283,186904,2,0,L|271:179,1,86.2500016450882,8|0,0:0|0:0,0:0:0:0:
169,79,187270,5,8,0:0:0:0:
185,223,187453,1,0,0:0:0:0:
283,102,187636,1,8,0:0:0:0:
70,148,187818,53,0,0:0:0:0:
70,148,187910,1,8,0:0:0:0:
70,148,188001,1,0,3:0:0:0:
161,328,188184,1,0,0:0:0:0:
161,328,188276,1,0,0:0:0:0:
161,328,188367,1,8,0:0:0:0:
224,160,188550,1,0,0:0:0:0:
224,160,188642,1,0,0:0:0:0:
224,160,188733,6,0,P|296:159|331:153,1,86.2500016450882,12|0,0:2|0:0,0:0:0:0:
484,57,189099,1,8,0:0:0:0:
221,357,189465,1,8,0:0:0:0:
44,0,189831,2,0,P|33:41|41:83,1,86.2500016450882,8|0,0:0|0:0,0:0:0:0:
115,170,190197,6,0,L|216:164,1,86.2500016450882,8|0,0:0|0:0,0:0:0:0:
321,83,190562,1,8,0:0:0:0:
188,338,190928,1,8,0:0:0:0:
435,185,191294,2,0,L|436:90,1,86.2500016450882,8|0,0:0|0:0,0:0:0:0:
276,236,191660,54,0,P|358:246|395:238,1,86.2500016450882,8|0,0:0|0:0,0:0:0:0:
186,72,192026,2,0,P|144:62|101:62,1,86.2500016450882,8|0,0:0|0:0,0:0:0:0:
328,132,192392,2,0,L|335:46,1,86.2500016450882,8|0,0:0|0:0,0:0:0:0:
134,176,192757,2,0,L|126:261,1,86.2500016450882,8|0,0:0|0:0,0:0:0:0:
325,287,193123,6,0,P|439:297|471:286,1,129.375002467632,8|0,0:0|0:0,0:0:0:0:
451,293,193489,1,8,0:0:0:0:
461,93,193672,1,0,0:0:0:0:
461,93,193764,1,0,0:0:0:0:
461,93,193855,1,8,0:0:0:0:
207,110,194038,1,0,0:0:0:0:
164,136,194129,1,0,0:0:0:0:
134,176,194221,1,0,0:0:0:0:
121,224,194312,1,0,0:0:0:0:
127,273,194404,1,0,0:0:0:0:
152,317,194495,1,0,0:0:0:0:
191,349,194587,6,0,L|177:366,2,15.5625002255917,2|0|0,0:0|0:0|0:0,0:0:0:0:
