osu file format v14

[General]
AudioFilename: 15. MONSTER.mp3
AudioLeadIn: 0
PreviewTime: 146111
Countdown: 0
SampleSet: Normal
StackLeniency: 0.3
Mode: 0
LetterboxInBreaks: 0
WidescreenStoryboard: 1

[Editor]
DistanceSpacing: 0.5
BeatDivisor: 4
GridSize: 4
TimelineZoom: 1.5

[Metadata]
Title:MONSTER
TitleUnicode:MONSTER
Artist:Reol
ArtistUnicode:れをる
Creator:handsome
Version:SHARKIE'S INSANE
Source:
Tags:umetora reworu gokusaishoku -kevincela- regraz sharkie bearizm vinxis asahina momoko mokori fort byfar れをる 極彩色 梅とら
BeatmapID:812721
BeatmapSetID:366440

[Difficulty]
HPDrainRate:6
CircleSize:3.9
OverallDifficulty:7
ApproachRate:8.5
SliderMultiplier:1.4
SliderTickRate:1

[Events]
//Background and Video events
0,0,"14.jpg",0,0
//Break Periods
2,78445,80497
2,141372,142601
//Storyboard Layer 0 (Background)
//Storyboard Layer 1 (Fail)
//Storyboard Layer 2 (Pass)
//Storyboard Layer 3 (Foreground)
//Storyboard Sound Samples

[TimingPoints]
685,365.853658536585,4,2,1,40,1,0
11660,-166.666666666667,4,2,1,40,0,0
12392,-100,4,1,1,70,0,0
24099,-125,4,3,1,40,0,0
34343,-100,4,1,1,70,0,0
35806,-100,4,2,1,60,0,0
46050,-111.111111111111,4,2,1,65,0,0
48245,-166.666666666667,4,2,1,65,0,0
48977,-90.9090909090909,4,1,1,75,0,1
69465,-100,4,1,1,70,0,0
81172,-100,4,2,1,50,0,0
89953,-100,4,2,1,70,0,0
91416,-142.857142857143,4,2,1,40,0,0
92880,-100,4,2,1,60,0,0
103124,-100,4,2,1,40,0,0
104221,-100,4,1,1,50,0,0
106050,-90.9090909090909,4,1,1,75,0,1
126538,-100,4,2,1,65,0,0
135319,-100,4,2,1,55,0,0
143276,-100,4,2,1,65,0,0
147758,365.853658536585,4,1,1,75,1,1
147758,-90.9090909090909,4,1,1,75,0,1
168611,-90.9090909090909,4,1,1,85,0,1
171172,-100,4,1,1,70,0,0
182879,-83.3333333333333,4,1,1,80,0,0
194587,-83.3333333333333,4,2,1,50,0,0

[Colours]
Combo1 : 255,47,52
Combo2 : 183,183,183
Combo3 : 118,192,220
Combo4 : 91,109,236
Combo5 : 210,38,253

[HitObjects]
48,66,11660,6,0,B|82:60|82:60|164:90|164:90|198:86,1,146.999995513916,0|0,0:0|0:0,0:0:0:0:
209,81,12392,6,0,P|239:66|277:55,1,70,4|0,3:2|0:0,0:0:0:0:
145,169,12758,2,0,L|73:164,1,70,8|0,0:0|0:0,0:0:0:0:
40,79,13124,1,0,3:0:0:0:
40,79,13306,1,0,0:0:0:0:
162,182,13489,2,0,P|177:212|188:250,1,70,8|0,0:0|0:0,0:0:0:0:
239,321,13855,6,0,L|245:181,1,140,0|8,3:0|0:0,0:0:0:0:
245,181,14404,1,0,0:0:0:0:
295,256,14587,2,0,B|323:280|323:280|360:292,1,70,0|0,3:0|0:0,0:0:0:0:
445,279,14953,2,0,B|475:258|475:258|496:225,1,70,8|0,0:0|0:0,0:0:0:0:
492,212,15227,1,0,0:0:0:0:
487,194,15319,54,0,L|484:116,1,70,0|0,3:0|0:0,0:0:0:0:
392,224,15684,2,0,L|395:146,2,70,8|0|0,0:0|0:0|3:0,0:0:0:0:
357,308,16233,1,0,0:0:0:0:
215,292,16416,2,0,P|179:281|149:266,1,70,8|0,0:0|0:0,0:0:0:0:
115,149,16782,6,0,P|140:121|159:93,1,70,0|0,3:0|0:0,0:0:0:0:
67,224,17148,1,8,0:0:0:0:
24,145,17331,1,0,0:0:0:0:
24,145,17422,1,0,0:0:0:0:
24,145,17514,2,0,B|73:125|73:125|91:135,1,70,8|0,0:0|0:0,0:0:0:0:
228,180,17880,1,0,3:0:0:0:
181,21,18063,1,0,3:0:0:0:
147,154,18245,54,0,L|149:227,1,70,4|0,3:2|0:0,0:0:0:0:
54,361,18611,1,8,0:0:0:0:
132,314,18794,1,0,0:0:0:0:
70,182,18977,2,0,L|68:255,1,70,0|0,3:0|0:0,0:0:0:0:
215,79,19343,2,0,B|184:96|184:96|150:102,1,70,8|0,0:0|0:0,0:0:0:0:
260,209,19709,6,0,P|267:175|282:139,1,70,0|0,3:0|0:0,0:0:0:0:
302,299,20075,2,0,P|330:321|362:336,1,70,8|0,0:0|0:0,0:0:0:0:
450,313,20441,1,0,3:0:0:0:
422,226,20624,1,0,0:0:0:0:
282,298,20806,2,0,B|257:309|257:309|169:299,1,105,8|0,0:0|0:0,0:0:0:0:
166,288,21172,54,0,P|145:253|125:228,1,70,0|0,3:0|0:0,0:0:0:0:
148,141,21538,2,0,P|167:105|179:75,1,70,8|0,0:0|0:0,0:0:0:0:
250,21,21904,1,0,3:0:0:0:
268,110,22087,1,0,0:0:0:0:
80,69,22270,1,8,0:0:0:0:
80,69,22453,1,0,0:0:0:0:
219,198,22636,6,0,L|291:206,1,70,0|0,3:0|0:0,0:0:0:0:
354,142,23002,2,0,P|359:107|351:70,1,70,8|0,0:0|0:0,0:0:0:0:
363,59,23276,1,0,0:0:0:0:
377,48,23367,2,0,P|411:50|443:64,1,70,8|0,0:0|0:0,0:0:0:0:
458,154,23733,1,8,0:0:0:0:
437,182,23825,1,0,0:0:0:0:
435,216,23916,1,0,0:0:0:0:
438,251,24008,1,0,0:0:0:0:
417,277,24099,37,4,0:1:0:0:
305,307,24465,2,0,B|290:289|290:289|278:257,1,56
343,196,24831,2,0,L|347:126,1,56
265,168,25197,2,0,L|269:98,1,56
186,146,25563,6,0,P|182:91|145:33,1,112,0|0,0:0|0:0,0:0:0:0:
154,42,26111,1,0,0:0:0:0:
87,92,26294,2,0,B|85:125|85:125|72:145,2,56,0|0|0,0:0|0:0|0:0,0:0:0:0:
31,28,26843,1,0,0:0:0:0:
31,28,27026,54,0,L|27:161,1,112,0|0,0:0|0:0,0:0:0:0:
41,223,27575,1,0,0:0:0:0:
105,169,27758,2,0,P|131:155|166:143,2,56,0|0|0,0:0|0:0|0:0,0:0:0:0:
121,251,28306,1,0,0:0:0:0:
58,306,28489,6,0,L|2:301,1,56,0|0,0:0|0:0,0:0:0:0:
128,245,28855,2,0,L|183:240,1,56,0|0,0:0|0:0,0:0:0:0:
260,274,29221,2,0,P|286:288|315:301,2,56,0|0|0,0:0|0:0|0:0,0:0:0:0:
254,189,29770,1,0,0:0:0:0:
254,189,29953,54,0,B|339:198|339:198|365:209,1,112,0|0,0:0|0:0,0:0:0:0:
364,292,30502,2,0,B|388:306|388:306|418:317,1,56
487,273,30867,1,0,0:0:0:0:
444,200,31050,2,0,P|435:167|430:140,1,56,0|0,0:0|0:0,0:0:0:0:
487,90,31416,6,0,B|432:100|432:100|383:75,1,112,0|0,0:0|0:0,0:0:0:0:
310,31,31965,1,0,0:0:0:0:
233,65,32148,2,0,L|178:59,1,56,0|0,0:0|0:0,0:0:0:0:
115,115,32514,1,0,0:0:0:0:
99,32,32697,1,0,0:0:0:0:
195,140,32880,54,0,P|215:175|233:247,1,112,0|0,0:0|0:0,0:0:0:0:
185,313,33428,1,0,0:0:0:0:
150,236,33611,2,0,L|91:230,1,56,0|0,0:0|0:0,0:0:0:0:
41,319,33977,2,0,L|97:314,1,56,0|0,0:0|0:0,0:0:0:0:
235,248,34343,22,0,B|249:226|249:226|259:173,1,70,4|0,3:2|0:0,0:0:0:0:
265,167,34617,1,0,3:0:0:0:
271,150,34709,2,0,P|268:114|275:71,1,70,8|0,0:0|0:0,0:0:0:0:
287,71,34983,1,0,3:0:0:0:
304,66,35075,1,0,3:0:0:0:
392,43,35258,1,8,0:0:0:0:
429,127,35441,1,8,0:0:0:0:
429,161,35532,1,0,0:0:0:0:
405,187,35624,1,0,3:0:0:0:
370,191,35715,1,0,3:0:0:0:
338,175,35806,54,0,B|306:196|306:196|295:297,1,140,4|8,3:2|0:0,0:0:0:0:
207,268,36355,1,0,0:0:0:0:
260,123,36538,2,0,L|265:49,1,70,0|0,3:0|3:0,0:0:0:0:
168,132,36904,2,0,P|134:120|102:102,1,70,8|0,0:0|0:0,0:0:0:0:
224,206,37270,6,0,P|223:277|189:337,1,140,0|8,3:0|0:0,0:0:0:0:
116,282,37819,1,0,0:0:0:0:
82,366,38002,2,0,P|49:353|20:334,1,70,0|0,3:0|3:0,0:0:0:0:
118,197,38367,2,0,L|121:118,1,70,8|0,0:0|0:0,0:0:0:0:
120,109,38642,1,0,0:0:0:0:
119,91,38733,54,0,P|139:62|164:38,1,70,0|0,3:0|0:0,0:0:0:0:
196,158,39099,2,0,L|201:232,1,70,8|0,0:0|0:0,0:0:0:0:
118,197,39465,1,0,3:0:0:0:
118,197,39648,1,0,0:0:0:0:
228,99,39831,2,0,L|310:94,1,70,8|0,0:0|0:0,0:0:0:0:
256,13,40197,5,0,3:0:0:0:
256,13,40380,1,0,0:0:0:0:
271,182,40563,2,0,P|255:219|236:244,1,70,8|0,0:0|0:0,0:0:0:0:
355,156,40928,2,0,P|383:176|415:189,1,70,0|0,3:0|3:0,0:0:0:0:
478,122,41294,2,0,L|483:49,1,70,8|8,0:0|0:0,0:0:0:0:
466,45,41569,1,0,0:0:0:0:
449,39,41660,54,0,B|428:27|428:27|377:25,1,70,0|0,3:0|0:0,0:0:0:0:
288,100,42026,2,0,L|214:107,1,70,8|0,0:0|0:0,0:0:0:0:
139,152,42392,1,0,3:0:0:0:
142,61,42575,1,0,3:0:0:0:
218,196,42758,2,0,B|239:240|239:240|260:255,1,70,8|0,0:0|0:0,0:0:0:0:
215,334,43124,6,0,B|194:330|194:330|148:346,1,70,0|0,3:0|0:0,0:0:0:0:
72,213,43489,1,8,0:0:0:0:
152,255,43672,1,0,0:0:0:0:
64,197,43855,2,0,L|60:125,1,70,0|0,3:0|3:0,0:0:0:0:
73,300,44221,2,0,P|46:322|14:336,1,70,8|0,0:0|0:0,0:0:0:0:
166,244,44587,54,0,B|206:247|206:247|235:253,1,70,4|0,3:2|0:0,0:0:0:0:
250,243,44861,1,8,0:0:0:0:
265,234,44953,2,0,P|276:184|278:119,1,105,8|0,0:0|0:0,0:0:0:0:
288,115,45319,1,8,0:0:0:0:
369,44,45502,1,8,0:0:0:0:
369,44,45593,1,8,0:0:0:0:
369,44,45684,1,4,3:2:0:0:
452,79,45867,1,8,0:0:0:0:
452,79,45958,1,0,0:0:0:0:
452,79,46050,6,0,P|481:67|508:52,2,62.9999980773926,4|0|0,3:2|0:0|0:0,0:0:0:0:
386,142,46599,1,0,0:0:0:0:
369,44,46782,1,0,3:0:0:0:
237,170,46965,1,0,3:0:0:0:
286,9,47148,1,0,3:0:0:0:
323,235,47331,1,0,3:0:0:0:
405,133,48245,38,0,P|366:166|317:251,1,146.999995513916,0|0,0:0|0:0,0:0:0:0:
308,231,48977,38,0,L|302:150,1,77.0000023498536,4|0,3:2|0:0,0:0:0:0:
183,281,49343,2,0,L|188:204,1,77.0000023498536,8|0,0:0|0:0,0:0:0:0:
354,323,49709,1,0,3:0:0:0:
329,214,49892,1,0,0:0:0:0:
144,277,50075,2,0,L|139:354,1,77.0000023498536,8|0,0:0|0:0,0:0:0:0:
373,310,50441,5,0,3:0:0:0:
373,310,50624,1,0,0:0:0:0:
210,205,50806,2,0,P|173:189|131:178,1,77.0000023498536,8|0,0:0|0:0,0:0:0:0:
4,110,51172,2,0,P|37:91|73:77,1,77.0000023498536,0|0,3:0|0:0,0:0:0:0:
45,240,51538,2,0,B|32:270|32:270|43:370,1,115.50000352478,8|0,0:0|0:0,0:0:0:0:
55,339,51904,54,0,B|96:309|96:309|129:302,1,77.0000023498536,0|0,3:0|0:0,0:0:0:0:
274,337,52270,2,0,L|355:348,1,77.0000023498536,8|0,0:0|0:0,0:0:0:0:
200,269,52636,1,0,3:0:0:0:
214,179,52819,1,0,0:0:0:0:
186,359,53002,1,8,0:0:0:0:
288,247,53184,1,0,0:0:0:0:
126,201,53367,6,0,P|109:165|100:122,1,77.0000023498536,0|0,3:0|0:0,0:0:0:0:
112,291,53733,2,0,P|76:308|33:317,1,77.0000023498536,8|0,0:0|0:0,0:0:0:0:
214,179,54099,2,0,L|340:174,1,115.50000352478,0|0,3:0|0:0,0:0:0:0:
348,175,54465,2,0,P|382:212|404:243,1,77.0000023498536,8|0,0:0|0:0,0:0:0:0:
174,142,54831,22,0,P|181:66|241:17,1,154.000004699707,4|8,3:2|0:0,0:0:0:0:
264,111,55380,1,0,0:0:0:0:
134,49,55563,2,0,L|56:43,1,77.0000023498536,0|0,3:0|0:0,0:0:0:0:
42,229,55928,1,8,0:0:0:0:
42,229,56111,1,0,0:0:0:0:
82,137,56294,6,0,L|161:126,1,77.0000023498536,0|0,3:0|0:0,0:0:0:0:
258,130,56660,2,0,P|265:88|263:50,1,77.0000023498536,8|0,0:0|0:0,0:0:0:0:
359,22,57026,2,0,P|385:50|416:71,2,77.0000023498536,0|0|8,3:0|0:0|0:0,0:0:0:0:
263,53,57575,1,0,0:0:0:0:
251,217,57758,54,0,P|222:222|162:224,1,77.0000023498536,0|0,3:0|0:0,0:0:0:0:
339,168,58124,2,0,P|368:163|428:161,1,77.0000023498536,8|0,0:0|0:0,0:0:0:0:
463,248,58489,2,0,B|440:271|440:271|377:274|377:274|340:298,1,115.50000352478,0|0,3:0|0:0,0:0:0:0:
344,296,58855,2,0,P|305:284|263:273,1,77.0000023498536,8|0,0:0|0:0,0:0:0:0:
425,124,59221,6,0,B|422:182|422:182|413:189|404:200,1,77.0000023498536,0|0,3:0|0:0,0:0:0:0:
279,351,59587,2,0,L|268:262,1,77.0000023498536,8|0,0:0|3:0,0:0:0:0:
263,256,59861,1,0,0:0:0:0:
254,238,59953,2,0,P|237:192|230:158,1,77.0000023498536,0|8,3:0|0:0,0:0:0:0:
175,61,60319,1,8,0:0:0:0:
191,96,60410,1,8,0:0:0:0:
194,136,60502,1,8,0:0:0:0:
182,173,60593,1,8,0:0:0:0:
154,204,60684,5,4,3:2:0:0:
65,276,60867,1,0,0:0:0:0:
19,76,61050,1,8,0:0:0:0:
51,261,61233,1,0,0:0:0:0:
94,122,61416,2,0,L|174:110,1,77.0000023498536,0|0,3:0|0:0,0:0:0:0:
299,223,61782,2,0,P|299:180|293:146,1,77.0000023498536,8|0,0:0|0:0,0:0:0:0:
217,281,62148,5,0,3:0:0:0:
146,211,62331,1,0,0:0:0:0:
294,249,62514,1,8,0:0:0:0:
184,359,62697,1,0,0:0:0:0:
140,203,62880,2,0,P|172:183|207:166,1,77.0000023498536,0|0,3:0|0:0,0:0:0:0:
289,279,63245,2,0,P|324:301|358:317,1,77.0000023498536,8|0,0:0|0:0,0:0:0:0:
461,192,63611,53,0,3:0:0:0:
451,291,63794,1,0,0:0:0:0:
346,125,63977,5,8,0:0:0:0:
356,224,64160,1,0,0:0:0:0:
426,76,64343,53,0,3:0:0:0:
426,76,64526,1,0,0:0:0:0:
275,182,64709,5,8,0:0:0:0:
185,136,64892,1,0,0:0:0:0:
125,267,65075,54,0,B|189:259|189:259|213:243|213:243|273:234,1,154.000004699707,0|8,3:0|0:0,0:0:0:0:
353,315,65624,1,0,0:0:0:0:
216,305,65806,1,8,3:2:0:0:
177,307,65898,1,8,0:0:0:0:
139,315,65989,1,8,0:0:0:0:
105,334,66081,1,8,0:0:0:0:
75,358,66172,1,8,0:0:0:0:
127,203,66355,1,8,0:0:0:0:
127,203,66447,1,8,0:0:0:0:
127,203,66538,6,0,P|139:107|137:43,1,154.000004699707,4|8,3:2|0:0,0:0:0:0:
55,122,67087,1,0,0:0:0:0:
206,237,67270,2,0,P|252:175|306:121,1,154.000004699707,8|8,0:0|0:0,0:0:0:0:
306,120,67819,1,0,0:0:0:0:
346,252,68002,54,0,B|383:239|383:239|410:254|410:254|448:246|501:256,1,154.000004699707,8|8,0:0|0:0,0:0:0:0:
451,338,68550,1,0,0:0:0:0:
393,188,68733,53,8,0:0:0:0:
390,168,68825,1,8,0:0:0:0:
387,148,68916,1,8,0:0:0:0:
384,128,69008,1,8,0:0:0:0:
384,108,69099,2,0,L|426:105,3,38.5000011749268,8|8|8|8,0:0|0:0|0:0|0:0,0:0:0:0:
467,132,69465,54,0,B|469:158|477:175|477:175|491:187|499:206|499:206|489:237|501:270,1,140,4|8,3:2|0:0,0:0:0:0:
429,345,70014,1,0,0:0:0:0:
386,183,70197,2,0,P|364:156|329:124,1,70,0|0,3:0|0:0,0:0:0:0:
224,273,70563,2,0,L|228:203,1,70,8|0,0:0|0:0,0:0:0:0:
298,317,70928,6,0,B|331:333|331:333|355:325|355:325|391:334|442:330,1,140,0|8,3:0|0:0,0:0:0:0:
476,250,71477,1,0,0:0:0:0:
339,239,71660,1,0,3:0:0:0:
371,153,71843,1,0,0:0:0:0:
427,326,72026,2,0,P|382:351|351:358,1,70,8|0,0:0|0:0,0:0:0:0:
347,350,72300,1,0,0:0:0:0:
330,345,72392,54,0,P|298:329|264:321,1,70,0|0,3:0|0:0,0:0:0:0:
345,231,72758,2,0,B|354:208|354:208|356:158,1,70,8|0,0:0|0:0,0:0:0:0:
313,81,73124,1,0,3:0:0:0:
313,81,73306,1,0,0:0:0:0:
288,211,73489,2,0,L|357:216,1,70,8|0,0:0|0:0,0:0:0:0:
496,126,73855,6,0,P|465:148|437:176,1,70,0|0,3:0|0:0,0:0:0:0:
369,311,74221,2,0,P|337:325|303:335,1,70,8|0,0:0|0:0,0:0:0:0:
289,325,74495,1,8,0:0:0:0:
273,316,74587,2,0,L|195:308,1,70,0|0,3:0|0:0,0:0:0:0:
43,269,74953,1,8,0:0:0:0:
43,269,75044,1,8,0:0:0:0:
43,269,75136,1,8,0:0:0:0:
43,269,75227,1,8,0:0:0:0:
43,269,75319,54,0,P|46:230|56:194,1,70,4|0,3:2|0:0,0:0:0:0:
156,89,75684,2,0,L|161:172,1,70,8|0,0:0|0:0,0:0:0:0:
143,249,76050,1,0,3:0:0:0:
143,249,76233,1,0,0:0:0:0:
63,112,76416,2,0,L|68:29,1,70,8|0,0:0|0:0,0:0:0:0:
173,103,76782,6,0,P|177:136|186:173,1,70,0|0,3:0|0:0,0:0:0:0:
295,237,77148,1,8,0:0:0:0:
315,148,77331,1,0,0:0:0:0:
421,190,77514,2,0,L|490:179,1,70,0|0,3:0|0:0,0:0:0:0:
405,109,77880,2,0,P|439:98|479:90,1,70,8|0,0:0|0:0,0:0:0:0:
499,187,78245,53,0,2:0:0:0:
374,345,81172,70,0,B|302:338|302:338|245:298,1,140,0|8,3:0|0:0,0:0:0:0:
246,299,81721,1,0,0:0:0:0:
306,231,81904,2,0,P|316:198|321:157,1,70,0|0,3:0|3:0,0:0:0:0:
411,147,82270,2,0,P|394:116|369:84,1,70,8|0,0:0|0:0,0:0:0:0:
356,82,82544,1,0,0:0:0:0:
339,77,82636,53,0,3:0:0:0:
320,162,82819,1,8,0:0:0:0:
440,63,83002,1,0,0:0:0:0:
440,63,83184,1,8,0:0:0:0:
497,133,83367,2,0,P|493:167|478:214,1,70,0|0,3:0|3:0,0:0:0:0:
326,164,83733,1,8,0:0:0:0:
426,264,83916,1,0,0:0:0:0:
426,264,84008,1,0,0:0:0:0:
426,264,84099,5,0,3:0:0:0:
357,322,84282,1,0,0:0:0:0:
401,241,84465,2,0,P|398:205|391:170,1,70,8|0,0:0|0:0,0:0:0:0:
265,325,84831,1,0,3:0:0:0:
311,247,85014,1,0,3:0:0:0:
245,348,85197,2,0,B|220:356|220:356|167:358,1,70,8|0,0:0|3:0,0:0:0:0:
159,352,85471,1,0,0:0:0:0:
143,344,85563,54,0,P|128:306|123:267,1,70,0|8,3:0|0:0,0:0:0:0:
140,151,85928,1,0,0:0:0:0:
140,151,86020,1,0,0:0:0:0:
140,151,86111,1,8,0:0:0:0:
37,279,86294,1,0,3:0:0:0:
24,188,86477,1,8,0:0:0:0:
163,245,86660,1,8,0:0:0:0:
190,239,86752,1,0,0:0:0:0:
217,234,86843,1,0,0:0:0:0:
244,229,86934,1,0,0:0:0:0:
269,217,87026,6,0,P|297:150|369:167,1,140,0|8,3:0|0:0,0:0:0:0:
417,217,87575,1,0,0:0:0:0:
297,110,87758,2,0,L|223:104,1,70,0|0,3:0|3:0,0:0:0:0:
365,20,88124,2,0,L|291:26,1,70,8|0,0:0|0:0,0:0:0:0:
328,189,88489,53,0,3:0:0:0:
389,121,88672,1,8,0:0:0:0:
351,270,88855,1,0,0:0:0:0:
249,159,89038,1,0,0:0:0:0:
249,159,89130,1,8,0:0:0:0:
249,159,89221,1,0,0:0:0:0:
328,189,89404,1,0,3:0:0:0:
261,241,89587,1,8,0:0:0:0:
233,241,89678,1,0,0:0:0:0:
206,230,89770,1,8,0:0:0:0:
186,210,89861,1,0,3:0:0:0:
174,184,89953,5,4,3:2:0:0:
268,130,90136,1,0,0:0:0:0:
268,130,90227,1,0,3:0:0:0:
268,130,90319,1,8,0:0:0:0:
164,90,90502,1,0,0:0:0:0:
164,90,90593,1,0,3:0:0:0:
164,90,90684,2,0,L|110:85,3,35,0|0|8|0,3:0|0:0|0:0|0:0,0:0:0:0:
94,79,91050,2,0,L|40:84,3,35,0|0|0|0,3:0|0:0|3:0|0:0,0:0:0:0:
35,90,91416,54,0,B|41:166|46:122|56:186|10:190|81:213,1,146.999995513916,0|0,3:0|2:0,0:0:0:0:
262,114,92880,6,0,L|334:120,2,70,4|0|8,3:2|0:0|0:0,0:0:0:0:
174,139,93428,1,0,0:0:0:0:
242,198,93611,2,0,P|310:176|379:181,1,140,0|8,3:0|0:0,0:0:0:0:
435,251,94160,1,0,0:0:0:0:
465,165,94343,6,0,L|470:92,1,70,0|0,3:0|0:0,0:0:0:0:
384,127,94709,2,0,L|389:54,1,70,8|0,0:0|0:0,0:0:0:0:
302,86,95075,1,0,3:0:0:0:
302,86,95258,1,0,0:0:0:0:
356,210,95441,2,0,P|347:248|328:283,1,70,8|0,0:0|0:0,0:0:0:0:
400,337,95806,54,0,P|431:321|465:314,1,70,0|0,3:0|0:0,0:0:0:0:
302,355,96172,2,0,B|278:350|278:350|252:357|252:357|251:328|236:299|204:280,1,140,8|0,0:0|3:0,0:0:0:0:
161,361,96721,1,0,0:0:0:0:
71,343,96904,1,8,0:0:0:0:
71,343,97087,1,0,0:0:0:0:
71,343,97270,6,0,L|66:270,1,70,0|0,3:0|3:0,0:0:0:0:
181,156,97636,2,0,B|185:180|185:203|185:203|203:208|207:222|207:222|202:254|202:254|213:300,1,140,8|0,0:0|3:0,0:0:0:0:
118,272,98184,1,0,3:0:0:0:
267,165,98367,1,8,0:0:0:0:
228,82,98550,1,8,0:0:0:0:
228,82,98642,1,0,0:0:0:0:
228,82,98733,54,0,P|199:62|166:48,1,70,0|0,3:0|0:0,0:0:0:0:
226,226,99099,2,0,P|258:212|286:192,1,70,8|0,0:0|0:0,0:0:0:0:
374,219,99465,2,0,P|387:251|407:279,2,70,0|0|8,3:0|0:0|0:0,0:0:0:0:
352,129,100014,1,0,0:0:0:0:
439,154,100197,6,0,L|512:164,1,70,0|0,3:0|0:0,0:0:0:0:
415,64,100563,2,0,L|345:73,1,70,8|0,0:0|0:0,0:0:0:0:
191,116,100928,2,0,B|217:113|234:125|234:125|221:159|221:159|236:186|237:220,1,140,0|8,3:0|0:0,0:0:0:0:
146,268,101477,1,0,0:0:0:0:
146,268,101569,1,0,3:0:0:0:
146,268,101660,54,0,L|143:184,1,70,0|0,3:0|0:0,0:0:0:0:
345,272,102026,2,0,L|342:341,1,70,0|0,3:0|0:0,0:0:0:0:
236,214,102392,1,0,3:0:0:0:
171,343,102575,1,0,0:0:0:0:
171,343,102666,1,0,0:0:0:0:
171,343,102758,1,0,3:0:0:0:
132,260,102941,1,0,0:0:0:0:
97,175,103124,53,2,0:0:0:0:
110,170,103489,1,2,0:0:0:0:
120,178,103855,1,2,0:0:0:0:
114,190,104221,2,0,L|33:185,1,70,0|0,0:0|2:0,0:0:0:0:
102,115,104587,6,0,L|32:110,2,70,0|0|0,0:0|0:0|0:0,0:0:0:0:
186,149,105136,1,0,0:0:0:0:
259,95,105319,2,0,P|316:65|388:39,1,140,0|0,0:0|0:0,0:0:0:0:
267,200,106050,38,0,P|239:232|219:269,1,77.0000023498536,4|0,3:2|0:0,0:0:0:0:
352,357,106416,2,0,L|355:278,1,77.0000023498536,8|0,0:0|0:0,0:0:0:0:
339,106,106782,1,0,3:0:0:0:
248,185,106965,1,0,0:0:0:0:
365,270,107148,2,0,L|368:347,1,77.0000023498536,8|0,0:0|0:0,0:0:0:0:
226,170,107514,53,0,3:0:0:0:
341,186,107697,1,0,0:0:0:0:
211,285,107880,2,0,B|172:294|172:294|127:288,1,77.0000023498536,8|0,0:0|0:0,0:0:0:0:
149,176,108245,2,0,B|171:146|171:146|183:108,1,77.0000023498536,0|0,3:1|0:0,0:0:0:0:
82,238,108611,2,0,L|85:353,1,115.50000352478,8|0,0:0|0:0,0:0:0:0:
67,345,108977,6,0,P|49:306|21:273,1,77.0000023498536,0|0,3:0|0:0,0:0:0:0:
33,131,109343,2,0,P|47:90|51:47,1,77.0000023498536,8|0,0:0|0:0,0:0:0:0:
163,252,109709,1,0,3:0:0:0:
163,252,109892,1,0,0:0:0:0:
247,52,110075,1,8,0:0:0:0:
155,34,110258,1,0,0:0:0:0:
214,187,110441,54,0,P|253:190|290:201,1,77.0000023498536,0|0,3:0|0:0,0:0:0:0:
259,49,110806,2,0,L|335:45,1,77.0000023498536,8|0,0:0|0:0,0:0:0:0:
419,26,111172,2,0,B|397:38|397:38|363:97|363:97|375:124,1,115.50000352478,0|0,3:0|0:0,0:0:0:0:
384,132,111538,2,0,P|433:157|458:178,1,77.0000023498536,8|0,0:0|0:0,0:0:0:0:
335,285,111904,38,0,B|305:288|282:274|282:274|269:297|241:313|241:313|219:296|188:299,1,154.000004699707,4|8,3:2|0:0,0:0:0:0:
111,341,112453,1,0,0:0:0:0:
187,190,112636,2,0,L|181:100,1,77.0000023498536,0|0,3:0|0:0,0:0:0:0:
176,284,113002,1,8,0:0:0:0:
176,284,113184,1,0,0:0:0:0:
89,158,113367,6,0,P|76:112|60:81,1,77.0000023498536,0|0,3:0|0:0,0:0:0:0:
160,14,113733,2,0,P|201:37|234:47,1,77.0000023498536,8|0,0:0|0:0,0:0:0:0:
263,183,114099,2,0,L|187:189,2,77.0000023498536,0|0|8,3:0|0:0|0:0,0:0:0:0:
313,102,114648,1,0,0:0:0:0:
483,226,114831,53,0,3:0:0:0:
447,130,115014,1,0,0:0:0:0:
314,250,115197,5,8,0:0:0:0:
350,154,115380,1,0,0:0:0:0:
452,246,115563,2,0,B|458:268|443:296|443:296|423:303|398:299|398:299|384:303|356:314,1,115.50000352478,0|0,3:0|0:0,0:0:0:0:
364,314,115928,2,0,P|306:287|279:281,1,77.0000023498536,8|0,0:0|0:0,0:0:0:0:
416,110,116294,54,0,L|424:28,1,77.0000023498536,0|0,3:0|0:0,0:0:0:0:
338,170,116660,1,8,0:0:0:0:
289,82,116843,1,0,3:0:0:0:
289,82,116934,1,0,0:0:0:0:
289,82,117026,1,0,3:0:0:0:
190,101,117209,1,8,0:0:0:0:
269,232,117392,1,8,0:0:0:0:
285,266,117483,1,8,0:0:0:0:
291,304,117575,1,8,0:0:0:0:
275,339,117666,1,8,0:0:0:0:
303,365,117758,38,0,L|386:355,1,77.0000023498536,0|0,3:0|0:0,0:0:0:0:
512,296,118124,2,0,L|429:286,1,77.0000023498536,8|0,0:0|0:0,0:0:0:0:
336,269,118489,1,0,3:0:0:0:
400,192,118672,1,0,0:0:0:0:
379,355,118855,1,8,0:0:0:0:
379,355,119038,1,0,0:0:0:0:
246,256,119221,54,0,P|210:250|159:247,1,77.0000023498536,0|0,3:0|0:0,0:0:0:0:
306,182,119587,2,0,L|309:97,1,77.0000023498536,8|0,0:0|0:0,0:0:0:0:
195,56,119953,2,0,L|198:141,1,77.0000023498536,0|0,3:0|0:0,0:0:0:0:
319,204,120319,2,0,P|355:210|406:213,1,77.0000023498536,8|0,0:0|0:0,0:0:0:0:
457,68,120684,5,0,3:0:0:0:
362,36,120867,1,0,0:0:0:0:
399,164,121050,53,8,0:0:0:0:
315,108,121233,1,0,0:0:0:0:
318,241,121416,5,0,3:0:0:0:
251,165,121599,1,0,0:0:0:0:
219,294,121782,2,0,P|196:328|166:350,1,77.0000023498536,8|0,0:0|0:0,0:0:0:0:
258,219,122148,54,0,L|268:372,1,154.000004699707,0|8,3:0|0:0,0:0:0:0:
364,341,122697,1,0,0:0:0:0:
461,362,122880,1,8,3:2:0:0:
486,333,122971,1,8,0:0:0:0:
499,296,123063,1,8,0:0:0:0:
499,257,123154,1,8,0:0:0:0:
488,220,123245,2,0,B|465:214|465:214|397:217,1,77.0000023498536,8|8,0:0|0:0,0:0:0:0:
393,223,123520,1,8,0:0:0:0:
375,230,123611,38,0,B|395:185|356:158|356:158|359:98|353:135|329:71,1,154.000004699707,4|8,3:2|0:0,0:0:0:0:
337,91,124160,1,0,0:0:0:0:
149,161,124343,38,0,B|147:163|147:163|127:175|102:160|102:160|95:138|112:108|112:108|110:90|83:61,1,154.000004699707,8|8,0:0|0:0,0:0:0:0:
182,45,124892,1,0,0:0:0:0:
220,218,125075,54,0,L|50:227,1,154.000004699707,8|8,0:0|0:0,0:0:0:0:
43,137,125624,1,0,0:0:0:0:
189,68,125806,53,8,0:0:0:0:
204,56,125898,1,8,0:0:0:0:
223,56,125989,1,8,0:0:0:0:
239,66,126081,1,8,0:0:0:0:
247,83,126172,2,0,L|252:136,3,38.5000011749268,8|8|8|8,0:0|0:0|0:0|0:0,0:0:0:0:
265,130,126538,6,0,P|281:73|286:23,2,105,4|0|0,3:2|3:0|3:0,0:0:0:0:
201,196,127270,1,4,0:0:0:0:
287,225,127453,1,0,0:0:0:0:
176,108,127636,54,0,B|140:85|140:85|71:73,2,105,0|0|0,3:0|3:0|3:0,0:0:0:0:
206,204,128367,2,0,L|203:284,1,70,8|8,0:0|0:0,0:0:0:0:
199,291,128642,1,0,0:0:0:0:
194,307,128733,2,0,P|138:313|90:324,2,105,0|0|0,3:0|3:0|3:0,0:0:0:0:
321,348,129465,5,8,0:0:0:0:
371,224,129648,1,8,0:0:0:0:
433,289,129831,2,0,B|472:278|468:252|468:252|496:225|480:203,2,105,0|0|0,3:0|3:0|3:0,0:0:0:0:
281,252,130563,2,0,L|238:247,3,35,4|0|0|0,3:2|3:0|3:0|3:0,0:0:0:0:
229,251,130928,54,0,P|176:288|144:325,2,105,4|0|0,3:2|3:0|3:0,0:0:0:0:
335,138,131660,2,0,B|338:87|338:87|327:64,1,70,8|0,0:0|0:0,0:0:0:0:
314,62,131934,1,0,0:0:0:0:
297,56,132026,6,0,P|351:42|397:23,2,105,0|0|0,3:0|3:0|3:0,0:0:0:0:
232,139,132758,1,0,1:0:0:0:
207,152,132849,1,0,1:0:0:0:
178,149,132941,1,0,1:0:0:0:
150,147,133032,1,0,1:0:0:0:
121,144,133124,2,0,B|70:152|70:152|52:171|52:171|19:162,2,105,0|0|0,1:0|1:0|1:0,0:0:0:0:
361,230,134221,54,0,P|317:220|251:216,1,105,8|8,0:0|0:0,0:0:0:0:
248,231,134587,1,0,1:0:0:0:
243,247,134678,1,0,1:0:0:0:
245,264,134770,1,0,1:0:0:0:
255,278,134861,1,0,1:0:0:0:
267,290,134953,2,0,L|326:301,3,35,0|0|0|0,3:0|3:0|3:0|3:0,0:0:0:0:
331,314,135319,38,0,B|357:323|357:323|406:313,1,70,6|0,3:2|0:0,0:0:0:0:
430,225,135684,2,0,B|357:230,1,70,0|0,0:0|0:0,0:0:0:0:
358,138,136050,2,0,P|388:115|413:87,1,70,0|0,0:0|0:0,0:0:0:0:
358,15,136416,2,0,P|323:22|291:36,1,70,0|0,0:0|0:0,0:0:0:0:
211,154,136782,6,0,L|139:149,1,70,0|0,0:0|0:0,0:0:0:0:
69,92,137148,2,0,B|76:51|76:51|89:25,1,70,0|0,0:0|0:0,0:0:0:0:
172,62,137514,2,0,P|170:94|158:137,1,70,0|0,0:0|0:0,0:0:0:0:
238,178,137880,2,0,P|213:199|175:221,1,70,0|0,0:0|0:0,0:0:0:0:
313,125,138245,54,0,B|334:118|334:118|381:121,2,70,2|0|0,0:0|0:0|0:0,0:0:0:0:
319,216,138794,1,0,0:0:0:0:
245,270,138977,2,0,P|211:283|175:302,1,70,0|0,0:0|0:0,0:0:0:0:
108,354,139343,1,0,0:0:0:0:
96,263,139526,1,0,0:0:0:0:
262,353,139709,6,0,B|291:347|319:356|319:356|346:328|346:328|374:332|374:332|401:353,1,140,0|0,0:0|0:0,0:0:0:0:
474,365,140258,1,0,0:0:0:0:
445,278,140441,1,0,0:0:0:0:
383,346,140624,1,0,0:0:0:0:
383,210,140806,1,0,0:0:0:0:
353,364,140989,1,0,0:0:0:0:
294,229,141172,53,2,0:0:0:0:
252,152,143276,21,0,3:0:0:0:
252,152,143367,2,0,L|210:159,3,35,0|0|8|0,3:0|3:0|0:0|0:0,0:0:0:0:
182,152,143733,2,0,L|147:146,3,35,8|0|0|0,0:0|0:0|3:0|3:0,0:0:0:0:
114,133,144099,53,4,3:2:0:0:
146,272,144282,1,0,0:0:0:0:
13,230,144465,1,0,3:0:0:0:
147,99,144648,5,0,0:0:0:0:
6,96,144831,1,0,3:0:0:0:
71,219,145014,1,0,3:0:0:0:
180,65,145197,53,0,3:0:0:0:
155,252,145380,1,0,3:0:0:0:
208,167,147758,38,0,P|173:158|125:154,1,77.0000023498536,4|0,3:2|0:0,0:0:0:0:
165,319,148123,2,0,P|133:300|97:269,1,77.0000023498536,8|0,0:0|0:0,0:0:0:0:
301,173,148489,1,0,3:0:0:0:
301,173,148672,1,0,0:0:0:0:
263,351,148855,2,0,L|186:347,1,77.0000023498536,8|0,0:0|0:0,0:0:0:0:
146,180,149221,53,0,3:0:0:0:
240,136,149404,1,0,0:3:0:0:
87,43,149587,2,0,B|36:26|36:26|10:33,1,77.0000023498536,8|0,0:0|0:0,0:0:0:0:
29,175,149953,2,0,P|40:212|64:240,1,77.0000023498536,0|0,3:0|0:0,0:0:0:0:
213,215,150318,2,0,P|252:177|312:188,1,115.50000352478,8|0,0:0|0:0,0:0:0:0:
326,179,150684,6,0,B|339:141|339:141|334:98,1,77.0000023498536,0|0,3:0|0:0,0:0:0:0:
189,120,151050,2,0,L|177:213,1,77.0000023498536,8|0,0:0|0:0,0:0:0:0:
334,104,151416,1,0,3:0:0:0:
353,272,151599,1,0,0:0:0:0:
413,138,151782,1,8,0:0:0:0:
268,154,151965,1,0,0:0:0:0:
428,226,152148,54,0,P|436:273|432:306,1,77.0000023498536,0|0,3:0|0:0,0:0:0:0:
197,201,152514,2,0,L|115:199,1,77.0000023498536,8|0,0:0|0:0,0:0:0:0:
231,276,152879,2,0,P|244:222|282:175,1,115.50000352478,0|0,3:0|0:0,0:0:0:0:
298,183,153245,2,0,B|333:200|333:200|377:203,1,77.0000023498536,8|0,0:0|0:0,0:0:0:0:
190,314,153611,38,0,B|155:324|155:324|29:313,1,154.000004699707,4|8,3:2|0:0,0:0:0:0:
12,215,154160,1,0,0:0:0:0:
164,228,154343,2,0,P|170:262|164:309,1,77.0000023498536,0|0,3:0|0:0,0:0:0:0:
49,136,154709,1,8,0:0:0:0:
138,144,154892,1,0,0:0:0:0:
98,63,155075,6,0,P|65:42|28:32,1,77.0000023498536,0|0,3:0|0:0,0:0:0:0:
140,159,155440,2,0,P|129:195|109:228,1,77.0000023498536,8|0,0:0|0:0,0:0:0:0:
192,71,155806,2,0,L|269:64,2,77.0000023498536,0|0|8,3:0|0:0|0:0,0:0:0:0:
142,178,156355,1,0,0:0:0:0:
116,31,156538,54,0,L|193:24,1,77.0000023498536,0|0,3:0|0:0,0:0:0:0:
310,217,156904,2,0,P|346:228|384:233,1,77.0000023498536,8|0,0:0|0:0,0:0:0:0:
227,148,157270,2,0,B|207:145|185:151|185:151|188:176|179:193|179:193|205:214|201:229|190:243,1,115.50000352478,0|0,3:0|0:0,0:0:0:0:
216,220,157636,2,0,P|244:245|268:276,1,77.0000023498536,8|0,0:0|0:0,0:0:0:0:
424,168,158001,6,0,L|428:91,1,77.0000023498536,0|0,3:0|0:0,0:0:0:0:
202,43,158367,2,0,P|199:81|206:127,1,77.0000023498536,8|0,0:0|3:0,0:0:0:0:
214,135,158642,1,0,0:0:0:0:
227,148,158733,2,0,L|312:144,1,77.0000023498536,0|8,3:0|3:2,0:0:0:0:
348,363,159099,1,8,0:0:0:0:
314,346,159190,1,8,0:0:0:0:
293,313,159282,1,8,0:0:0:0:
293,274,159373,1,8,0:0:0:0:
314,241,159465,5,4,3:2:0:0:
208,351,159648,1,0,0:0:0:0:
144,187,159831,1,8,0:0:0:0:
226,258,160014,1,0,0:0:0:0:
261,97,160197,2,0,P|248:60|225:30,1,77.0000023498536,0|0,3:0|0:0,0:0:0:0:
82,152,160562,2,0,L|86:238,1,77.0000023498536,8|0,0:0|0:0,0:0:0:0:
231,175,160928,5,0,3:0:0:0:
286,262,161111,1,0,0:0:0:0:
130,179,161294,1,8,0:0:0:0:
280,85,161477,1,0,0:0:0:0:
194,254,161660,2,0,P|185:298|182:338,1,77.0000023498536,0|0,3:0|0:0,0:0:0:0:
372,347,162026,2,0,B|379:288|379:288|376:269,1,77.0000023498536,8|0,0:0|0:0,0:0:0:0:
294,73,162392,53,0,3:0:0:0:
331,198,162575,1,0,0:0:0:0:
402,68,162757,5,8,0:0:0:0:
339,182,162940,1,0,0:0:0:0:
481,140,163123,53,0,3:0:0:0:
356,176,163307,1,0,0:0:0:0:
485,246,163489,5,8,0:0:0:0:
372,183,163673,1,0,0:0:0:0:
222,324,163855,54,0,P|155:310|142:232,1,154.000004699707,0|8,3:0|0:0,0:0:0:0:
141,132,164404,1,0,0:0:0:0:
272,238,164587,1,8,3:2:0:0:
267,277,164678,1,8,0:0:0:0:
277,315,164770,1,8,0:0:0:0:
261,350,164861,1,8,0:0:0:0:
232,377,164953,1,8,0:0:0:0:
370,291,165136,1,8,0:0:0:0:
370,291,165227,1,8,0:0:0:0:
370,291,165318,54,0,B|401:272|401:272|477:266|477:266|511:237,1,154.000004699707,0|8,3:0|0:0,0:0:0:0:
496,152,165867,1,0,0:0:0:0:
410,39,166050,22,0,P|335:49|256:84,1,154.000004699707,8|8,0:0|0:0,0:0:0:0:
223,163,166599,1,0,0:0:0:0:
293,330,166782,54,0,L|301:235,1,77.0000023498536,8|0,0:0|0:0,0:0:0:0:
215,150,167148,2,0,B|164:103|164:103|81:91,1,154.000004699707,8|8,0:0|0:0,0:0:0:0:
123,189,167697,1,0,0:0:0:0:
241,69,167880,53,8,3:2:0:0:
273,89,167971,1,8,3:0:0:0:
293,122,168063,1,0,0:0:0:0:
299,159,168154,1,8,3:0:0:0:
288,195,168245,22,0,B|299:223|282:246|282:246|311:260|311:260|351:268|351:268|367:281|371:312,1,154.000004699707,4|8,3:2|0:0,0:0:0:0:
283,345,168794,1,0,0:0:0:0:
379,129,168977,2,0,B|377:106|391:79|391:79|375:66|379:42|379:42|401:32|401:32|429:33|449:43,1,154.000004699707,8|8,0:0|0:0,0:0:0:0:
469,161,169526,1,0,0:0:0:0:
220,147,169709,54,0,P|162:206|122:273,1,154.000004699707,8|8,0:0|0:0,0:0:0:0:
79,344,170257,1,0,0:0:0:0:
246,267,170440,53,8,3:2:0:0:
260,254,170532,1,8,0:0:0:0:
278,248,170623,1,8,0:0:0:0:
297,248,170715,1,8,0:0:0:0:
314,255,170806,1,8,0:0:0:0:
324,292,170898,1,0,0:0:0:0:
344,324,170989,1,0,0:0:0:0:
375,345,171081,1,0,0:0:0:0:
408,353,171172,54,0,L|477:348,1,70,4|0,3:2|0:0,0:0:0:0:
485,254,171538,2,0,P|451:251|416:250,1,70,4|0,0:2|0:0,0:0:0:0:
445,163,171904,2,0,P|417:184|392:208,1,70,0|0,3:0|0:0,0:0:0:0:
351,126,172270,2,0,P|347:160|346:195,1,70,4|0,0:2|0:0,0:0:0:0:
312,305,172636,6,0,B|274:315|274:315|168:306,1,140,0|4,3:0|0:2,0:0:0:0:
173,306,173184,1,0,0:0:0:0:
244,194,173367,2,0,B|265:164|265:164|275:125,1,70,0|0,3:0|0:0,0:0:0:0:
344,21,173733,1,4,0:2:0:0:
367,109,173916,1,0,0:0:0:0:
206,56,174099,54,0,L|83:49,1,105,0|0,3:0|0:0,0:0:0:0:
85,57,174465,2,0,P|61:83|44:118,1,70,4|0,0:2|0:0,0:0:0:0:
58,201,174831,2,0,P|83:225|115:241,1,70,0|0,3:0|0:0,0:0:0:0:
242,170,175197,2,0,P|225:202|202:228,1,70,4|0,0:2|0:0,0:0:0:0:
173,351,175562,5,0,3:0:0:0:
173,351,175745,1,0,0:0:0:0:
148,173,175928,2,0,L|139:99,1,70,4|0,0:2|0:0,0:0:0:0:
131,95,176203,1,8,0:0:0:0:
123,88,176294,1,0,3:0:0:0:
44,115,176477,1,0,0:0:0:0:
132,262,176660,1,0,3:0:0:0:
47,243,176843,1,0,3:0:0:0:
219,233,177026,54,0,P|291:223|359:204,1,140,4|4,3:2|0:2,0:0:0:0:
265,139,177575,1,0,0:0:0:0:
305,314,177757,2,0,B|296:336|284:350|256:359,1,70,0|0,3:0|0:0,0:0:0:0:
384,285,178123,2,0,B|386:302|386:302|377:354,1,70,4|0,0:2|0:0,0:0:0:0:
293,199,178489,6,0,B|261:191|261:191|216:201|216:201|143:198,1,140,0|4,3:0|0:2,0:0:0:0:
63,207,179038,1,0,0:0:0:0:
104,125,179221,2,0,P|165:158|233:128,1,140,0|4,3:0|0:2,0:0:0:0:
302,82,179770,1,0,0:0:0:0:
302,82,179953,54,0,L|380:74,1,70,0|0,3:0|0:0,0:0:0:0:
442,132,180318,2,0,P|415:157|394:187,1,70,4|0,0:2|0:0,0:0:0:0:
317,230,180684,2,0,P|280:228|244:234,1,70,0|0,3:0|0:0,0:0:0:0:
169,282,181050,2,0,L|163:212,1,70,4|0,0:2|0:0,0:0:0:0:
164,48,181416,5,0,3:0:0:0:
85,180,181599,1,8,0:0:0:0:
191,65,181782,1,8,0:0:0:0:
251,157,181965,1,0,0:0:0:0:
251,157,182056,1,0,3:0:0:0:
251,157,182148,1,0,3:0:0:0:
181,213,182331,1,0,0:0:0:0:
163,212,182422,1,0,0:0:0:0:
145,209,182514,5,0,0:0:0:0:
114,192,182605,1,0,0:0:0:0:
97,161,182697,1,0,0:0:0:0:
68,140,182788,1,0,0:0:0:0:
27,127,182879,54,0,P|38:86|76:70,1,83.9999974365235,12|0,0:2|0:0,0:0:0:0:
66,279,183245,2,0,P|89:322|116:347,1,83.9999974365235,8|0,0:0|0:0,0:0:0:0:
172,134,183611,2,0,P|202:103|242:109,1,83.9999974365235,8|0,0:0|0:0,0:0:0:0:
221,291,183977,2,0,P|255:314|296:324,1,83.9999974365235,8|0,0:0|0:0,0:0:0:0:
303,72,184343,6,0,L|292:155,1,83.9999974365235,8|0,0:0|0:0,0:0:0:0:
350,373,184709,2,0,L|360:289,1,83.9999974365235,8|0,0:0|0:0,0:0:0:0:
256,140,185075,2,0,P|226:113|184:96,1,83.9999974365235,8|0,0:0|0:0,0:0:0:0:
26,199,185440,2,0,P|41:160|69:129,1,83.9999974365235,8|0,0:0|0:0,0:0:0:0:
226,222,185806,54,0,B|255:226|255:226|353:192|353:192|399:197,1,167.999994873047,8|8,0:0|0:0,0:0:0:0:
387,195,186355,1,0,0:0:0:0:
185,145,186538,2,0,P|145:158|106:191,1,83.9999974365235,8|0,0:0|0:0,0:0:0:0:
308,122,186904,2,0,P|348:109|387:76,1,83.9999974365235,8|0,0:0|0:0,0:0:0:0:
226,57,187270,6,0,B|181:42|145:45|145:45|126:74|126:74|131:109|131:109|104:125,1,167.999994873047,8|8,0:0|0:0,0:0:0:0:
16,157,187818,1,0,0:0:0:0:
16,157,187910,1,8,0:0:0:0:
16,157,188001,2,0,B|55:169|71:164|71:164|88:170|88:170|112:165|143:168,1,125.999996154785,0|0,3:0|0:0,0:0:0:0:
216,191,188367,1,8,0:0:0:0:
203,231,188459,1,0,0:0:0:0:
168,254,188550,1,0,0:0:0:0:
126,247,188642,1,0,0:0:0:0:
85,258,188733,6,0,B|91:180|91:180|84:153|84:153|90:88,1,167.999994873047,12|8,0:2|0:0,0:0:0:0:
89,91,189282,1,0,0:0:0:0:
223,23,189465,2,0,P|254:58|276:93,1,83.9999974365235,8|0,0:0|0:0,0:0:0:0:
398,157,189831,2,0,B|437:134|437:134|469:102,1,83.9999974365235,8|0,0:0|0:0,0:0:0:0:
292,188,190197,54,0,L|205:177,1,83.9999974365235,8|0,0:0|0:0,0:0:0:0:
374,262,190562,2,0,P|391:309|392:354,1,83.9999974365235,8|0,0:0|0:0,0:0:0:0:
281,106,190928,2,0,L|194:95,1,83.9999974365235,8|0,0:0|0:0,0:0:0:0:
411,188,191294,2,0,P|456:209|488:240,1,83.9999974365235,8|0,0:0|0:0,0:0:0:0:
310,318,191660,6,0,B|269:304|269:304|213:299,1,83.9999974365235,8|0,0:0|0:0,0:0:0:0:
72,149,192026,2,0,L|60:232,1,83.9999974365235,8|0,0:0|0:0,0:0:0:0:
195,80,192392,2,0,L|206:163,1,83.9999974365235,8|0,0:0|0:0,0:0:0:0:
182,313,192757,2,0,P|143:338|104:352,1,83.9999974365235,8|0,0:0|0:0,0:0:0:0:
61,233,193123,54,0,L|239:221,2,167.999994873047,8|8|8,0:0|0:0|0:0,0:0:0:0:
142,306,194038,1,0,0:0:0:0:
162,310,194129,1,0,0:0:0:0:
182,313,194221,1,0,0:0:0:0:
217,290,194312,1,0,0:0:0:0:
232,250,194404,1,0,0:0:0:0:
263,222,194495,1,0,0:0:0:0:
305,222,194587,21,2,0:0:0:0:
