osu file format v14

[General]
AudioFilename: 15. MONSTER.mp3
AudioLeadIn: 0
PreviewTime: 146111
Countdown: 0
SampleSet: Soft
StackLeniency: 0.3
Mode: 0
LetterboxInBreaks: 0
WidescreenStoryboard: 1

[Editor]
DistanceSpacing: 1
BeatDivisor: 8
GridSize: 4
TimelineZoom: 3.499999

[Metadata]
Title:MONSTER
TitleUnicode:MONSTER
Artist:Reol
ArtistUnicode:れをる
Creator:handsome
Version:FORT'S EXTRA
Source:
Tags:umetora reworu gokusaishoku -kevincela- regraz sharkie bearizm vinxis asahina momoko mokori fort byfar れをる 極彩色 梅とら
BeatmapID:827984
BeatmapSetID:366440

[Difficulty]
HPDrainRate:7
CircleSize:4
OverallDifficulty:8.5
ApproachRate:9
SliderMultiplier:1.5
SliderTickRate:1

[Events]
//Background and Video events
0,0,"14.jpg",0,0
//Break Periods
2,78445,80572
2,145580,147158
//Storyboard Layer 0 (Background)
//Storyboard Layer 1 (Fail)
//Storyboard Layer 2 (Pass)
//Storyboard Layer 3 (Foreground)
//Storyboard Sound Samples

[TimingPoints]
685,365.853658536585,4,2,1,40,1,0
685,-166.666666666667,4,2,1,40,0,0
12392,-83.3333333333333,4,1,1,70,0,0
24099,-100,4,2,1,40,0,0
34343,-83.3333333333333,4,1,1,70,0,0
35806,-100,4,2,1,60,0,0
46050,-125,4,2,1,65,0,0
48977,-83.3333333333333,4,1,1,75,0,1
69465,-83.3333333333333,4,1,1,70,0,0
81172,-100,4,2,1,50,0,0
89953,-83.3333333333333,4,2,1,70,0,0
91416,-166.666666666667,4,2,1,40,0,0
92880,-100,4,2,1,60,0,0
103124,-100,4,2,1,40,0,0
104221,-100,4,1,1,50,0,0
106050,-83.3333333333333,4,1,1,75,0,1
126538,-50,4,2,1,65,0,0
135319,-100,4,2,1,55,0,0
143276,-100,4,2,1,65,0,0
147758,365.853658536585,4,1,1,75,1,1
147758,-83.3333333333333,4,1,1,75,0,1
168611,-83.3333333333333,4,1,1,85,0,1
171172,-100,4,1,1,70,0,0
182879,-83.3333333333333,4,1,1,80,0,0
188733,-71.4285714285714,4,1,1,85,0,0
194587,-83.3333333333333,4,2,1,50,0,0

[Colours]
Combo1 : 255,47,52
Combo2 : 183,183,183
Combo3 : 118,192,220
Combo4 : 91,109,236
Combo5 : 210,38,253

[HitObjects]
140,320,685,6,0,P|152:284|132:224,1,89.9999972534181,2|0,0:0|0:0,0:0:0:0:
120,204,1233,2,0,L|128:144,2,44.999998626709,2|0|0,0:0|0:0|0:0,0:0:0:0:
68,272,1782,1,2,0:0:0:0:
216,156,1965,1,2,0:0:0:0:
216,156,2148,6,0,L|208:96,2,44.999998626709,0|2|0,0:0|0:0|0:0,0:0:0:0:
272,248,2697,2,0,L|264:304,2,44.999998626709,0|2|0,0:0|0:0|0:0,0:0:0:0:
332,164,3245,2,0,L|380:148,1,44.999998626709,2|0,0:0|0:0,0:0:0:0:
184,240,3611,6,0,P|156:256|88:244,1,89.9999972534181,2|0,0:0|0:0,0:0:0:0:
68,268,4160,2,0,L|64:220,2,44.999998626709,2|0|0,0:0|0:0|0:0,0:0:0:0:
132,160,4709,2,0,L|124:104,1,44.999998626709,0|2,0:0|0:1,0:0:0:0:
96,28,5075,5,0,0:0:0:0:
216,88,5258,2,0,L|268:92,1,44.999998626709,0|0,0:0|0:0,0:0:0:0:
44,164,5624,2,0,L|36:112,2,44.999998626709,0|0|0,0:0|0:0|0:0,0:0:0:0:
120,216,6172,2,0,L|120:264,1,44.999998626709,0|0,0:0|0:0,0:0:0:0:
212,160,6538,6,0,P|232:176|304:172,1,89.9999972534181,2|0,0:0|0:0,0:0:0:0:
328,160,7087,2,0,L|384:164,1,44.999998626709,2|0,0:0|0:0,0:0:0:0:
352,240,7453,1,0,0:0:0:0:
356,84,7636,1,2,0:0:0:0:
436,224,7819,2,0,P|436:256|432:280,1,44.999998626709,2|0,0:0|0:0,0:0:0:0:
336,348,8184,2,0,P|356:336|388:336,2,44.999998626709,2|0|0,0:0|0:0|0:0,0:0:0:0:
240,344,8733,2,0,P|216:360|144:352,1,89.9999972534181,2|2,0:0|0:0,0:0:0:0:
132,332,9282,1,0,0:0:0:0:
120,296,9465,6,0,P|136:268|196:248,1,89.9999972534181,2|0,0:0|0:0,0:0:0:0:
224,244,10014,2,0,L|272:252,1,44.999998626709,2|0,0:0|0:0,0:0:0:0:
184,164,10380,2,0,L|176:108,1,44.999998626709,0|0,0:0|0:0,0:0:0:0:
216,336,10745,1,2,0:1:0:0:
288,124,10928,5,0,0:0:0:0:
288,124,11111,1,0,0:0:0:0:
108,236,11294,2,0,L|56:224,1,44.999998626709,8|0,1:0|0:0,0:0:0:0:
61,222,11569,1,8,0:1:0:0:
57,217,11660,2,0,B|97:212|97:212|169:216|169:216|213:204,1,157.499995193482
252,196,12392,5,4,3:2:0:0:
216,316,12575,1,0,0:0:0:0:
160,144,12758,1,8,0:0:0:0:
296,184,12941,5,0,0:0:0:0:
128,240,13124,1,0,3:0:0:0:
332,172,13306,1,0,0:0:0:0:
344,304,13489,5,8,0:0:0:0:
268,92,13672,1,0,0:0:0:0:
408,236,13855,1,0,3:0:0:0:
252,236,14038,5,0,0:0:0:0:
396,116,14221,1,8,0:0:0:0:
232,256,14404,1,0,0:0:0:0:
424,144,14587,2,0,B|428:96|428:96|420:64|420:64|424:8,1,134.999995880127,0|0,3:0|2:0,0:0:0:0:
444,28,14953,2,0,B|400:48|348:32|348:32|296:36,1,134.999995880127,8|0,0:0|2:0,0:0:0:0:
300,52,15319,5,0,3:0:0:0:
220,124,15502,1,0,0:0:0:0:
112,108,15684,1,8,0:0:0:0:
164,204,15867,5,0,0:0:0:0:
188,36,16050,1,0,3:0:0:0:
156,228,16233,1,0,0:0:0:0:
260,136,16416,5,8,0:0:0:0:
80,96,16599,1,0,0:0:0:0:
264,176,16782,5,0,3:0:0:0:
256,284,16965,1,0,0:0:0:0:
336,124,17148,5,8,0:0:0:0:
333,237,17331,1,0,0:0:0:0:
333,237,17422,1,0,0:0:0:0:
333,237,17514,1,8,0:0:0:0:
240,172,17697,1,0,0:0:0:0:
316,96,17880,1,0,3:0:0:0:
404,160,18063,1,0,3:0:0:0:
408,268,18245,6,0,L|392:368,2,89.9999972534181,4|0|8,3:2|0:0|0:0,0:0:0:0:
256,280,18794,2,0,L|272:376,2,89.9999972534181,0|0|0,0:0|3:0|0:0,0:0:0:0:
288,176,19343,2,0,P|336:184|380:176,1,89.9999972534181,8|0,0:0|0:0,0:0:0:0:
172,136,19709,2,0,P|124:128|80:136,2,89.9999972534181,0|0|8,3:0|0:0|0:0,0:0:0:0:
256,68,20258,1,0,0:0:0:0:
128,208,20441,2,0,L|152:304,1,89.9999972534181,0|0,3:0|0:0,0:0:0:0:
336,256,20806,2,0,L|320:360,1,89.9999972534181,8|0,0:0|0:0,0:0:0:0:
244,272,21172,5,0,3:0:0:0:
268,168,21355,1,0,0:0:0:0:
372,136,21538,1,8,0:0:0:0:
192,144,21721,5,0,0:0:0:0:
380,240,21904,1,0,3:0:0:0:
164,128,22087,1,0,0:0:0:0:
344,156,22270,5,8,0:0:0:0:
304,256,22453,1,0,0:0:0:0:
388,324,22636,1,0,3:0:0:0:
472,256,22819,1,0,0:0:0:0:
452,148,23002,2,0,L|432:56,1,89.9999972534181,8|0,0:0|0:0,0:0:0:0:
432,60,23276,1,0,0:0:0:0:
432,60,23367,1,8,0:0:0:0:
336,172,23550,1,0,0:0:0:0:
336,172,23642,1,0,0:0:0:0:
336,172,23733,2,0,L|352:232,3,44.999998626709,8|0|0|0,0:0|0:0|0:0|0:0,0:0:0:0:
320,296,24099,6,0,L|168:276,1,150,6|0,0:0|0:0,0:0:0:0:
132,196,24648,1,2,0:0:0:0:
132,196,24831,1,0,0:0:0:0:
172,276,25014,2,0,L|164:364,1,75,2|0,0:0|0:0,0:0:0:0:
132,196,25380,1,2,0:0:0:0:
132,196,25563,6,0,P|88:200|32:112,1,150,0|0,0:0|0:0,0:0:0:0:
24,32,26111,2,0,P|40:92|32:124,2,75,0|0|2,0:0|0:0|0:0,0:0:0:0:
152,96,26660,2,0,P|140:136|112:172,1,75,0|2,0:0|0:0,0:0:0:0:
72,324,27026,6,0,P|112:264|208:268,1,150,0|0,0:0|0:0,0:0:0:0:
252,316,27575,1,2,0:0:0:0:
252,316,27758,1,0,0:0:0:0:
216,164,27941,2,0,P|204:120|200:80,1,75,2|0,0:0|0:0,0:0:0:0:
300,228,28306,1,2,0:0:0:0:
300,228,28489,6,0,B|340:216|376:232|376:232|420:240|448:224,1,150,0|0,0:0|0:0,0:0:0:0:
492,144,29038,2,0,P|480:180|448:212,2,75,2|0|2,0:0|0:0|0:0,0:0:0:0:
372,40,29587,2,0,P|388:96|388:128,1,75,0|2,0:0|0:0,0:0:0:0:
328,352,29953,6,0,B|336:324|384:312|384:312|340:268|332:224,1,150,0|0,0:0|0:0,0:0:0:0:
304,164,30502,1,2,0:0:0:0:
256,288,30684,1,0,0:0:0:0:
304,164,30867,2,0,P|288:136|248:112,1,75,2|0,0:0|0:0,0:0:0:0:
256,288,31233,1,2,0:0:0:0:
256,288,31416,6,0,L|440:272,1,150,0|0,0:0|0:0,0:0:0:0:
488,316,31965,2,0,P|440:300|408:276,2,75,2|0|2,0:0|0:0|0:0,0:0:0:0:
260,300,32514,2,0,P|252:244|256:200,1,75,0|2,0:0|0:0,0:0:0:0:
284,140,32880,5,6,0:0:0:0:
284,328,33063,1,0,0:0:0:0:
148,176,33245,2,0,B|140:140|140:140|148:40,1,112.5,2|0,0:0|0:0,0:0:0:0:
156,52,33611,1,2,0:0:0:0:
160,192,33794,2,0,L|76:200,2,75,2|0|2,0:0|0:0|0:0,0:0:0:0:
416,184,34343,6,0,P|448:216|448:336,1,134.999995880127,4|0,3:2|3:0,0:0:0:0:
448,328,34709,2,0,P|440:272|456:232,1,89.9999972534181,8|0,0:0|0:0,0:0:0:0:
476,228,34983,1,0,3:0:0:0:
496,200,35075,2,0,P|496:168|476:140,1,44.999998626709,0|0,3:0|0:0,0:0:0:0:
408,48,35258,2,0,P|412:68|424:104,1,44.999998626709,8|0,0:0|0:0,0:0:0:0:
384,180,35441,2,0,L|216:168,1,134.999995880127,8|0,0:0|3:0,0:0:0:0:
240,188,35806,6,0,P|272:136|256:40,1,150,4|8,3:2|0:0,0:0:0:0:
176,20,36355,1,0,0:0:0:0:
292,264,36538,1,0,3:0:0:0:
188,108,36721,1,0,3:0:0:0:
308,288,36904,2,0,B|300:368|300:368|292:336,1,112.5,8|0,0:0|0:0,0:0:0:0:
384,336,37270,5,0,3:0:0:0:
224,288,37453,1,0,0:0:0:0:
408,348,37636,1,8,0:0:0:0:
272,176,37819,1,0,0:0:0:0:
208,316,38002,5,0,3:0:0:0:
184,228,38184,1,0,3:0:0:0:
160,140,38367,1,8,0:0:0:0:
312,188,38550,1,0,3:0:0:0:
312,188,38642,1,0,3:0:0:0:
312,188,38733,6,0,L|304:288,1,75,0|0,3:0|0:0,0:0:0:0:
376,160,39099,2,0,P|336:160|264:72,1,150,8|0,0:0|3:0,0:0:0:0:
356,72,39648,1,0,0:0:0:0:
400,264,39831,1,8,0:0:0:0:
228,192,40014,1,0,0:0:0:0:
480,160,40197,5,0,3:0:0:0:
420,228,40380,1,0,0:0:0:0:
384,144,40563,1,8,0:0:0:0:
496,276,40745,2,0,L|484:368,1,75,0|0,0:0|3:0,0:0:0:0:
360,112,41111,2,0,L|372:20,1,75,0|8,3:0|0:0,0:0:0:0:
408,228,41477,1,8,0:0:0:0:
408,228,41569,1,0,0:0:0:0:
408,228,41660,6,0,P|352:252|256:248,1,150,0|8,3:0|0:0,0:0:0:0:
184,212,42209,2,0,P|152:196|100:192,1,75,0|0,0:0|3:0,0:0:0:0:
56,260,42575,1,0,3:0:0:0:
104,336,42758,2,0,P|141:331|174:314,1,75,8|0,0:0|0:0,0:0:0:0:
260,104,43124,5,0,3:0:0:0:
316,172,43306,1,0,0:0:0:0:
152,144,43489,1,8,0:0:0:0:
400,88,43672,1,0,0:0:0:0:
144,172,43855,2,0,L|124:72,1,75,0|0,3:0|3:0,0:0:0:0:
208,256,44221,1,8,0:0:0:0:
240,172,44404,1,0,0:0:0:0:
200,284,44587,5,4,3:2:0:0:
240,84,44770,1,0,0:0:0:0:
384,240,44953,1,8,3:0:0:0:
384,240,45044,1,8,3:0:0:0:
384,240,45136,1,0,3:0:0:0:
384,240,45227,1,0,3:0:0:0:
384,240,45319,1,8,3:0:0:0:
336,316,45502,1,8,0:0:0:0:
296,336,45593,1,8,0:0:0:0:
252,332,45684,1,4,3:2:0:0:
176,280,45867,1,8,0:0:0:0:
176,280,45959,1,0,0:0:0:0:
176,280,46050,6,0,L|168:192,1,60,4|0,3:2|0:0,0:0:0:0:
136,116,46416,2,0,P|124:96|120:84,1,30,0|0,0:0|0:0,0:0:0:0:
136,116,46599,2,0,L|216:108,1,60,0|0,0:0|3:0,0:0:0:0:
384,128,46965,1,0,3:0:0:0:
284,264,47148,1,0,3:0:0:0:
288,40,47331,1,0,3:0:0:0:
256,192,47422,12,0,48611,0:0:0:0:
356,236,48977,5,4,3:2:0:0:
260,188,49160,1,0,0:0:0:0:
352,136,49343,1,8,0:0:0:0:
168,240,49526,5,0,0:0:0:0:
264,288,49709,1,0,3:0:0:0:
172,340,49892,1,0,0:0:0:0:
392,224,50075,5,8,0:0:0:0:
132,248,50258,1,0,0:0:0:0:
244,120,50441,5,0,3:0:0:0:
288,336,50624,1,0,0:0:0:0:
240,88,50806,1,8,0:0:0:0:
296,364,50989,1,0,0:0:0:0:
144,264,51172,2,0,L|156:168,1,89.9999972534181,0|0,3:0|0:0,0:0:0:0:
368,120,51538,2,0,L|356:216,1,89.9999972534181,8|0,0:0|0:0,0:0:0:0:
276,280,51904,5,0,3:0:0:0:
464,188,52087,1,0,0:0:0:0:
268,140,52270,5,8,0:0:0:0:
388,316,52453,1,0,0:0:0:0:
452,92,52636,1,0,3:0:0:0:
240,120,52819,5,0,0:0:0:0:
388,344,53002,1,8,0:0:0:0:
176,184,53184,1,0,0:0:0:0:
472,296,53367,5,0,3:0:0:0:
248,332,53550,1,0,0:0:0:0:
500,288,53733,1,8,0:0:0:0:
164,272,53916,1,0,0:0:0:0:
368,360,54099,5,0,3:0:0:0:
320,56,54465,1,8,0:0:0:0:
336,72,54831,6,0,P|312:120|192:120,1,179.999994506836,4|8,3:2|0:0,0:0:0:0:
96,88,55380,1,0,0:0:0:0:
120,192,55563,2,0,P|184:168|204:128,1,89.9999972534181,0|0,3:0|0:0,0:0:0:0:
104,296,55928,1,8,0:0:0:0:
20,228,56111,6,0,B|16:188|16:188|20:120,1,89.9999972534181,0|0,0:0|3:0,0:0:0:0:
104,296,56477,2,0,P|164:296|216:328,1,89.9999972534181,0|8,0:0|0:0,0:0:0:0:
208,152,56843,2,0,P|248:192|272:228,1,89.9999972534181,0|0,0:0|3:0,0:0:0:0:
292,324,57209,1,0,0:0:0:0:
112,192,57392,1,8,0:0:0:0:
292,324,57575,6,0,B|349:319|349:319|380:304|380:304|488:296,1,179.999994506836,0|0,0:0|0:0,0:0:0:0:
408,208,58124,2,0,P|396:160|400:116,1,89.9999972534181,8|0,0:0|0:0,0:0:0:0:
464,32,58489,5,0,3:0:0:0:
304,148,58672,1,0,0:0:0:0:
488,156,58855,1,8,0:0:0:0:
320,32,59038,1,0,0:0:0:0:
400,216,59221,6,0,P|420:264|380:384,1,179.999994506836,0|8,3:0|0:0,0:0:0:0:
276,364,59770,1,0,3:0:0:0:
276,364,59861,1,0,3:0:0:0:
276,364,59953,2,0,P|276:320|288:276,1,89.9999972534181,0|8,3:0|0:0,0:0:0:0:
288,232,60227,1,0,3:0:0:0:
272,188,60319,2,0,B|256:136|256:136|224:80,1,89.9999972534181,8|8,0:0|0:0,0:0:0:0:
136,72,60684,5,4,3:2:0:0:
376,140,60867,1,0,0:0:0:0:
168,188,61050,5,8,0:0:0:0:
328,40,61233,1,0,0:0:0:0:
400,292,61416,1,0,3:0:0:0:
416,272,61782,5,8,0:0:0:0:
248,312,61965,1,0,0:0:0:0:
440,248,62148,5,0,3:0:0:0:
340,360,62331,1,0,0:0:0:0:
296,192,62514,1,8,0:0:0:0:
452,348,62697,1,0,0:0:0:0:
220,248,62880,2,0,P|204:200|304:96,1,179.999994506836,0|8,3:0|0:0,0:0:0:0:
376,120,63428,1,0,0:0:0:0:
468,64,63611,5,0,3:0:0:0:
424,216,63794,1,0,0:0:0:0:
344,32,63977,5,8,0:0:0:0:
416,252,64160,1,0,0:0:0:0:
504,36,64343,1,0,3:0:0:0:
320,276,64526,5,0,0:0:0:0:
428,128,64709,1,8,0:0:0:0:
496,304,64892,1,0,0:0:0:0:
328,160,65075,5,0,3:0:0:0:
508,192,65258,1,0,0:0:0:0:
300,176,65441,5,8,0:0:0:0:
472,96,65624,1,0,0:0:0:0:
284,204,65806,5,8,3:2:0:0:
260,216,65898,1,8,0:0:0:0:
232,216,65989,1,8,0:0:0:0:
208,204,66081,1,8,0:0:0:0:
188,184,66172,2,0,P|176:172|148:160,1,44.999998626709,8|0,0:0|0:0,0:0:0:0:
76,240,66355,1,8,0:0:0:0:
92,260,66447,1,8,0:0:0:0:
116,272,66538,6,0,P|156:276|200:312,1,89.9999972534181,4|0,3:2|0:0,0:0:0:0:
28,328,66904,1,8,0:0:0:0:
296,280,67087,1,0,0:0:0:0:
132,348,67270,1,8,0:0:0:0:
168,96,67453,1,0,0:0:0:0:
328,308,67636,1,8,0:0:0:0:
56,188,67819,1,0,0:0:0:0:
320,152,68002,6,0,L|424:128,1,89.9999972534181,8|0,0:0|0:0,0:0:0:0:
296,324,68367,2,0,L|192:304,1,89.9999972534181,8|0,0:0|0:0,0:0:0:0:
216,132,68733,2,0,L|224:188,3,44.999998626709,8|8|8|8,0:0|0:0|0:0|0:0,0:0:0:0:
188,220,69099,1,8,0:0:0:0:
180,168,69191,1,8,0:0:0:0:
172,116,69282,1,8,0:0:0:0:
164,64,69374,1,8,0:0:0:0:
124,28,69465,5,4,3:2:0:0:
304,108,69648,1,0,0:0:0:0:
96,152,69831,1,8,0:0:0:0:
252,24,70014,5,0,0:0:0:0:
212,124,70197,1,0,3:0:0:0:
292,196,70380,1,0,0:0:0:0:
152,336,70563,5,8,0:0:0:0:
192,236,70746,1,0,0:0:0:0:
112,164,70929,1,0,3:0:0:0:
264,312,71111,5,0,0:0:0:0:
84,248,71294,1,8,0:0:0:0:
272,168,71477,1,0,0:0:0:0:
248,344,71660,6,0,B|236:300|236:300|240:240,1,89.9999972534181,0|0,3:0|0:0,0:0:0:0:
376,88,72026,2,0,P|320:132|244:120,1,134.999995880127,8|0,0:0|0:0,0:0:0:0:
236,116,72392,5,0,3:0:0:0:
152,184,72575,1,0,0:0:0:0:
68,252,72758,1,8,0:0:0:0:
328,240,72941,5,0,0:0:0:0:
196,208,73124,1,0,3:0:0:0:
68,168,73306,1,0,0:0:0:0:
248,312,73489,5,8,0:0:0:0:
212,100,73672,1,0,0:0:0:0:
256,336,73855,5,0,3:0:0:0:
204,80,74038,1,0,0:0:0:0:
168,340,74221,1,8,0:0:0:0:
208,208,74404,1,0,0:0:0:0:
208,208,74495,1,8,0:0:0:0:
208,208,74587,1,8,0:0:0:0:
176,56,74770,1,8,0:0:0:0:
132,240,74953,1,8,0:0:0:0:
161,273,75044,1,8,0:0:0:0:
203,288,75135,1,8,0:0:0:0:
246,279,75227,1,8,0:0:0:0:
280,250,75319,5,4,3:2:0:0:
268,144,75502,1,0,0:0:0:0:
164,120,75684,1,8,0:0:0:0:
320,280,75867,5,0,0:0:0:0:
300,116,76050,1,0,3:0:0:0:
132,96,76233,1,0,0:0:0:0:
344,320,76416,5,8,0:0:0:0:
336,88,76599,1,0,0:0:0:0:
96,80,76782,1,0,3:0:0:0:
96,300,76965,5,0,0:0:0:0:
208,240,77148,1,8,0:0:0:0:
92,180,77331,1,0,0:0:0:0:
212,320,77514,6,0,P|256:308|288:216,1,134.999995880127,0|0,3:0|0:0,0:0:0:0:
288,208,77880,2,0,P|272:168|276:120,1,89.9999972534181,8|0,0:0|0:0,0:0:0:0:
324,28,78245,1,0,2:0:0:0:
188,292,81172,6,0,P|164:316|108:324,1,75,0|0,3:0|0:0,0:0:0:0:
116,236,81538,1,8,0:0:0:0:
292,308,81721,1,0,0:0:0:0:
236,148,81904,1,0,3:0:0:0:
236,148,82087,1,0,3:0:0:0:
304,336,82270,1,8,0:0:0:0:
368,140,82453,1,0,3:0:0:0:
368,140,82544,1,0,3:0:0:0:
368,140,82636,5,0,3:0:0:0:
296,360,82819,2,0,L|212:348,1,75,8|0,0:0|0:0,0:0:0:0:
400,264,83184,2,0,L|480:256,1,75,8|0,0:0|3:0,0:0:0:0:
256,248,83550,1,0,3:0:0:0:
420,360,83733,1,8,0:0:0:0:
400,156,83916,1,0,3:0:0:0:
400,156,84008,1,0,3:0:0:0:
400,156,84099,5,0,3:0:0:0:
248,264,84282,1,0,0:0:0:0:
336,64,84465,1,8,0:0:0:0:
376,248,84648,1,0,0:0:0:0:
180,188,84831,5,0,3:0:0:0:
160,276,85014,1,0,3:0:0:0:
216,344,85197,1,8,0:0:0:0:
304,348,85380,1,0,3:0:0:0:
136,292,85563,5,0,3:0:0:0:
312,268,85745,2,0,P|364:288|376:312,1,75,8|0,0:0|0:0,0:0:0:0:
384,320,86020,1,0,0:0:0:0:
372,302,86111,2,0,P|376:264|392:224,1,75,8|0,0:0|3:0,0:0:0:0:
456,96,86477,2,0,P|440:112|384:116,1,75,8|8,0:0|0:0,0:0:0:0:
348,100,86752,1,0,3:0:0:0:
304,88,86843,1,0,3:0:0:0:
260,96,86934,1,0,3:0:0:0:
224,124,87026,6,0,P|212:176|220:244,1,112.5,0|0,3:0|0:0,0:0:0:0:
228,256,87392,2,0,B|236:224|236:224|228:176,1,75,8|0,0:0|0:0,0:0:0:0:
136,64,87758,1,0,3:0:0:0:
116,152,87941,1,0,3:0:0:0:
112,240,88124,1,8,0:0:0:0:
320,180,88306,1,0,3:0:0:0:
320,180,88398,1,0,3:0:0:0:
320,180,88489,5,0,3:0:0:0:
96,256,88672,1,8,0:0:0:0:
268,268,88855,1,0,3:0:0:0:
272,276,88947,1,0,3:0:0:0:
272,288,89038,1,0,3:0:0:0:
268,300,89130,1,8,0:0:0:0:
256,312,89221,1,0,3:0:0:0:
424,260,89404,5,0,3:0:0:0:
184,264,89587,1,8,0:0:0:0:
172,220,89678,1,0,0:0:0:0:
180,176,89770,1,8,0:0:0:0:
200,136,89861,1,0,3:0:0:0:
244,120,89953,6,0,P|276:120|304:132,1,44.999998626709,4|0,3:2|0:0,0:0:0:0:
436,88,90136,1,0,0:0:0:0:
436,88,90227,1,0,3:0:0:0:
436,88,90319,2,0,P|432:56|428:40,1,44.999998626709,8|0,0:0|0:0,0:0:0:0:
368,184,90502,1,0,0:0:0:0:
364,212,90593,1,0,3:0:0:0:
368,240,90684,2,0,P|376:272|380:296,1,44.999998626709,0|0,3:0|0:0,0:0:0:0:
292,360,90867,6,0,P|276:360|244:356,1,44.999998626709,8|0,0:0|0:0,0:0:0:0:
452,224,91050,2,0,P|468:224|500:228,1,44.999998626709,0|0,3:0|0:0,0:0:0:0:
228,160,91233,2,0,P|244:160|276:156,1,44.999998626709,0|0,3:0|0:0,0:0:0:0:
200,180,91416,6,0,L|192:40,2,134.999995880127,0|0|0,3:0|2:0|0:0,0:0:0:0:
88,320,92880,6,0,P|140:288|196:308,1,112.5,4|0,3:2|0:0,0:0:0:0:
220,328,93245,2,0,L|240:248,1,75,8|0,0:0|0:0,0:0:0:0:
112,140,93611,1,0,3:0:0:0:
316,316,93794,1,0,0:0:0:0:
104,164,93977,2,0,L|116:248,1,75,8|0,0:0|0:0,0:0:0:0:
244,224,94343,5,0,3:0:0:0:
220,136,94526,1,0,0:0:0:0:
328,232,94709,5,8,0:0:0:0:
288,88,94892,1,0,0:0:0:0:
412,248,95075,5,0,3:0:0:0:
351,32,95258,1,0,0:0:0:0:
424,272,95441,1,8,0:0:0:0:
448,128,95624,1,0,0:0:0:0:
448,128,95715,1,0,0:0:0:0:
448,128,95806,5,0,3:0:0:0:
416,308,95989,1,0,0:0:0:0:
344,152,96172,1,8,0:0:0:0:
500,240,96355,1,0,0:0:0:0:
316,304,96538,1,0,3:0:0:0:
352,184,96721,5,0,0:0:0:0:
304,344,96904,1,8,0:0:0:0:
360,156,97087,1,0,0:0:0:0:
228,252,97270,6,0,P|200:264|112:244,1,112.5,0|0,3:0|0:0,0:0:0:0:
108,240,97636,2,0,P|128:292|132:324,1,75,8|0,0:0|0:0,0:0:0:0:
60,364,98002,1,0,3:0:0:0:
48,168,98184,1,0,3:0:0:0:
48,168,98367,2,0,P|36:124|36:84,1,75,8|8,0:0|0:0,0:0:0:0:
56,56,98642,1,0,0:0:0:0:
96,36,98733,6,0,L|256:52,1,150,0|8,3:0|0:0,0:0:0:0:
288,128,99282,1,0,0:0:0:0:
352,64,99465,2,0,L|428:48,1,75,0|0,3:0|0:0,0:0:0:0:
288,128,99831,2,0,P|280:168|280:216,1,75,8|0,0:0|0:0,0:0:0:0:
312,232,100105,1,0,0:0:0:0:
312,276,100197,5,0,3:0:0:0:
412,216,100380,1,0,0:0:0:0:
228,232,100563,5,8,0:0:0:0:
378,141,100746,1,0,0:0:0:0:
148,200,100928,5,0,3:0:0:0:
373,63,101111,1,0,0:0:0:0:
192,56,101294,1,8,0:0:0:0:
236,268,101477,1,0,0:0:0:0:
236,268,101569,1,0,3:0:0:0:
236,268,101660,5,0,3:0:0:0:
256,180,101843,1,0,0:0:0:0:
216,356,102026,1,0,3:0:0:0:
216,356,102392,5,0,3:0:0:0:
240,148,102575,1,0,0:0:0:0:
240,148,102666,1,0,0:0:0:0:
240,148,102758,2,0,B|232:96|232:96|232:64|232:64|224:24,1,112.5,0|0,3:0|0:0,0:0:0:0:
216,24,103124,5,2,0:0:0:0:
156,92,103489,1,2,0:0:0:0:
160,180,103855,1,2,0:0:0:0:
292,300,104221,6,0,L|380:296,1,75,0|0,0:0|2:0,0:0:0:0:
196,268,104587,5,0,0:0:0:0:
264,212,104770,1,0,0:0:0:0:
352,204,104953,1,0,0:0:0:0:
440,228,105136,1,0,0:0:0:0:
200,132,105319,2,0,P|176:128|132:84,1,75,0|0,0:0|2:0,0:0:0:0:
312,116,105684,2,0,P|348:104|432:108,1,112.5,0|0,0:0|2:0,0:0:0:0:
440,120,106050,5,4,3:2:0:0:
208,48,106233,1,0,0:0:0:0:
376,184,106416,1,8,0:0:0:0:
300,12,106599,5,0,0:0:0:0:
344,268,106782,1,0,3:0:0:0:
476,32,106965,1,0,0:0:0:0:
264,176,107148,5,8,0:0:0:0:
456,184,107331,1,0,0:0:0:0:
336,84,107514,5,0,3:0:0:0:
376,288,107697,1,0,0:0:0:0:
232,80,107880,5,8,0:0:0:0:
512,108,108063,1,0,0:0:0:0:
248,204,108245,2,0,P|244:236|260:352,1,134.999995880127,0|0,3:1|2:0,0:0:0:0:
272,352,108611,2,0,L|184:336,1,89.9999972534181,8|0,0:0|0:0,0:0:0:0:
344,156,108977,5,0,3:0:0:0:
124,272,109160,1,0,0:0:0:0:
396,292,109343,1,8,0:0:0:0:
84,128,109526,5,0,0:0:0:0:
304,244,109709,1,0,3:0:0:0:
32,264,109892,1,0,0:0:0:0:
188,108,110075,5,8,0:0:0:0:
224,336,110258,1,0,0:0:0:0:
300,144,110441,5,0,3:0:0:0:
152,228,110624,1,0,0:0:0:0:
280,52,110806,5,8,0:0:0:0:
316,280,110989,1,0,0:0:0:0:
272,24,111172,5,0,3:0:0:0:
324,308,111538,1,8,0:0:0:0:
324,308,111904,6,0,P|296:280|168:308,1,179.999994506836,4|8,3:2|0:0,0:0:0:0:
68,344,112453,1,0,0:0:0:0:
20,248,112636,2,0,P|60:240|92:116,1,179.999994506836,0|8,3:0|0:0,0:0:0:0:
8,60,113184,6,0,P|44:92|104:100,1,89.9999972534181,0|0,0:0|3:0,0:0:0:0:
232,172,113550,2,0,P|260:156|328:152,1,89.9999972534181,0|8,0:0|0:0,0:0:0:0:
472,216,113916,2,0,P|496:176|496:124,1,89.9999972534181,0|0,0:0|3:0,0:0:0:0:
432,48,114282,1,0,0:0:0:0:
476,312,114465,1,8,0:0:0:0:
412,148,114648,1,0,0:0:0:0:
492,332,114831,5,0,3:0:0:0:
388,304,115014,1,0,0:0:0:0:
504,208,115197,5,8,0:0:0:0:
312,172,115380,1,0,0:0:0:0:
460,68,115563,5,0,3:0:0:0:
376,336,115745,1,0,0:0:0:0:
280,156,115928,5,8,0:0:0:0:
488,204,116111,1,0,0:0:0:0:
288,260,116294,5,0,3:0:0:0:
344,84,116477,1,0,0:0:0:0:
272,296,116660,5,8,0:0:0:0:
380,184,116843,1,0,3:0:0:0:
380,184,116934,1,0,0:0:0:0:
380,184,117026,1,0,3:0:0:0:
312,40,117209,1,8,0:0:0:0:
216,88,117392,1,8,0:0:0:0:
228,140,117483,1,8,0:0:0:0:
240,192,117575,1,8,0:0:0:0:
256,244,117666,1,8,0:0:0:0:
244,296,117758,5,0,3:0:0:0:
160,228,117941,1,0,0:0:0:0:
352,224,118124,5,8,0:0:0:0:
144,316,118306,1,0,0:0:0:0:
316,144,118489,1,0,3:0:0:0:
128,224,118672,5,0,0:0:0:0:
336,316,118854,1,8,0:0:0:0:
164,144,119037,1,0,0:0:0:0:
240,348,119221,5,0,3:0:0:0:
324,116,119404,1,0,0:0:0:0:
404,224,119587,5,8,0:0:0:0:
184,176,119770,1,0,0:0:0:0:
428,200,119953,2,0,L|444:344,1,134.999995880127,0|0,3:0|0:0,0:0:0:0:
424,352,120319,2,0,L|412:260,1,89.9999972534181,8|0,0:0|0:0,0:0:0:0:
380,36,120684,5,0,3:0:0:0:
504,140,120867,1,0,0:0:0:0:
268,108,121050,5,8,0:0:0:0:
472,128,121233,1,0,0:0:0:0:
236,104,121416,1,0,3:0:0:0:
368,180,121599,5,0,0:0:0:0:
492,32,121782,1,8,0:0:0:0:
352,192,121965,1,0,0:0:0:0:
280,16,122148,5,0,3:0:0:0:
336,208,122331,1,0,0:0:0:0:
188,140,122514,5,8,0:0:0:0:
244,332,122697,1,0,0:0:0:0:
352,312,122880,1,8,3:2:0:0:
352,312,122971,1,8,0:0:0:0:
352,312,123063,1,8,0:0:0:0:
352,312,123154,1,8,0:0:0:0:
352,312,123245,1,8,0:0:0:0:
128,256,123428,1,8,0:0:0:0:
128,256,123520,1,8,0:0:0:0:
128,256,123611,5,4,3:2:0:0:
372,216,123794,1,0,0:0:0:0:
96,168,123977,5,8,0:0:0:0:
352,312,124160,1,0,0:0:0:0:
152,348,124343,5,8,0:0:0:0:
180,92,124526,1,0,0:0:0:0:
56,320,124709,1,8,0:0:0:0:
268,116,124892,1,0,0:0:0:0:
64,172,125075,6,0,L|48:64,1,89.9999972534181,8|0,0:0|0:0,0:0:0:0:
168,276,125441,2,0,P|204:268|264:304,1,89.9999972534181,8|0,0:0|0:0,0:0:0:0:
376,356,125806,1,8,0:0:0:0:
428,336,125898,1,8,0:0:0:0:
460,292,125989,1,8,0:0:0:0:
468,240,126081,1,8,0:0:0:0:
452,188,126172,1,8,0:0:0:0:
408,156,126264,1,8,0:0:0:0:
360,136,126355,1,8,0:0:0:0:
308,148,126447,1,8,0:0:0:0:
272,188,126538,6,0,B|252:192|252:192|248:188|248:188|224:192|224:192|180:172|180:172|168:176|168:176|144:164|108:168,1,150,4|0,3:2|0:0,0:0:0:0:
76,320,126813,2,0,P|76:280|168:280,1,150,0|0,3:0|0:0,0:0:0:0:
40,180,127087,1,0,3:0:0:0:
276,288,127270,2,0,L|284:376,1,75
420,205,127453,2,0,P|392:244|360:256,1,75
312,80,127636,6,0,B|240:64|240:64|328:52,1,150,0|0,3:0|0:0,0:0:0:0:
400,84,127910,2,0,B|384:128|368:144|368:144|380:172|432:216,1,150,0|0,3:0|0:0,0:0:0:0:
416,296,128184,1,0,3:0:0:0:
272,188,128367,2,0,B|240:188|240:188|216:180|216:180|120:172,1,150,8|8,0:0|0:0,0:0:0:0:
60,236,128642,1,0,0:0:0:0:
60,236,128733,6,0,B|100:260|144:256|144:256|140:268|140:268|164:292|164:328,1,150,0|0,3:0|0:0,0:0:0:0:
123,172,129008,2,0,B|169:166|201:136|201:136|205:147|205:147|239:152|261:180,1,150,0|0,3:0|0:0,0:0:0:0:
120,72,129282,1,0,3:0:0:0:
300,260,129465,6,0,P|304:296|308:344,1,75,8|0,0:0|0:0,0:0:0:0:
316,112,129648,2,0,B|304:92|284:80|284:80|316:84|324:108,1,75,8|0,0:0|0:0,0:0:0:0:
412,264,129831,6,0,B|436:296|440:340|440:340|456:300|448:248,1,150,0|0,3:0|0:0,0:0:0:0:
412,152,130105,2,0,B|404:108|432:88|432:88|452:120|432:164,1,150,0|0,3:0|0:0,0:0:0:0:
332,208,130380,1,0,3:0:0:0:
332,208,130471,1,0,0:0:0:0:
332,208,130563,2,0,L|248:200,1,75,4|0,3:2|3:0,0:0:0:0:
108,340,130745,2,0,P|152:324|184:324,1,75,0|0,3:0|3:0,0:0:0:0:
96,224,130928,6,0,B|88:176|88:176|96:144|96:144|88:104|64:56,1,150,4|0,3:2|0:0,0:0:0:0:
200,252,131203,2,0,B|202:203|202:203|216:173|216:173|217:132|203:81,1,150,0|0,3:0|0:0,0:0:0:0:
288,316,131477,1,0,3:0:0:0:
296,296,131569,1,0,0:0:0:0:
312,276,131660,2,0,B|328:252|328:252|328:232|328:232|336:188,1,75,8|0,0:0|0:0,0:0:0:0:
412,64,131843,1,0,0:0:0:0:
400,72,131934,1,0,0:0:0:0:
384,76,132026,6,0,B|348:72|320:40|320:40|288:24|236:40,1,150,0|0,3:0|0:0,0:0:0:0:
420,156,132300,2,0,B|460:136|480:120|480:120|488:168|448:192,1,150,0|0,3:0|0:0,0:0:0:0:
288,120,132575,1,0,3:0:0:0:
288,120,132666,1,0,0:0:0:0:
288,120,132758,6,0,P|276:148|272:200,1,75,0|0,1:0|1:0,0:0:0:0:
384,336,132941,2,0,P|436:352|472:352,1,75,0|0,1:0|1:0,0:0:0:0:
256,300,133124,6,0,P|204:288|116:328,1,150,0|0,1:0|0:0,0:0:0:0:
72,248,133398,2,0,B|60:192|60:192|76:84,1,150,0|0,1:0|0:0,0:0:0:0:
84,12,133672,1,0,1:0:0:0:
148,156,134221,6,0,P|164:116|96:16,1,150,0|0,1:0|0:0,0:0:0:0:
172,248,134495,2,0,B|216:240|216:240|232:232|232:232|272:232|272:232|300:220|300:220|340:224,1,150,0|0,1:0|1:0,0:0:0:0:
328,312,134770,1,0,1:0:0:0:
328,312,134861,1,0,1:0:0:0:
328,312,134953,2,0,B|348:360|348:360|364:300|364:300|400:268|400:268|404:188,1,225,0|0,3:0|3:0,0:0:0:0:
392,112,135319,5,6,3:2:0:0:
472,152,135502,1,0,0:0:0:0:
392,112,135684,1,0,0:0:0:0:
460,52,135867,1,0,0:0:0:0:
392,112,136050,1,0,0:0:0:0:
304,132,136233,1,0,0:0:0:0:
216,116,136416,1,0,0:0:0:0:
152,52,136599,1,0,0:0:0:0:
96,124,136782,5,0,0:0:0:0:
108,212,136965,1,0,0:0:0:0:
124,300,137148,1,0,0:0:0:0:
108,212,137331,1,0,0:0:0:0:
224,280,137514,5,0,0:0:0:0:
8,232,137697,1,0,0:0:0:0:
264,188,137880,5,0,0:0:0:0:
52,328,138063,1,0,0:0:0:0:
208,112,138245,5,2,0:0:0:0:
252,312,138428,1,0,0:0:0:0:
132,204,138611,1,0,0:0:0:0:
328,176,138794,1,0,0:0:0:0:
132,204,138977,1,0,0:0:0:0:
284,88,139160,1,0,0:0:0:0:
244,272,139343,1,0,0:0:0:0:
284,88,139526,1,0,0:0:0:0:
168,296,139709,5,0,0:0:0:0:
240,348,139892,1,0,0:0:0:0:
324,312,140075,1,0,0:0:0:0:
332,224,140258,1,0,0:0:0:0:
256,176,140441,5,0,0:0:0:0:
336,132,140624,1,0,0:0:0:0:
416,92,140806,1,0,0:0:0:0:
496,48,140989,1,0,0:0:0:0:
488,136,141172,5,2,0:0:0:0:
456,220,141904,1,2,0:0:0:0:
412,300,142636,1,2,0:0:0:0:
100,328,143276,5,0,3:0:0:0:
96,284,143367,1,0,3:0:0:0:
92,240,143459,1,0,3:0:0:0:
88,196,143550,1,8,0:0:0:0:
112,108,143733,1,8,0:0:0:0:
188,152,143916,1,0,3:0:0:0:
188,152,144008,1,0,3:0:0:0:
188,152,144099,5,4,3:2:0:0:
168,288,144282,1,0,0:0:0:0:
272,152,144465,5,0,3:0:0:0:
248,276,144648,1,0,0:0:0:0:
356,156,144831,5,0,3:0:0:0:
328,256,145014,1,0,3:0:0:0:
312,64,145197,5,0,3:0:0:0:
392,344,145380,1,0,3:0:0:0:
392,344,147758,5,4,3:2:0:0:
104,280,147940,1,0,0:0:0:0:
408,252,148123,1,8,0:0:0:0:
228,68,148306,5,0,0:0:0:0:
164,356,148488,1,0,3:0:0:0:
136,52,148671,1,0,0:0:0:0:
120,344,148855,5,8,0:0:0:0:
408,280,149037,1,0,0:0:0:0:
104,252,149220,1,0,3:0:0:0:
284,68,149403,5,0,0:3:0:0:
348,356,149587,1,8,0:0:0:0:
376,52,149770,1,0,0:0:0:0:
140,160,149953,6,0,L|48:148,1,89.9999972534181,0|0,3:0|0:0,0:0:0:0:
268,308,150318,2,0,P|304:276|416:300,1,134.999995880127,8|0,0:0|0:0,0:0:0:0:
416,160,150684,5,0,3:0:0:0:
180,240,150867,1,0,0:0:0:0:
344,356,151050,1,8,0:0:0:0:
344,356,151416,5,0,3:0:0:0:
256,32,151599,1,0,0:0:0:0:
168,356,151782,5,8,0:0:0:0:
256,32,151965,1,0,0:0:0:0:
412,296,152148,5,0,3:0:0:0:
100,296,152331,1,0,0:0:0:0:
440,220,152514,5,8,0:0:0:0:
73,220,152697,1,0,0:0:0:0:
380,132,152879,5,0,3:0:0:0:
328,352,153062,1,0,0:0:0:0:
132,132,153245,5,8,0:0:0:0:
184,352,153428,1,0,0:0:0:0:
212,176,153611,6,0,P|224:128|172:52,1,134.999995880127,4|0,3:2|2:0,0:0:0:0:
100,52,153977,1,8,0:0:0:0:
288,40,154160,1,0,0:0:0:0:
124,144,154343,2,0,P|72:144|36:116,1,89.9999972534181,0|0,3:0|0:0,0:0:0:0:
41,123,154709,1,8,0:0:0:0:
180,244,154892,6,0,P|208:216|284:200,1,89.9999972534181,0|0,0:0|3:0,0:0:0:0:
68,236,155258,2,0,P|78:274|54:348,1,89.9999972534181,0|8,0:0|0:0,0:0:0:0:
124,144,155623,2,0,P|85:133|33:75,1,89.9999972534181,0|0,0:0|3:0,0:0:0:0:
256,280,155989,1,0,0:0:0:0:
116,60,156172,1,8,0:0:0:0:
288,264,156355,6,0,L|304:364,1,89.9999972534181,0|0,0:0|3:0,0:0:0:0:
240,176,156721,1,0,0:0:0:0:
400,280,156904,2,0,B|388:240|388:240|396:192|396:192|384:120,1,134.999995880127,8|0,0:0|0:0,0:0:0:0:
404,124,157270,2,0,L|304:136,1,89.9999972534181,0|0,3:0|0:0,0:0:0:0:
96,224,157636,2,0,L|196:236,1,89.9999972534181,8|0,0:0|0:0,0:0:0:0:
472,236,158001,5,0,3:0:0:0:
208,132,158184,1,0,0:0:0:0:
296,332,158367,5,8,0:0:0:0:
324,52,158550,1,0,3:0:0:0:
128,60,158733,5,0,3:0:0:0:
164,256,158916,1,8,3:2:0:0:
384,200,159099,1,8,0:0:0:0:
420,240,159190,1,8,0:0:0:0:
424,296,159282,1,8,0:0:0:0:
404,344,159373,1,8,0:0:0:0:
356,372,159465,5,4,3:2:0:0:
60,288,159648,1,0,0:0:0:0:
332,280,159831,1,8,0:0:0:0:
148,344,160014,1,0,0:0:0:0:
192,196,160197,1,0,3:0:0:0:
200,208,160562,5,8,0:0:0:0:
260,368,160745,1,0,0:0:0:0:
88,148,160928,5,0,3:0:0:0:
424,236,161111,1,0,0:0:0:0:
88,236,161294,1,8,0:0:0:0:
424,148,161477,1,0,0:0:0:0:
156,312,161660,5,0,3:0:0:0:
136,72,161843,1,0,0:0:0:0:
356,312,162026,5,8,0:0:0:0:
376,72,162209,1,0,0:0:0:0:
256,352,162392,5,0,3:0:0:0:
396,188,162757,1,8,0:0:0:0:
288,168,162940,1,0,0:0:0:0:
184,144,163123,5,0,3:0:0:0:
420,196,163306,1,0,0:0:0:0:
100,224,163489,1,8,0:0:0:0:
340,96,163672,1,0,0:0:0:0:
216,312,163855,5,0,3:0:0:0:
136,44,164038,1,0,0:0:0:0:
80,248,164221,1,8,0:0:0:0:
356,188,164404,1,0,0:0:0:0:
332,340,164587,1,8,3:2:0:0:
332,340,164678,1,8,0:0:0:0:
332,340,164770,1,8,0:0:0:0:
332,340,164861,1,8,0:0:0:0:
332,340,164953,1,8,0:0:0:0:
452,88,165136,1,8,0:0:0:0:
452,88,165227,1,8,0:0:0:0:
452,88,165318,5,0,3:0:0:0:
348,60,165501,1,0,0:0:0:0:
488,212,165684,5,8,0:0:0:0:
252,128,165867,1,0,0:0:0:0:
472,68,166050,1,8,0:0:0:0:
356,288,166233,5,0,0:0:0:0:
324,32,166416,1,8,0:0:0:0:
356,316,166599,1,0,0:0:0:0:
220,136,166782,5,8,0:0:0:0:
468,180,166965,1,0,0:0:0:0:
256,312,167148,5,8,0:0:0:0:
324,72,167331,1,0,0:0:0:0:
428,284,167514,1,8,0:0:0:0:
176,224,167697,1,0,0:0:0:0:
176,224,167788,1,0,0:0:0:0:
176,224,167879,1,8,3:2:0:0:
468,180,168062,1,8,3:0:0:0:
144,232,168245,5,4,3:2:0:0:
232,296,168428,1,0,0:0:0:0:
308,220,168611,5,8,0:0:0:0:
292,112,168794,1,0,0:0:0:0:
196,60,168977,1,8,0:0:0:0:
380,156,169160,2,0,P|436:152|480:136,1,89.9999972534181,0|8,0:0|0:0,0:0:0:0:
224,188,169526,6,0,P|176:168|104:184,1,89.9999972534181,0|8,0:0|0:0,0:0:0:0:
64,248,169892,1,0,0:0:0:0:
448,136,170075,1,8,0:0:0:0:
164,64,170257,1,0,0:0:0:0:
256,340,170440,1,8,3:2:0:0:
232,300,170532,1,8,0:0:0:0:
192,280,170623,1,8,0:0:0:0:
148,280,170715,1,8,0:0:0:0:
108,304,170806,1,8,0:0:0:0:
148,320,170898,1,0,0:0:0:0:
188,300,170989,1,0,0:0:0:0:
216,264,171081,1,0,0:0:0:0:
216,228,171172,6,0,L|208:124,1,75,4|0,3:2|0:0,0:0:0:0:
276,92,171538,2,0,L|272:8,1,75,4|0,0:2|0:0,0:0:0:0:
356,172,171904,2,0,B|336:208|336:208|336:228|336:228|328:256|324:296,1,112.5,0|0,3:0|0:0,0:0:0:0:
336,304,172270,1,4,0:2:0:0:
440,216,172453,1,0,0:0:0:0:
228,320,172636,6,0,B|220:264|220:264|224:208,1,112.5,0|0,3:0|2:0,0:0:0:0:
232,184,173001,2,0,P|220:136|192:112,1,75,4|0,0:2|0:0,0:0:0:0:
72,176,173367,2,0,P|84:224|112:248,1,75,0|0,3:0|0:0,0:0:0:0:
328,96,173733,1,4,0:2:0:0:
152,180,173916,1,0,0:0:0:0:
364,172,174099,6,0,L|448:160,1,75,0|0,3:0|0:0,0:0:0:0:
408,264,174465,2,0,L|496:268,1,75,4|0,0:2|0:0,0:0:0:0:
328,336,174831,2,0,B|280:304|280:304|204:288,1,112.5,0|0,3:0|0:0,0:0:0:0:
200,304,175197,1,4,0:2:0:0:
272,152,175379,1,0,0:0:0:0:
176,320,175562,6,0,P|124:328|60:284,1,112.5,0|0,3:0|2:0,0:0:0:0:
60,280,175928,1,4,0:2:0:0:
152,116,176111,1,0,0:0:0:0:
160,136,176203,1,8,0:0:0:0:
160,164,176294,2,0,B|160:192|160:192|148:244,1,75,0|0,3:0|0:0,0:0:0:0:
280,132,176660,2,0,P|264:72|264:28,1,75,0|0,3:0|3:0,0:0:0:0:
364,244,177026,6,0,L|448:252,1,75,4|0,3:2|0:0,0:0:0:0:
196,320,177392,2,0,L|112:328,1,75,4|0,0:2|0:0,0:0:0:0:
404,156,177757,2,0,P|416:112|404:28,1,112.5,0|0,3:0|0:0,0:0:0:0:
400,28,178123,1,4,0:2:0:0:
272,120,178306,1,0,0:0:0:0:
324,276,178489,6,0,L|440:300,1,112.5,0|0,3:0|2:0,0:0:0:0:
436,324,178855,2,0,P|456:296|496:280,1,75,4|0,0:2|0:0,0:0:0:0:
304,180,179221,2,0,P|296:136|272:96,1,75,0|0,3:0|0:0,0:0:0:0:
248,336,179587,2,0,P|212:352|112:340,1,112.5,4|0,0:2|0:0,0:0:0:0:
116,340,179953,6,0,L|104:256,1,75,0|0,3:0|0:0,0:0:0:0:
48,116,180318,2,0,P|76:128|136:120,1,75,4|0,0:2|0:0,0:0:0:0:
312,196,180684,2,0,P|280:192|192:224,1,112.5,0|0,3:0|0:0,0:0:0:0:
204,232,181050,1,4,0:2:0:0:
344,284,181233,1,0,0:0:0:0:
424,164,181416,5,0,3:0:0:0:
404,76,181599,1,8,0:0:0:0:
424,164,181782,2,0,L|448:252,1,75,8|0,0:0|0:0,0:0:0:0:
460,280,182056,1,0,3:0:0:0:
460,280,182148,1,0,3:0:0:0:
336,176,182331,1,0,0:0:0:0:
504,120,182514,1,0,0:0:0:0:
504,120,182605,1,0,0:0:0:0:
504,120,182697,1,0,0:0:0:0:
504,120,182788,1,0,0:0:0:0:
504,120,182879,5,12,0:2:0:0:
472,312,183062,1,0,0:0:0:0:
308,156,183245,5,8,0:0:0:0:
504,220,183428,1,0,0:0:0:0:
352,312,183611,5,8,0:0:0:0:
408,80,183794,1,0,0:0:0:0:
216,80,183977,5,8,0:0:0:0:
276,348,184160,1,0,0:0:0:0:
408,204,184343,5,8,0:0:0:0:
188,260,184526,1,0,0:0:0:0:
184,104,184709,5,8,0:0:0:0:
500,200,184892,1,0,0:0:0:0:
288,188,185075,5,8,0:0:0:0:
468,104,185257,1,0,0:0:0:0:
464,296,185440,5,8,0:0:0:0:
332,68,185623,1,0,0:0:0:0:
276,312,185806,5,8,0:0:0:0:
420,192,185989,1,0,0:0:0:0:
204,32,186172,5,8,0:0:0:0:
232,232,186355,1,0,0:0:0:0:
328,108,186538,5,8,0:0:0:0:
104,144,186721,1,0,0:0:0:0:
184,320,186904,5,8,0:0:0:0:
204,64,187087,1,0,0:0:0:0:
328,264,187270,5,8,0:0:0:0:
56,248,187453,1,0,0:0:0:0:
280,148,187636,5,8,0:0:0:0:
316,352,187818,1,0,0:0:0:0:
316,352,187910,1,8,0:0:0:0:
316,352,188001,1,0,3:0:0:0:
204,240,188184,1,0,0:0:0:0:
364,168,188367,1,8,0:0:0:0:
368,124,188459,1,0,0:0:0:0:
356,80,188550,1,0,0:0:0:0:
316,56,188642,1,0,0:0:0:0:
264,52,188733,6,0,L|144:64,1,104.999996795654,12|0,0:2|0:0,0:0:0:0:
392,252,189099,2,0,L|504:272,1,104.999996795654,8|0,0:0|0:0,0:0:0:0:
196,300,189465,2,0,L|176:176,1,104.999996795654,8|0,0:0|0:0,0:0:0:0:
432,28,189831,2,0,L|416:156,1,104.999996795654,8|0,0:0|0:0,0:0:0:0:
88,252,190197,5,8,0:0:0:0:
368,268,190379,1,0,0:0:0:0:
216,324,190562,5,8,0:0:0:0:
288,56,190745,1,0,0:0:0:0:
452,324,190928,5,8,0:0:0:0:
180,204,191111,1,0,0:0:0:0:
400,96,191294,5,8,0:0:0:0:
328,352,191477,1,0,0:0:0:0:
128,116,191660,6,0,L|136:12,1,104.999996795654,8|0,0:0|0:0,0:0:0:0:
384,268,192026,2,0,L|376:372,1,104.999996795654,8|0,0:0|0:0,0:0:0:0:
332,64,192392,2,0,L|436:72,1,104.999996795654,8|0,0:0|0:0,0:0:0:0:
180,320,192758,2,0,L|76:312,1,104.999996795654,8|0,0:0|0:0,0:0:0:0:
400,240,193123,5,8,0:0:0:0:
200,344,193306,1,0,0:0:0:0:
112,144,193489,1,8,0:0:0:0:
312,40,193672,1,0,0:0:0:0:
312,40,193764,1,0,0:0:0:0:
312,40,193855,1,8,0:0:0:0:
320,144,194038,1,0,0:0:0:0:
320,144,194129,1,0,0:0:0:0:
320,144,194221,2,0,L|328:216,1,52.4999983978272,0|0,0:0|0:0,0:0:0:0:
212,220,194404,2,0,L|220:292,1,52.4999983978272,0|0,0:0|0:0,0:0:0:0:
104,280,194587,6,0,L|109:319,2,22.4999993133545,6|0|0,0:0|0:0|0:0,0:0:0:0:
