osu file format v14

[General]
AudioFilename: 15. MONSTER.mp3
AudioLeadIn: 0
PreviewTime: 146111
Countdown: 0
SampleSet: Soft
StackLeniency: 0.3
Mode: 0
LetterboxInBreaks: 0
WidescreenStoryboard: 0

[Editor]
DistanceSpacing: 0.19
BeatDivisor: 4
GridSize: 4
TimelineZoom: 1.5

[Metadata]
Title:MONSTER
TitleUnicode:MONSTER
Artist:Reol
ArtistUnicode:れをる
Creator:handsome
Version:FOREVER
Source:
Tags:umetora reworu gokusaishoku -kevincela- regraz sharkie bearizm vinxis asahina momoko mokori fort byfar れをる 極彩色 梅とら
BeatmapID:804164
BeatmapSetID:366440

[Difficulty]
HPDrainRate:7
CircleSize:4
OverallDifficulty:8.5
ApproachRate:9
SliderMultiplier:1.5
SliderTickRate:1

[Events]
//Background and Video events
0,0,"14.jpg",0,0
//Break Periods
2,78262,80572
//Storyboard Layer 0 (Background)
//Storyboard Layer 1 (Fail)
//Storyboard Layer 2 (Pass)
//Storyboard Layer 3 (Foreground)
//Storyboard Sound Samples

[TimingPoints]
685,365.853658536585,4,2,1,40,1,0
685,-166.666666666667,4,2,1,40,0,0
12392,-83.3333333333333,4,1,1,70,0,0
24099,-100,4,3,1,40,0,0
34343,-83.3333333333333,4,1,1,70,0,0
35806,-100,4,2,1,60,0,0
46050,-125,4,2,1,65,0,0
48977,-83.3333333333333,4,1,1,75,0,1
69465,-83.3333333333333,4,1,1,70,0,0
81172,-100,4,2,1,50,0,0
89953,-83.3333333333333,4,2,1,70,0,0
91416,-166.666666666667,4,2,1,40,0,0
92880,-100,4,2,1,60,0,0
103124,-100,4,2,1,40,0,0
104221,-100,4,1,1,50,0,0
106050,-83.3333333333333,4,1,1,75,0,1
126538,-100,4,2,1,65,0,0
135319,-100,4,2,1,55,0,0
143276,-100,4,2,1,65,0,0
147758,365.853658536585,4,1,1,75,1,1
147758,-83.3333333333333,4,1,1,75,0,1
168611,-83.3333333333333,4,1,1,85,0,1
171172,-100,4,1,1,70,0,0
182879,-83.3333333333333,4,1,1,80,0,0
188733,-71.4285714285714,4,1,1,85,0,0
194587,-83.3333333333333,4,2,1,50,0,0

[Colours]
Combo1 : 255,47,52
Combo2 : 183,183,183
Combo3 : 118,192,220
Combo4 : 91,109,236
Combo5 : 210,38,253

[HitObjects]
132,168,685,5,2,0:0:0:0:
141,188,1233,1,2,0:0:0:0:
193,102,1782,5,2,0:0:0:0:
202,122,1965,1,2,0:0:0:0:
132,168,2331,53,2,0:0:0:0:
141,188,2880,1,2,0:0:0:0:
150,208,3245,1,2,0:0:0:0:
193,102,3611,5,2,0:0:0:0:
202,122,4160,1,2,0:0:0:0:
211,142,4892,1,2,0:1:0:0:
141,188,6538,53,2,0:0:0:0:
132,168,7087,1,2,0:0:0:0:
202,122,7636,5,2,0:0:0:0:
193,102,7819,1,2,0:0:0:0:
150,208,8184,53,2,0:0:0:0:
141,188,8733,1,2,0:0:0:0:
132,168,9099,1,2,0:0:0:0:
211,142,9465,5,2,0:0:0:0:
202,122,10014,1,2,0:0:0:0:
193,102,10745,1,2,0:1:0:0:
331,158,11294,53,8,1:0:0:0:
181,158,11569,1,8,0:1:0:0:
181,158,11660,2,0,P|254:137|339:164,1,157.499995193482
330,158,12392,6,0,L|324:257,1,89.9999972534181,4|0,3:2|0:0,0:0:0:0:
428,358,12758,2,0,L|422:268,1,89.9999972534181,8|0,0:0|0:0,0:0:0:0:
331,158,13124,1,0,3:0:0:0:
481,169,13306,1,0,0:0:0:0:
327,71,13489,2,0,P|277:83|248:131,1,89.9999972534181,8|0,0:0|0:0,0:0:0:0:
128,129,13855,6,0,L|140:235,1,89.9999972534181,0|0,3:0|0:0,0:0:0:0:
200,379,14221,2,0,L|189:289,1,89.9999972534181,8|0,0:0|0:0,0:0:0:0:
86,305,14587,1,0,3:0:0:0:
293,291,14770,1,0,0:0:0:0:
138,218,14953,2,0,P|174:203|248:222,1,89.9999972534181,8|0,0:0|0:0,0:0:0:0:
288,114,15319,53,0,3:0:0:0:
293,291,15502,1,0,0:0:0:0:
304,132,15684,1,8,0:0:0:0:
307,273,15867,1,0,0:0:0:0:
421,178,16050,5,0,3:0:0:0:
416,355,16233,1,0,0:0:0:0:
405,196,16415,1,8,0:0:0:0:
402,337,16598,1,0,0:0:0:0:
223,239,16782,54,0,P|257:209|301:204,1,89.9999972534181,0|0,3:0|0:0,0:0:0:0:
135,207,17148,2,0,P|133:270|161:308,1,89.9999972534181,8|0,0:0|0:0,0:0:0:0:
174,308,17422,1,0,0:0:0:0:
174,308,17514,5,8,0:0:0:0:
210,118,17697,1,0,0:0:0:0:
22,187,17880,1,0,3:0:0:0:
135,207,18063,1,0,3:0:0:0:
29,384,18245,54,0,L|12:273,1,89.9999972534181,4|0,3:2|0:0,0:0:0:0:
149,118,18611,2,0,L|135:206,1,89.9999972534181,8|0,0:0|0:0,0:0:0:0:
248,223,18977,1,0,3:0:0:0:
22,187,19160,1,0,0:0:0:0:
153,28,19343,2,0,P|100:41|64:95,1,89.9999972534181,8|0,0:0|0:0,0:0:0:0:
248,223,19709,6,0,L|348:212,1,89.9999972534181,0|0,3:0|0:0,0:0:0:0:
501,164,20075,2,0,L|411:173,1,89.9999972534181,8|0,0:0|0:0,0:0:0:0:
322,120,20441,1,0,3:0:0:0:
437,277,20624,1,0,0:0:0:0:
398,62,20806,2,0,P|345:29|284:41,1,89.9999972534181,8|0,0:0|0:0,0:0:0:0:
103,105,21172,53,0,3:0:0:0:
246,55,21355,1,0,0:0:0:0:
120,121,21538,1,8,0:0:0:0:
244,77,21721,1,0,0:0:0:0:
27,170,21904,5,0,3:0:0:0:
170,220,22087,1,0,0:0:0:0:
44,154,22270,1,8,0:0:0:0:
168,198,22453,1,0,0:0:0:0:
17,108,22636,53,0,3:0:0:0:
164,290,22819,1,0,0:0:0:0:
247,72,23002,1,8,0:0:0:0:
143,157,23184,5,0,0:0:0:0:
143,157,23276,1,0,0:0:0:0:
143,157,23367,1,8,0:0:0:0:
33,253,23550,53,0,0:0:0:0:
35,267,23641,1,0,0:0:0:0:
38,282,23732,1,8,0:0:0:0:
41,297,23824,1,0,0:0:0:0:
44,311,23915,1,0,0:0:0:0:
47,326,24007,1,0,0:0:0:0:
50,341,24099,53,4,0:1:0:0:
137,354,24465,1,0,0:0:0:0:
191,285,24831,1,0,0:0:0:0:
158,203,25197,1,0,0:0:0:0:
137,354,25563,5,0,0:0:0:0:
224,367,25928,1,0,0:0:0:0:
278,298,26294,1,0,0:0:0:0:
245,216,26660,1,0,0:0:0:0:
496,331,27026,53,0,0:0:0:0:
410,357,27392,1,0,0:0:0:0:
358,283,27758,1,0,0:0:0:0:
413,211,28124,1,0,0:0:0:0:
410,357,28489,5,0,0:0:0:0:
324,383,28855,1,0,0:0:0:0:
272,309,29221,1,0,0:0:0:0:
327,237,29587,1,0,0:0:0:0:
134,34,29953,53,0,0:0:0:0:
166,118,30319,1,0,0:0:0:0:
82,150,30684,1,0,0:0:0:0:
50,66,31050,1,0,0:0:0:0:
166,118,31416,5,0,0:0:0:0:
198,202,31782,1,0,0:0:0:0:
114,234,32147,1,0,0:0:0:0:
82,150,32513,1,0,0:0:0:0:
465,34,32880,53,0,0:0:0:0:
403,99,33245,1,0,0:0:0:0:
489,123,33611,1,0,0:0:0:0:
465,34,33977,1,0,0:0:0:0:
425,186,34343,6,0,P|370:210|303:188,1,89.9999972534181,4|0,3:2|0:0,0:0:0:0:
327,203,34617,1,0,3:0:0:0:
292,161,34709,2,0,L|286:252,1,89.9999972534181,8|0,0:0|0:0,0:0:0:0:
277,341,34983,1,0,3:0:0:0:
276,362,35075,1,0,3:0:0:0:
201,264,35258,6,0,L|205:190,1,44.999998626709,8|0,0:0|0:0,0:0:0:0:
362,235,35441,2,0,L|359:279,1,44.999998626709,8|0,0:0|0:0,0:0:0:0:
277,341,35624,1,0,3:0:0:0:
277,341,35716,1,0,3:0:0:0:
277,341,35806,54,0,L|283:252,1,75,4|0,3:2|0:0,0:0:0:0:
144,147,36172,2,0,L|148:221,1,75,8|0,0:0|0:0,0:0:0:0:
275,149,36538,2,0,P|332:155|360:190,2,75,0|0|8,3:0|3:0|0:0,0:0:0:0:
206,282,37087,1,0,0:0:0:0:
415,240,37270,6,0,P|447:178|410:89,1,150,0|8,3:0|0:0,0:0:0:0:
276,223,37819,1,0,0:0:0:0:
352,317,38002,1,0,3:0:0:0:
344,164,38184,1,0,3:0:0:0:
184,238,38367,2,0,L|287:227,1,75,8|0,0:0|0:0,0:0:0:0:
93,173,38733,53,0,3:0:0:0:
93,173,38916,1,0,0:0:0:0:
145,86,39099,2,0,P|178:115|191:164,1,75,8|0,0:0|0:0,0:0:0:0:
132,325,39465,5,0,3:0:0:0:
132,325,39648,1,0,0:0:0:0:
184,238,39831,2,0,P|217:267|230:316,1,75,8|0,0:0|0:0,0:0:0:0:
0,266,40197,54,0,L|85:253,1,75,0|0,3:0|0:0,0:0:0:0:
304,144,40563,2,0,L|229:155,1,75,8|0,0:0|0:0,0:0:0:0:
93,173,40928,5,0,3:0:0:0:
272,265,41111,1,0,3:0:0:0:
154,92,41294,1,8,0:0:0:0:
181,284,41477,1,8,0:0:0:0:
181,284,41569,1,0,0:0:0:0:
181,284,41660,54,0,P|208:328|255:351,1,75,0|0,3:0|0:0,0:0:0:0:
317,208,42026,2,0,P|288:231|271:265,1,75,8|0,0:0|0:0,0:0:0:0:
467,336,42392,2,0,L|482:231,2,75,0|0|8,3:0|3:0|0:0,0:0:0:0:
353,366,42941,1,0,0:0:0:0:
405,177,43124,6,0,P|378:138|267:133,1,150,0|8,3:0|0:0,0:0:0:0:
145,179,43672,1,0,0:0:0:0:
254,43,43855,1,0,3:0:0:0:
317,207,44038,1,0,3:0:0:0:
102,101,44221,2,0,L|179:93,1,75,8|0,0:0|0:0,0:0:0:0:
336,125,44587,53,4,3:2:0:0:
212,119,44770,1,0,0:0:0:0:
379,47,44953,1,8,0:0:0:0:
379,47,45044,2,0,P|412:86|416:136,1,75,8|0,0:0|0:0,0:0:0:0:
399,186,45319,5,8,0:0:0:0:
196,260,45502,1,8,0:0:0:0:
196,260,45593,1,8,0:0:0:0:
196,260,45684,1,4,3:2:0:0:
151,23,45867,53,8,0:0:0:0:
151,23,45959,1,0,0:0:0:0:
151,23,46050,2,0,L|156:85,1,60,4|0,3:2|0:0,0:0:0:0:
145,179,46416,2,0,L|138:105,1,60
294,205,46782,5,0,3:0:0:0:
6,71,46965,1,0,3:0:0:0:
257,29,47148,1,0,3:0:0:0:
43,247,47331,1,0,3:0:0:0:
161,188,48977,5,4,3:2:0:0:
228,347,49160,1,0,0:0:0:0:
336,202,49343,1,8,0:0:0:0:
190,268,49526,1,0,0:0:0:0:
317,355,49709,5,0,3:0:0:0:
287,125,49892,1,0,0:0:0:0:
102,257,50075,1,8,0:0:0:0:
384,298,50258,1,0,0:0:0:0:
79,177,50441,53,0,3:0:0:0:
228,347,50624,1,0,0:0:0:0:
372,125,50806,1,8,0:0:0:0:
102,257,50989,1,0,0:0:0:0:
457,246,51172,5,0,3:0:0:0:
11,118,51538,1,8,0:0:0:0:
372,125,51904,53,0,3:0:0:0:
384,298,52087,1,0,0:0:0:0:
280,127,52270,1,8,0:0:0:0:
461,122,52453,1,0,0:0:0:0:
300,274,52636,5,0,3:0:0:0:
325,48,52819,1,0,0:0:0:0:
425,200,53002,1,8,0:0:0:0:
204,176,53184,1,0,0:0:0:0:
417,44,53367,53,0,3:0:0:0:
317,355,53550,1,0,0:0:0:0:
201,91,53733,1,8,0:0:0:0:
461,122,53916,1,0,0:0:0:0:
117,367,54099,5,0,3:0:0:0:
512,199,54465,1,8,0:0:0:0:
497,360,54831,22,0,P|457:372|348:347,1,134.999995880127,4|0,3:2|2:0,0:0:0:0:
353,347,55197,2,0,L|241:353,1,89.9999972534181,8|0,0:0|0:0,0:0:0:0:
48,270,55563,2,0,L|137:265,1,89.9999972534181,0|0,3:0|0:0,0:0:0:0:
278,164,55928,1,8,0:0:0:0:
172,330,56111,1,0,0:0:0:0:
61,182,56294,6,0,P|45:245|56:298,1,89.9999972534181,0|0,3:0|0:0,0:0:0:0:
264,251,56660,2,0,P|280:188|269:135,1,89.9999972534181,8|0,0:0|0:0,0:0:0:0:
143,83,57026,2,0,B|108:98|108:98|19:86,1,89.9999972534181,0|0,3:0|0:0,0:0:0:0:
214,4,57392,1,8,0:0:0:0:
164,184,57575,1,0,0:0:0:0:
375,114,57758,54,0,L|241:121,1,134.999995880127,0|0,3:0|0:2,0:0:0:0:
220,122,58124,2,0,P|211:174|238:225,1,89.9999972534181,8|0,0:0|0:0,0:0:0:0:
465,225,58489,1,0,3:0:0:0:
301,164,58672,1,0,0:0:0:0:
211,304,58855,2,0,B|248:286|248:286|313:290,1,89.9999972534181,8|0,0:0|0:0,0:0:0:0:
440,326,59221,5,0,3:0:0:0:
170,230,59404,1,0,0:0:0:0:
156,375,59587,1,8,0:0:0:0:
380,197,59770,1,0,3:0:0:0:
303,364,59953,53,0,3:0:0:0:
260,151,60136,2,0,L|270:205,1,44.999998626709,8|0,0:0|3:0,0:0:0:0:
368,288,60319,1,8,0:0:0:0:
401,287,60410,1,8,0:0:0:0:
432,274,60501,1,8,0:0:0:0:
455,249,60593,1,8,0:0:0:0:
466,218,60684,21,4,3:2:0:0:
260,151,60867,1,0,0:0:0:0:
416,8,61050,1,8,0:0:0:0:
380,197,61233,1,0,0:0:0:0:
227,61,61416,5,0,3:0:0:0:
472,83,61599,1,0,0:0:0:0:
298,239,61782,1,8,0:0:0:0:
299,13,61965,1,0,0:0:0:0:
377,283,62148,53,0,3:0:0:0:
77,215,62331,1,0,0:0:0:0:
361,70,62514,1,8,0:0:0:0:
267,343,62697,1,0,0:0:0:0:
99,39,62880,5,0,3:0:0:0:
472,83,63245,1,8,0:0:0:0:
146,353,63611,53,0,3:0:0:0:
96,174,63794,1,0,0:0:0:0:
30,367,63977,1,8,0:0:0:0:
210,276,64160,1,0,0:0:0:0:
27,235,64343,5,0,3:0:0:0:
241,370,64526,1,0,0:0:0:0:
251,118,64709,1,8,0:0:0:0:
146,353,64892,1,0,0:0:0:0:
419,283,65075,53,0,3:0:0:0:
188,45,65258,1,0,0:0:0:0:
241,370,65441,1,8,0:0:0:0:
460,196,65624,1,0,0:0:0:0:
160,133,65806,5,8,3:2:0:0:
139,159,65897,1,8,0:0:0:0:
130,191,65988,1,8,0:0:0:0:
133,225,66080,1,8,0:0:0:0:
149,254,66171,1,8,0:0:0:0:
512,281,66355,21,8,0:0:0:0:
512,281,66447,1,8,0:0:0:0:
512,281,66538,2,0,L|493:128,1,134.999995880127,4|0,3:2|2:0,0:0:0:0:
491,116,66904,21,8,0:0:0:0:
401,303,67087,1,0,0:0:0:0:
339,135,67270,1,8,0:0:0:0:
249,284,67453,1,0,0:0:0:0:
196,152,67636,5,8,0:0:0:0:
239,260,67819,1,0,0:0:0:0:
329,159,68002,1,8,0:0:0:0:
391,279,68184,1,0,0:0:0:0:
481,140,68367,2,0,P|429:120|384:129,1,89.9999972534181,8|0,0:0|0:0,0:0:0:0:
183,108,68733,21,8,0:0:0:0:
180,137,68824,1,8,0:0:0:0:
177,167,68915,1,8,0:0:0:0:
175,197,69007,1,8,0:0:0:0:
145,244,69099,5,8,0:0:0:0:
138,188,69190,1,8,0:0:0:0:
132,132,69282,1,8,0:0:0:0:
126,76,69374,1,8,0:0:0:0:
76,40,69465,54,0,L|70:148,1,89.9999972534181,4|0,3:2|0:0,0:0:0:0:
180,287,69831,2,0,L|175:197,1,89.9999972534181,8|0,0:0|0:0,0:0:0:0:
54,292,70197,1,0,3:0:0:0:
260,249,70380,1,0,0:0:0:0:
226,120,70563,2,0,P|166:105|108:135,1,89.9999972534181,8|0,0:0|0:0,0:0:0:0:
0,209,70928,6,0,L|102:210,1,89.9999972534181,0|0,3:0|0:0,0:0:0:0:
260,249,71294,2,0,L|170:248,1,89.9999972534181,8|0,0:0|0:0,0:0:0:0:
106,135,71660,1,0,3:0:0:0:
312,117,71843,1,0,0:0:0:0:
155,46,72026,2,0,P|219:44|270:73,1,89.9999972534181,8|0,0:0|0:0,0:0:0:0:
404,219,72392,53,0,3:0:0:0:
245,173,72575,1,0,0:0:0:0:
399,124,72758,1,8,0:0:0:0:
222,172,72941,1,0,0:0:0:0:
266,276,73124,5,0,3:0:0:0:
312,117,73307,1,0,0:0:0:0:
361,271,73490,1,8,0:0:0:0:
313,94,73673,1,0,0:0:0:0:
134,149,73855,54,0,P|142:217|182:249,1,89.9999972534181,0|0,3:0|0:0,0:0:0:0:
379,180,74221,2,0,P|401:141|399:97,1,89.9999972534181,8|0,0:0|0:0,0:0:0:0:
349,19,74495,1,8,0:0:0:0:
349,19,74587,6,0,L|240:14,1,89.9999972534181,0|0,3:0|0:0,0:0:0:0:
41,79,74953,1,8,0:0:0:0:
74,77,75044,1,8,0:0:0:0:
108,75,75135,1,8,0:0:0:0:
142,73,75227,1,8,0:0:0:0:
176,71,75319,54,0,L|194:191,1,89.9999972534181,4|0,3:2|0:0,0:0:0:0:
94,333,75684,2,0,L|107:243,1,89.9999972534181,8|0,0:0|0:0,0:0:0:0:
308,175,76050,1,0,3:0:0:0:
192,289,76233,1,0,0:0:0:0:
336,350,76416,2,0,P|387:344|425:314,1,89.9999972534181,8|0,0:0|0:0,0:0:0:0:
321,86,76782,6,0,L|306:185,1,89.9999972534181,0|0,3:0|0:0,0:0:0:0:
233,342,77148,2,0,L|246:253,1,89.9999972534181,8|0,0:0|0:0,0:0:0:0:
212,132,77514,1,0,3:0:0:0:
356,267,77697,1,0,0:0:0:0:
460,127,77880,2,0,B|460:172|460:172|433:136,1,89.9999972534181,8|0,0:0|2:0,0:0:0:0:
61,96,81172,38,0,B|147:71|130:125|232:97,1,150,0|8,3:0|0:0,0:0:0:0:
403,61,81904,1,0,3:0:0:0:
421,151,82087,1,0,3:0:0:0:
330,121,82270,2,0,P|316:162|318:205,1,75,8|0,0:0|0:0,0:0:0:0:
299,295,82636,5,0,3:0:0:0:
390,265,82819,2,0,P|404:306|402:349,1,75,8|0,0:0|0:0,0:0:0:0:
216,245,83184,2,0,P|202:204|204:161,1,75,8|0,0:0|3:0,0:0:0:0:
246,46,83550,1,0,3:0:0:0:
143,66,83733,1,8,0:0:0:0:
39,88,83916,1,0,0:0:0:0:
39,88,84008,1,0,0:0:0:0:
39,88,84099,1,0,3:0:0:0:
314,128,84465,53,8,0:0:0:0:
70,222,84831,1,0,3:0:0:0:
114,151,85014,1,0,3:0:0:0:
155,228,85197,2,0,L|245:222,1,75,8|0,0:0|3:0,0:0:0:0:
314,128,85563,5,0,3:0:0:0:
355,51,85746,2,0,L|445:57,1,75,8|0,0:0|0:0,0:0:0:0:
452,58,86020,1,0,0:0:0:0:
452,58,86111,1,8,0:0:0:0:
370,196,86294,2,0,L|444:191,2,75,0|8|8,3:0|0:0|0:0,0:0:0:0:
230,133,86843,1,0,0:0:0:0:
230,133,86934,1,0,0:0:0:0:
230,133,87026,1,0,3:0:0:0:
217,322,87392,53,8,0:0:0:0:
440,384,87758,1,0,3:0:0:0:
504,312,87941,1,0,3:0:0:0:
408,291,88124,2,0,P|367:315|314:301,1,75,8|0,0:0|0:0,0:0:0:0:
440,199,88489,5,0,3:0:0:0:
344,220,88672,2,0,P|303:196|250:210,1,75,8|0,0:0|0:0,0:0:0:0:
235,180,88947,1,0,0:0:0:0:
227,203,89038,1,0,0:0:0:0:
211,222,89129,1,8,0:0:0:0:
190,235,89221,1,0,0:0:0:0:
26,204,89404,53,0,3:0:0:0:
154,158,89587,2,0,L|103:133,1,37.5,8|0,0:0|0:0,0:0:0:0:
37,78,89770,5,8,0:0:0:0:
37,78,89861,1,0,3:0:0:0:
37,78,89953,2,0,P|78:45|137:53,1,89.9999972534181,4|0,3:2|0:0,0:0:0:0:
129,50,90227,1,0,3:0:0:0:
165,84,90319,2,0,L|171:184,1,89.9999972534181,8|0,0:0|0:0,0:0:0:0:
179,256,90593,1,0,3:0:0:0:
182,274,90684,1,0,3:0:0:0:
295,178,90867,6,0,B|276:190|276:190|256:232,1,44.999998626709,8|0,0:0|0:0,0:0:0:0:
254,332,91050,2,0,B|273:342|273:342|320:338,1,44.999998626709,0|0,3:0|0:0,0:0:0:0:
408,291,91233,2,0,B|407:268|407:268|380:230,1,44.999998626709,0|0,3:0|0:0,0:0:0:0:
317,265,91416,38,0,L|461:260,1,134.999995880127,0|0,3:0|2:0,0:0:0:0:
393,67,92880,6,0,P|337:66|305:93,1,75,4|0,3:2|0:0,0:0:0:0:
233,175,93245,2,0,P|177:176|145:149,1,75,8|0,0:0|0:0,0:0:0:0:
55,60,93611,1,0,3:0:0:0:
186,24,93794,1,0,0:0:0:0:
47,162,93977,2,0,L|37:65,1,75,8|0,0:0|0:0,0:0:0:0:
258,91,94343,6,0,P|304:120|305:219,1,150,0|8,3:0|0:0,0:0:0:0:
129,118,94892,1,0,0:0:0:0:
187,320,95075,54,0,L|201:162,1,150,0|8,3:0|0:0,0:0:0:0:
276,283,95624,1,0,0:0:0:0:
90,220,95806,6,0,P|31:221|-3:256,1,75,0|0,3:0|0:0,0:0:0:0:
30,336,96172,2,0,P|89:335|123:300,1,75,8|0,0:0|0:0,0:0:0:0:
276,283,96538,1,0,3:0:0:0:
165,175,96721,1,0,0:0:0:0:
187,320,96904,2,0,L|278:311,1,75,8|0,0:0|0:0,0:0:0:0:
411,221,97270,53,0,3:0:0:0:
276,283,97453,1,0,3:0:0:0:
488,368,97636,1,8,0:0:0:0:
512,379,98002,5,0,3:0:0:0:
242,270,98184,1,0,3:0:0:0:
426,116,98367,1,8,0:0:0:0:
502,257,98550,1,8,0:0:0:0:
502,257,98642,1,0,0:0:0:0:
502,257,98733,54,0,P|468:300|425:312,1,75,0|0,3:0|0:0,0:0:0:0:
272,193,99099,2,0,L|357:187,1,75,8|0,0:0|0:0,0:0:0:0:
426,116,99465,1,0,3:0:0:0:
363,279,99648,1,0,0:0:0:0:
188,209,99831,2,0,P|192:152|225:118,1,75,8|0,0:0|0:0,0:0:0:0:
320,44,100197,5,0,3:0:0:0:
365,187,100380,1,0,0:0:0:0:
205,42,100563,2,0,L|119:54,1,75,8|0,0:0|0:0,0:0:0:0:
83,169,100928,1,0,3:0:0:0:
214,129,101111,1,0,0:0:0:0:
3,133,101294,2,0,P|-5:179|7:217,1,75,8|0,0:0|0:0,0:0:0:0:
27,249,101569,1,0,3:0:0:0:
27,249,101660,1,0,3:0:0:0:
345,254,102026,53,0,3:0:0:0:
149,73,102391,1,0,3:0:0:0:
98,328,102757,1,0,3:0:0:0:
246,230,103124,53,2,0:0:0:0:
164,255,103489,1,2,0:0:0:0:
181,170,103855,1,2,0:0:0:0:
199,94,104221,6,0,P|152:95|112:131,1,75,0|0,0:0|2:0,0:0:0:0:
246,230,104587,5,0,0:0:0:0:
164,255,104770,1,0,0:0:0:0:
181,170,104953,1,0,0:0:0:0:
229,314,105136,1,0,0:0:0:0:
86,238,105319,54,0,P|86:282|108:314,1,75,0|0,0:0|2:0,0:0:0:0:
326,247,105684,2,0,P|326:203|304:171,1,75,0|0,0:0|2:0,0:0:0:0:
264,10,106050,21,4,3:2:0:0:
181,170,106233,1,0,0:0:0:0:
366,118,106416,1,8,0:0:0:0:
118,104,106599,1,0,0:0:0:0:
246,230,106782,5,0,3:0:0:0:
264,10,106965,1,0,0:0:0:0:
94,189,107148,1,8,0:0:0:0:
335,202,107331,1,0,0:0:0:0:
46,43,107514,53,0,3:0:0:0:
206,308,107697,1,0,0:0:0:0:
339,40,107880,1,8,0:0:0:0:
21,129,108063,1,0,0:0:0:0:
400,288,108245,5,0,3:1:0:0:
46,43,108611,1,8,0:0:0:0:
446,162,108977,53,0,3:0:0:0:
246,230,109160,1,0,0:0:0:0:
391,334,109343,1,8,0:0:0:0:
304,158,109526,1,0,0:0:0:0:
206,308,109709,5,0,3:0:0:0:
415,250,109892,1,0,0:0:0:0:
217,146,110075,1,8,0:0:0:0:
249,384,110258,1,0,0:0:0:0:
405,104,110441,53,0,3:0:0:0:
158,213,110624,1,0,0:0:0:0:
463,384,110806,1,8,0:0:0:0:
324,69,110989,1,0,0:0:0:0:
155,384,111172,5,0,3:0:0:0:
489,141,111538,1,8,0:0:0:0:
85,24,111904,22,0,P|64:76|85:155,1,134.999995880127,4|0,3:2|2:0,0:0:0:0:
96,165,112270,2,0,P|186:162|204:162,1,89.9999972534181,8|0,0:0|0:0,0:0:0:0:
309,69,112636,2,0,P|264:70|219:71,1,89.9999972534181,0|0,3:0|0:0,0:0:0:0:
119,247,113002,1,8,0:0:0:0:
270,166,113184,1,0,0:0:0:0:
28,234,113367,6,0,B|29:268|29:268|77:345,1,89.9999972534181,0|0,3:0|0:0,0:0:0:0:
292,357,113733,2,0,B|291:323|291:323|243:246,1,89.9999972534181,8|0,0:0|0:0,0:0:0:0:
175,130,114099,2,0,L|289:134,1,89.9999972534181,0|0,3:0|0:0,0:0:0:0:
412,157,114465,1,8,0:0:0:0:
269,255,114648,1,0,0:0:0:0:
480,207,114831,54,0,L|460:341,1,134.999995880127,0|0,3:0|2:0,0:0:0:0:
454,360,115197,2,0,P|398:371|348:344,1,89.9999972534181,8|0,0:0|0:0,0:0:0:0:
269,255,115563,1,0,3:0:0:0:
292,357,115745,1,0,0:0:0:0:
317,180,115928,2,0,P|266:168|210:189,1,89.9999972534181,8|0,0:0|0:0,0:0:0:0:
88,339,116294,5,0,3:0:0:0:
240,212,116477,1,0,0:0:0:0:
90,164,116660,1,8,0:0:0:0:
239,295,116843,1,0,3:0:0:0:
142,251,117026,53,0,3:0:0:0:
269,255,117209,2,0,L|207:255,1,44.999998626709,8|0,0:0|3:0,0:0:0:0:
26,222,117392,1,8,0:0:0:0:
10,198,117483,1,8,0:0:0:0:
3,171,117574,1,8,0:0:0:0:
5,143,117666,1,8,0:0:0:0:
16,117,117757,21,0,3:0:0:0:
228,52,117941,1,0,0:0:0:0:
142,251,118124,1,8,0:0:0:0:
74,53,118306,1,0,0:0:0:0:
299,110,118489,5,0,3:0:0:0:
90,164,118672,1,0,0:0:0:0:
228,52,118855,1,8,0:0:0:0:
348,244,119038,1,0,0:0:0:0:
185,168,119221,53,0,3:0:0:0:
406,19,119404,1,0,0:0:0:0:
427,266,119587,1,8,0:0:0:0:
228,52,119770,1,0,0:0:0:0:
510,27,119953,5,0,3:0:0:0:
487,364,120319,1,8,0:0:0:0:
333,202,120684,53,0,3:0:0:0:
510,268,120867,1,0,0:0:0:0:
338,364,121050,1,8,0:0:0:0:
420,177,121233,1,0,0:0:0:0:
487,364,121416,5,0,3:0:0:0:
265,303,121599,1,0,0:0:0:0:
357,117,121782,1,8,0:0:0:0:
338,364,121965,1,0,0:0:0:0:
82,286,122148,53,0,3:0:0:0:
333,202,122331,1,0,0:0:0:0:
145,379,122514,1,8,0:0:0:0:
101,88,122697,1,0,0:0:0:0:
265,303,122880,5,8,3:2:0:0:
237,308,122971,1,8,0:0:0:0:
210,314,123062,1,8,0:0:0:0:
182,320,123154,1,8,0:0:0:0:
155,326,123245,1,8,0:0:0:0:
22,114,123428,21,8,0:0:0:0:
22,114,123520,1,8,0:0:0:0:
22,114,123611,2,0,P|18:62|85:9,1,134.999995880127,4|0,3:2|2:0,0:0:0:0:
104,7,123977,21,8,0:0:0:0:
310,134,124160,1,0,0:0:0:0:
101,88,124343,1,8,0:0:0:0:
287,46,124526,1,0,0:0:0:0:
86,178,124709,5,8,0:0:0:0:
221,307,124892,1,0,0:0:0:0:
94,274,125075,1,8,0:0:0:0:
230,202,125258,1,0,0:0:0:0:
50,355,125441,2,0,P|103:366|152:343,1,89.9999972534181,8|0,0:0|0:0,0:0:0:0:
238,158,125806,21,8,0:0:0:0:
268,136,125897,1,8,0:0:0:0:
304,128,125988,1,8,0:0:0:0:
340,135,126080,1,8,0:0:0:0:
388,130,126172,5,8,0:0:0:0:
371,183,126263,1,8,0:0:0:0:
383,237,126354,1,8,0:0:0:0:
420,278,126446,1,8,0:0:0:0:
465,246,126538,6,0,L|479:376,2,112.5,4|0|0,3:2|3:0|3:0,0:0:0:0:
502,117,127270,1,4,0:0:0:0:
383,237,127453,1,0,0:0:0:0:
273,126,127636,54,0,P|219:121|164:153,2,112.5,0|0|0,3:0|3:0|3:0,0:0:0:0:
175,273,128367,1,8,0:0:0:0:
82,125,128550,1,8,0:0:0:0:
82,125,128642,1,0,0:0:0:0:
82,125,128733,6,0,L|104:11,2,112.5,0|0|0,3:0|3:0|3:0,0:0:0:0:
196,24,129465,1,8,0:0:0:0:
7,66,129648,1,8,0:0:0:0:
185,213,129831,54,0,L|163:99,2,112.5,0|0|0,3:0|3:0|3:0,0:0:0:0:
274,329,130563,1,4,3:2:0:0:
241,309,130654,1,0,3:0:0:0:
205,300,130745,1,0,3:0:0:0:
168,303,130837,1,0,3:0:0:0:
133,316,130928,5,4,3:2:0:0:
61,145,131203,1,0,3:0:0:0:
39,355,131477,1,0,3:0:0:0:
39,355,131569,1,0,0:0:0:0:
39,355,131660,2,0,L|-15:372,3,37.5,8|0|0|0,0:0|0:0|0:0|0:0,0:0:0:0:
133,316,132026,2,0,L|187:333,3,37.5,0|0|0|0,3:0|0:0|0:0|3:0,0:0:0:0:
49,253,132392,2,0,L|-5:270,3,37.5,0|0|0|0,0:0|0:0|3:0|0:0,0:0:0:0:
149,225,132758,1,0,1:0:0:0:
195,227,132849,1,0,1:0:0:0:
242,230,132940,1,0,1:0:0:0:
289,233,133032,1,0,1:0:0:0:
336,235,133124,53,0,1:0:0:0:
508,84,133398,1,0,1:0:0:0:
284,38,133672,1,0,1:0:0:0:
367,242,134221,5,8,0:0:0:0:
494,51,134495,1,8,0:0:0:0:
462,31,134587,1,0,1:0:0:0:
431,52,134678,1,0,1:0:0:0:
395,62,134769,1,0,1:0:0:0:
358,59,134861,1,0,1:0:0:0:
331,89,134953,53,0,3:0:0:0:
305,77,135044,1,0,3:0:0:0:
277,74,135135,1,0,3:0:0:0:
250,80,135227,1,0,3:0:0:0:
226,94,135319,1,6,3:2:0:0:
55,277,135684,37,0,0:0:0:0:
54,262,136050,1,0,0:0:0:0:
53,247,136416,1,0,0:0:0:0:
52,231,136782,1,0,0:0:0:0:
53,247,137148,1,0,0:0:0:0:
54,262,137514,1,0,0:0:0:0:
55,277,137880,1,0,0:0:0:0:
380,75,138245,5,2,0:0:0:0:
141,308,138611,53,0,0:0:0:0:
140,293,138977,1,0,0:0:0:0:
139,278,139343,1,0,0:0:0:0:
138,262,139709,1,0,0:0:0:0:
139,278,140075,1,0,0:0:0:0:
140,293,140441,1,0,0:0:0:0:
141,308,140807,1,0,0:0:0:0:
380,75,141172,5,2,0:0:0:0:
466,257,141904,1,2,0:0:0:0:
265,240,142636,1,2,0:0:0:0:
372,179,143276,5,0,3:0:0:0:
372,179,143367,1,0,3:0:0:0:
372,179,143459,1,0,3:0:0:0:
372,179,143550,2,0,L|366:227,1,37.5,8|0,0:0|0:0,0:0:0:0:
281,327,143733,2,0,L|276:289,1,37.5,8|0,0:0|0:0,0:0:0:0:
255,138,143916,1,0,3:0:0:0:
255,138,144008,1,0,3:0:0:0:
255,138,144099,53,4,3:2:0:0:
161,249,144282,1,0,0:0:0:0:
363,310,144465,1,0,3:0:0:0:
173,144,144648,1,0,0:0:0:0:
202,362,144831,5,0,3:0:0:0:
462,220,145014,1,0,3:0:0:0:
210,66,145197,1,0,3:0:0:0:
292,212,145380,1,0,3:0:0:0:
370,151,147758,5,4,3:2:0:0:
258,275,147940,1,0,0:0:0:0:
422,309,148123,1,8,0:0:0:0:
370,151,148306,1,0,0:0:0:0:
330,334,148489,5,0,3:0:0:0:
503,114,148672,1,0,0:0:0:0:
226,75,148855,1,8,0:0:0:0:
422,309,149038,1,0,0:0:0:0:
294,20,149221,53,0,3:0:0:0:
156,345,149404,1,0,0:3:0:0:
511,285,149587,1,8,0:0:0:0:
157,132,149770,1,0,0:0:0:0:
335,377,149953,5,0,3:0:0:0:
446,26,150318,1,8,0:0:0:0:
91,187,150684,53,0,3:0:0:0:
244,97,150867,1,0,0:0:0:0:
247,275,151050,1,8,0:0:0:0:
121,108,151233,1,0,0:0:0:0:
326,133,151416,5,0,3:0:0:0:
178,333,151599,1,0,0:0:0:0:
33,119,151782,1,8,0:0:0:0:
244,97,151965,1,0,0:0:0:0:
88,332,152148,53,0,3:0:0:0:
175,37,152331,1,0,0:0:0:0:
386,259,152514,1,8,0:0:0:0:
88,332,152697,1,0,0:0:0:0:
409,19,152879,5,0,3:0:0:0:
258,384,153245,1,8,0:0:0:0:
13,274,153611,22,0,P|70:241|135:251,1,134.999995880127,4|0,3:2|2:0,0:0:0:0:
152,260,153977,2,0,L|176:366,1,89.9999972534181,8|0,0:0|0:0,0:0:0:0:
345,384,154343,2,0,L|325:296,1,89.9999972534181,0|0,3:0|0:0,0:0:0:0:
222,206,154709,1,8,0:0:0:0:
426,238,154892,1,0,0:0:0:0:
272,105,155075,6,0,P|253:148|273:217,1,89.9999972534181,0|0,3:0|0:0,0:0:0:0:
512,269,155440,2,0,P|515:224|497:184,1,89.9999972534181,8|0,0:0|0:0,0:0:0:0:
254,297,155806,2,0,L|366:285,1,89.9999972534181,0|0,3:0|0:0,0:0:0:0:
435,82,156172,1,8,0:0:0:0:
426,238,156355,1,0,0:0:0:0:
288,121,156538,54,0,P|230:87|164:95,1,134.999995880127,0|0,3:0|2:0,0:0:0:0:
141,106,156904,2,0,L|45:98,1,89.9999972534181,8|0,0:0|0:0,0:0:0:0:
12,8,157270,1,0,3:0:0:0:
81,193,157453,1,0,0:0:0:0:
244,23,157636,2,0,P|309:27|344:62,1,89.9999972534181,8|0,0:0|0:0,0:0:0:0:
375,142,158001,5,0,3:0:0:0:
213,174,158184,1,0,0:0:0:0:
426,257,158367,1,8,0:0:0:0:
201,313,158550,1,0,3:0:0:0:
478,374,158733,53,0,3:0:0:0:
156,242,158916,2,0,L|222:243,1,44.999998626709,8|0,3:2|3:0,0:0:0:0:
463,166,159099,1,8,0:0:0:0:
468,138,159190,1,8,0:0:0:0:
464,110,159281,1,8,0:0:0:0:
450,86,159373,1,8,0:0:0:0:
429,67,159464,21,4,3:2:0:0:
205,88,159648,1,0,0:0:0:0:
426,257,159831,1,8,0:0:0:0:
345,38,160014,1,0,0:0:0:0:
156,242,160197,5,0,3:0:0:0:
375,142,160379,1,0,0:0:0:0:
130,15,160562,1,8,0:0:0:0:
72,282,160745,1,0,0:0:0:0:
265,28,160928,53,0,3:0:0:0:
6,132,161111,1,0,0:0:0:0:
213,320,161294,1,8,0:0:0:0:
130,15,161477,1,0,0:0:0:0:
14,349,161660,5,0,3:0:0:0:
474,218,162026,1,8,0:0:0:0:
45,44,162392,53,0,3:0:0:0:
151,217,162575,1,0,0:0:0:0:
6,132,162757,1,8,0:0:0:0:
208,42,162940,1,0,0:0:0:0:
74,297,163123,5,0,3:0:0:0:
130,15,163306,1,0,0:0:0:0:
305,280,163489,1,8,0:0:0:0:
59,210,163672,1,0,0:0:0:0:
415,78,163855,53,0,3:0:0:0:
188,376,164038,1,0,0:0:0:0:
45,44,164221,1,8,0:0:0:0:
425,170,164404,1,0,0:0:0:0:
59,210,164587,5,8,3:2:0:0:
84,182,164678,1,8,0:0:0:0:
117,165,164769,1,8,0:0:0:0:
154,161,164861,1,8,0:0:0:0:
191,169,164953,1,8,0:0:0:0:
58,370,165136,21,8,0:0:0:0:
58,370,165227,1,8,0:0:0:0:
58,370,165318,2,0,L|58:235,1,134.999995880127,0|0,3:0|2:0,0:0:0:0:
59,210,165684,21,8,0:0:0:0:
143,335,165867,1,0,0:0:0:0:
133,90,166050,5,8,0:0:0:0:
194,264,166233,1,0,0:0:0:0:
256,32,166416,53,8,0:0:0:0:
256,208,166599,1,0,0:0:0:0:
379,90,166782,5,8,0:0:0:0:
318,264,166965,1,0,0:0:0:0:
453,210,167148,53,8,0:0:0:0:
369,335,167331,1,0,0:0:0:0:
172,185,167514,5,8,0:0:0:0:
340,185,167697,1,0,0:0:0:0:
175,97,167879,21,8,3:2:0:0:
212,96,167970,1,8,3:0:0:0:
249,96,168061,1,8,3:0:0:0:
287,95,168153,1,8,3:0:0:0:
324,95,168245,2,0,L|350:246,1,134.999995880127,4|0,3:2|2:0,0:0:0:0:
354,262,168611,21,8,0:0:0:0:
173,154,168794,1,0,0:0:0:0:
339,154,168977,5,8,0:0:0:0:
158,262,169160,1,0,0:0:0:0:
460,280,169343,53,8,0:0:0:0:
74,108,169526,1,0,0:0:0:0:
438,108,169709,5,8,0:0:0:0:
52,280,169892,1,0,0:0:0:0:
512,186,170075,53,8,0:0:0:0:
0,186,170258,1,0,0:0:0:0:
429,348,170441,5,8,3:2:0:0:
431,288,170532,1,8,0:0:0:0:
433,228,170624,1,8,0:0:0:0:
436,168,170715,1,8,0:0:0:0:
438,108,170806,1,8,0:0:0:0:
74,108,170989,37,0,0:0:0:0:
74,108,171081,1,0,0:0:0:0:
74,108,171172,2,0,P|125:78|160:78,1,75,4|0,3:2|0:0,0:0:0:0:
103,340,171538,2,0,L|84:257,1,75,4|0,0:2|0:0,0:0:0:0:
0,150,171904,1,0,3:0:0:0:
168,268,172087,1,0,0:0:0:0:
247,124,172270,2,0,L|339:124,1,75,4|0,0:2|0:0,0:0:0:0:
446,29,172636,54,0,L|467:160,1,112.5,0|0,3:0|2:0,0:0:0:0:
470,166,173001,2,0,P|427:183|374:158,1,75,4|0,0:2|0:0,0:0:0:0:
247,124,173367,6,0,L|226:255,1,112.5,0|0,3:0|2:0,0:0:0:0:
223,261,173733,2,0,P|266:278|319:253,1,75,4|0,0:2|0:0,0:0:0:0:
431,355,174099,54,0,L|433:270,1,75,0|0,3:0|0:0,0:0:0:0:
372,133,174465,2,0,L|370:207,1,75,4|0,0:2|0:0,0:0:0:0:
470,166,174831,1,0,3:0:0:0:
269,179,175014,1,0,0:0:0:0:
416,60,175197,2,0,P|357:48|314:66,1,75,4|0,0:2|0:0,0:0:0:0:
188,137,175562,6,0,P|178:204|218:251,1,112.5,0|0,3:0|2:0,0:0:0:0:
215,249,175928,2,0,L|310:237,1,75,4|0,0:2|0:0,0:0:0:0:
318,233,176203,1,8,0:0:0:0:
318,233,176294,53,0,3:0:0:0:
195,345,176477,1,0,0:0:0:0:
359,350,176660,2,0,P|328:329|272:331,1,75,0|0,3:0|3:0,0:0:0:0:
122,384,177026,6,0,P|113:338|132:296,1,75,4|0,3:2|0:0,0:0:0:0:
253,100,177392,2,0,P|262:146|243:188,1,75,4|0,0:2|0:0,0:0:0:0:
52,253,177757,1,0,3:0:0:0:
176,130,177940,1,0,0:0:0:0:
36,54,178123,2,0,L|31:138,1,75,4|0,0:2|0:0,0:0:0:0:
13,344,178489,54,0,L|133:324,1,112.5,0|0,3:0|2:0,0:0:0:0:
148,320,178855,2,0,P|190:337|234:331,1,75,4|0,0:2|0:0,0:0:0:0:
395,230,179221,6,0,L|275:210,1,112.5,0|0,3:0|2:0,0:0:0:0:
260,206,179587,2,0,P|218:223|174:217,1,75,4|0,0:2|0:0,0:0:0:0:
233,44,179953,54,0,L|316:53,1,75,0|0,3:0|0:0,0:0:0:0:
486,26,180318,2,0,L|411:17,1,75,4|0,0:2|0:0,0:0:0:0:
294,137,180684,1,0,3:0:0:0:
474,184,180867,1,0,0:0:0:0:
373,91,181050,2,0,P|384:145|369:187,1,75,4|0,0:2|0:0,0:0:0:0:
186,286,181416,5,0,3:0:0:0:
294,137,181599,1,8,0:0:0:0:
366,358,181782,1,8,0:0:0:0:
202,199,181965,1,0,0:0:0:0:
202,199,182056,1,0,3:0:0:0:
202,199,182148,1,0,3:0:0:0:
461,298,182331,53,0,0:0:0:0:
463,260,182422,1,0,0:0:0:0:
466,223,182513,1,0,0:0:0:0:
469,185,182605,1,0,0:0:0:0:
472,148,182696,1,0,0:0:0:0:
475,111,182788,1,0,0:0:0:0:
478,73,182879,6,0,L|368:58,1,89.9999972534181,12|0,0:2|0:0,0:0:0:0:
202,199,183245,2,0,L|291:186,1,89.9999972534181,8|0,0:0|0:0,0:0:0:0:
266,71,183611,5,8,0:0:0:0:
239,306,183794,1,0,0:0:0:0:
469,185,183977,2,0,P|425:155|374:157,1,89.9999972534181,8|0,0:0|0:0,0:0:0:0:
146,280,184343,53,8,0:0:0:0:
383,231,184526,1,0,0:0:0:0:
115,143,184709,1,8,0:0:0:0:
363,62,184892,1,0,0:0:0:0:
239,306,185075,6,0,L|136:304,1,89.9999972534181,8|0,0:0|0:0,0:0:0:0:
16,115,185440,2,0,L|105:113,1,89.9999972534181,8|0,0:0|0:0,0:0:0:0:
252,17,185806,54,0,P|279:69|276:116,1,89.9999972534181,8|0,0:0|0:0,0:0:0:0:
87,225,186172,2,0,P|91:180|114:142,1,89.9999972534181,8|0,0:0|0:0,0:0:0:0:
363,62,186538,5,8,0:0:0:0:
183,212,186721,1,0,0:0:0:0:
52,51,186904,2,0,L|152:51,1,89.9999972534181,8|0,0:0|0:0,0:0:0:0:
143,298,187270,53,8,0:0:0:0:
262,97,187453,1,0,0:0:0:0:
357,332,187636,1,8,0:0:0:0:
87,225,187818,1,0,0:0:0:0:
87,225,187910,1,8,0:0:0:0:
87,225,188001,1,0,3:0:0:0:
340,128,188184,5,0,0:0:0:0:
243,359,188367,1,8,0:0:0:0:
236,314,188458,1,0,0:0:0:0:
230,269,188549,1,0,0:0:0:0:
224,225,188641,1,0,0:0:0:0:
218,180,188732,5,12,0:2:0:0:
393,210,188916,1,0,0:0:0:0:
236,314,189099,53,8,0:0:0:0:
463,363,189282,1,0,0:0:0:0:
202,321,189465,5,8,0:0:0:0:
429,214,189648,1,0,0:0:0:0:
184,187,189831,53,8,0:0:0:0:
428,65,190014,1,0,0:0:0:0:
125,129,190197,6,0,P|98:200|145:259,1,157.499995193482,8|0,0:0|0:0,0:0:0:0:
219,210,190562,2,0,L|329:199,1,104.999996795654,8|0,0:0|0:0,0:0:0:0:
428,65,190928,53,8,0:0:0:0:
355,279,191111,1,0,0:0:0:0:
217,67,191294,5,8,0:0:0:0:
131,304,191477,1,0,0:0:0:0:
0,98,191660,53,8,0:0:0:0:
122,343,191843,1,0,0:0:0:0:
208,28,192026,5,8,0:0:0:0:
346,318,192209,1,0,0:0:0:0:
485,79,192392,54,0,P|413:62|332:110,1,157.499995193482,8|0,0:0|0:0,0:0:0:0:
317,182,192757,2,0,L|343:324,1,104.999996795654,8|0,0:0|0:0,0:0:0:0:
512,378,193123,5,8,0:0:0:0:
345,0,193306,1,0,0:0:0:0:
345,0,193398,1,0,0:0:0:0:
345,0,193489,1,8,0:0:0:0:
101,333,193672,1,0,0:0:0:0:
101,333,193764,1,0,0:0:0:0:
101,333,193855,1,8,0:0:0:0:
327,149,194038,53,0,0:0:0:0:
282,154,194129,1,0,0:0:0:0:
237,160,194220,1,0,0:0:0:0:
193,165,194312,1,0,0:0:0:0:
148,171,194403,1,0,0:0:0:0:
103,176,194495,1,0,0:0:0:0:
59,182,194587,22,0,L|54:217,2,22.4999993133545,2|0|0,0:0|0:0|0:0,0:0:0:0:
