osu file format v14

[General]
AudioFilename: 15. MONSTER.mp3
AudioLeadIn: 0
PreviewTime: 146111
Countdown: 0
SampleSet: Normal
StackLeniency: 0.3
Mode: 0
LetterboxInBreaks: 0
WidescreenStoryboard: 1

[Editor]
DistanceSpacing: 1.2
BeatDivisor: 4
GridSize: 4
TimelineZoom: 0.6999997

[Metadata]
Title:MONSTER
TitleUnicode:MONSTER
Artist:Reol
ArtistUnicode:れをる
Creator:handsome
Version:EASY
Source:
Tags:umetora reworu gokusaishoku -kevincela- regraz sharkie bearizm vinxis asahina momoko mokori fort byfar れをる 極彩色 梅とら
BeatmapID:822095
BeatmapSetID:366440

[Difficulty]
HPDrainRate:2
CircleSize:2.6
OverallDifficulty:2
ApproachRate:2
SliderMultiplier:0.8
SliderTickRate:1

[Events]
//Background and Video events
0,0,"14.jpg",0,0
//Break Periods
2,141372,142539
//Storyboard Layer 0 (Background)
//Storyboard Layer 1 (Fail)
//Storyboard Layer 2 (Pass)
//Storyboard Layer 3 (Foreground)
//Storyboard Sound Samples

[TimingPoints]
685,365.853658536585,4,2,1,40,1,0
685,-125,4,2,1,40,0,0
12392,-100,4,1,1,70,0,0
24099,-100,4,3,1,40,0,0
34343,-100,4,1,1,70,0,0
35806,-100,4,2,1,60,0,0
46050,-100,4,2,1,65,0,0
48977,-100,4,1,1,75,0,1
69465,-100,4,1,1,70,0,0
81172,-100,4,2,1,50,0,0
89953,-100,4,2,1,70,0,0
91416,-100,4,2,1,40,0,0
92880,-100,4,2,1,60,0,0
103124,-100,4,2,1,40,0,0
104221,-100,4,1,1,50,0,0
106050,-100,4,1,1,75,0,1
126538,-100,4,2,1,65,0,0
135319,-100,4,2,1,55,0,0
143276,-100,4,2,1,65,0,0
147758,365.853658536585,4,1,1,75,1,1
168611,-100,4,1,1,85,0,1
171172,-100,4,1,1,70,0,0
182879,-100,4,1,1,80,0,0
194587,-100,4,2,1,50,0,0

[Colours]
Combo1 : 255,47,52
Combo2 : 183,183,183
Combo3 : 118,192,220
Combo4 : 91,109,236
Combo5 : 210,38,253

[HitObjects]
91,63,685,6,0,P|210:29|159:205,1,384,2|2,0:0|0:0,0:0:0:0:
32,270,3611,2,0,B|32:323|70:357|70:357|118:360|156:344|188:299,1,224,2|2,0:0|0:1,0:0:0:0:
421,63,6538,6,0,P|302:29|353:205,1,384,2|2,0:0|0:0,0:0:0:0:
480,270,9465,2,0,B|479:323|441:357|441:357|393:360|355:344|323:299,1,224,2|2,0:0|0:1,0:0:0:0:
256,221,11294,54,0,L|256:149,1,64,8|0,1:0|0:0,0:0:0:0:
96,47,12392,6,0,P|36:96|36:174,1,160,4|0,3:2|3:0,0:0:0:0:
114,230,13489,1,8,0:0:0:0:
193,176,13855,2,0,L|446:180,1,240,0|8,3:0|0:0,0:0:0:0:
486,260,15319,6,0,L|483:340,1,80,0|8,3:0|0:0,0:0:0:0:
389,363,16050,2,0,L|386:283,1,80,0|8,3:0|0:0,0:0:0:0:
293,256,16782,2,0,L|290:336,1,80,0|8,3:0|0:0,0:0:0:0:
196,359,17514,2,0,L|193:279,1,80,8|0,0:0|3:0,0:0:0:0:
188,182,18245,54,0,P|220:101|316:108,1,160,4|0,3:2|3:0,0:0:0:0:
370,134,19343,1,8,0:0:0:0:
356,229,19709,2,0,B|312:267|312:267|128:264,1,240,0|8,3:0|0:0,0:0:0:0:
70,193,21172,6,0,L|-8:229,2,80,0|8|0,3:0|0:0|3:0,0:0:0:0:
157,152,22270,1,8,0:0:0:0:
238,101,22636,2,0,L|316:137,2,80,0|8|8,3:0|0:0|0:0,0:0:0:0:
151,60,23733,2,0,L|73:96,1,80,8|4,0:0|0:1,0:0:0:0:
35,179,24465,38,0,B|125:291|125:291|336:204|336:204|465:376,1,560,0|0,0:0|0:0,0:0:0:0:
495,270,27392,6,0,B|364:95|364:95|155:182|155:182|71:78,1,560,0|0,0:0|0:0,0:0:0:0:
151,24,30319,54,0,B|337:262|337:262|178:346|178:346|119:273,1,560,0|0,0:0|0:0,0:0:0:0:
88,198,33245,6,0,P|27:201|-8:217,2,80,0|0|0,0:0|0:0|0:0,0:0:0:0:
183,207,34343,2,0,L|357:188,1,160,4|0,3:2|3:0,0:0:0:0:
432,222,35441,1,8,0:0:0:0:
500,154,35806,6,0,P|510:93|437:12,1,160,4|0,3:2|3:0,0:0:0:0:
366,58,36904,1,8,0:0:0:0:
282,106,37270,2,0,L|105:89,2,160,0|0|0,3:0|3:0|3:0,0:0:0:0:
359,162,39099,53,8,0:0:0:0:
412,241,39465,2,0,L|509:229,2,80,0|8|0,3:0|0:0|3:0,0:0:0:0:
338,302,40563,1,8,0:0:0:0:
245,277,40928,2,0,P|201:277|164:296,1,80,0|8,3:0|0:0,0:0:0:0:
100,360,41660,6,0,P|64:328|62:217,1,160,0|0,3:0|3:0,0:0:0:0:
154,208,42758,1,8,0:0:0:0:
239,163,43124,2,0,L|412:176,2,160,0|0|4,3:0|3:0|3:2,0:0:0:0:
149,128,44953,54,0,P|99:124|73:97,1,80,8|8,0:0|0:0,0:0:0:0:
114,16,45684,2,0,P|163:19|189:46,1,80,4|4,3:2|3:2,0:0:0:0:
245,114,46416,1,0,0:0:0:0:
321,55,46782,2,0,L|451:47,1,120,0|0,3:0|3:0,0:0:0:0:
80,285,48977,22,0,P|146:319|221:199,1,240,4|8,3:2|0:0,0:0:0:0:
167,128,50441,2,0,L|76:120,2,80,0|8|0,3:0|0:0|3:0,0:0:0:0:
263,114,51538,1,8,0:0:0:0:
329,45,51904,6,0,P|395:11|470:131,1,240,0|8,3:0|0:0,0:0:0:0:
416,202,53368,2,0,L|325:210,2,80,0|8|0,3:0|0:0|3:0,0:0:0:0:
449,291,54465,2,0,L|358:299,1,80,8|4,0:0|3:2,0:0:0:0:
287,349,55197,22,0,P|245:311|133:315,1,160,8|8,0:0|0:0,0:0:0:0:
58,348,56294,2,0,L|46:265,1,80,0|8,3:0|0:0,0:0:0:0:
113,199,57026,2,0,L|125:116,1,80,0|8,3:0|0:0,0:0:0:0:
168,34,57758,6,0,P|231:14|299:77,1,160,0|0,3:0|3:0,0:0:0:0:
255,156,58855,1,8,0:0:0:0:
343,193,59221,2,0,L|439:180,1,80,0|8,3:0|0:0,0:0:0:0:
473,100,59953,2,0,L|377:87,1,80,0|8,3:0|0:0,0:0:0:0:
324,22,60684,6,0,B|222:23|222:23|184:49|184:49|81:51,1,240,4|8,3:2|0:0,0:0:0:0:
7,96,62148,2,0,P|-5:51|3:13,2,80,0|8|0,3:0|0:0|3:0,0:0:0:0:
90,143,63245,1,8,0:0:0:0:
49,230,63611,6,0,B|151:231|151:231|189:257|189:257|292:259,1,240,0|8,3:0|0:0,0:0:0:0:
366,304,65075,2,0,P|378:259|370:221,2,80,0|8|8,3:0|0:0|3:2,0:0:0:0:
283,353,66172,2,0,L|192:348,1,80,8|4,0:0|3:2,0:0:0:0:
136,279,66904,38,0,L|48:289,2,80,8|8|8,0:0|0:0|0:0,0:0:0:0:
200,207,68002,1,8,0:0:0:0:
269,141,68368,2,0,L|357:151,2,80,8|8|8,0:0|0:0|0:0,0:0:0:0:
220,58,69465,54,0,P|156:46|80:114,1,160,4|0,3:2|3:0,0:0:0:0:
115,192,70563,1,8,0:0:0:0:
38,249,70928,2,0,B|18:366|18:366|148:347,1,240,0|8,3:0|0:0,0:0:0:0:
213,289,72392,6,0,P|255:277|303:279,1,80,0|8,3:0|0:0,0:0:0:0:
381,309,73124,2,0,P|420:308|459:296,1,80,0|8,3:0|0:0,0:0:0:0:
456,200,73855,2,0,P|414:188|366:190,1,80,0|8,3:0|0:0,0:0:0:0:
288,220,74587,2,0,P|248:219|209:207,1,80,0|8,3:0|0:0,0:0:0:0:
114,222,75319,54,0,L|123:56,1,160,4|0,3:2|3:0,0:0:0:0:
208,20,76416,1,8,0:0:0:0:
293,64,76782,2,0,P|369:37|458:150,1,240,0|8,3:0|0:0,0:0:0:0:
442,240,78245,1,0,0:0:0:0:
83,70,81172,53,0,3:0:0:0:
176,49,81538,2,0,L|352:62,1,160,8|8,0:0|0:0,0:0:0:0:
424,98,82636,2,0,P|441:149|412:219,2,120,0|8|8,3:0|0:0|0:0,0:0:0:0:
335,60,84099,5,0,3:0:0:0:
263,124,84465,2,0,L|87:137,1,160,8|8,0:0|0:0,0:0:0:0:
18,173,85563,2,0,P|1:224|30:294,2,120,0|8|8,3:0|0:0|0:0,0:0:0:0:
104,135,87026,53,0,3:0:0:0:
176,199,87392,2,0,L|352:212,1,160,8|8,0:0|0:0,0:0:0:0:
421,248,88489,2,0,P|438:299|409:369,2,120,0|8|8,3:0|0:0|0:0,0:0:0:0:
335,210,89953,6,0,L|242:206,1,80,4|8,3:2|0:0,0:0:0:0:
179,147,90684,2,0,L|99:150,2,80,0|0|0,3:0|3:0|3:0,0:0:0:0:
503,353,92880,6,0,P|429:357|381:275,1,160,4|0,3:2|3:0,0:0:0:0:
423,207,93977,1,8,0:0:0:0:
375,123,94343,2,0,L|207:96,2,160,0|0|0,3:0|3:0|3:0,0:0:0:0:
457,73,96172,53,8,0:0:0:0:
507,154,96538,2,0,L|494:236,1,80,0|8,3:0|0:0,0:0:0:0:
414,286,97270,2,0,P|371:266|328:271,1,80,0|8,3:0|0:0,0:0:0:0:
251,306,98002,2,0,P|208:326|165:321,1,80,0|8,3:0|0:0,0:0:0:0:
83,350,98733,6,0,L|44:185,1,160,0|0,3:0|3:0,0:0:0:0:
82,105,99831,1,8,0:0:0:0:
171,139,100197,2,0,P|243:150|319:96,2,160,0|0|0,3:0|3:0|3:0,0:0:0:0:
128,53,102026,54,0,L|42:50,2,80,0|0|0,3:0|3:0|3:0,0:0:0:0:
225,48,103124,1,2,0:0:0:0:
304,100,103489,2,0,P|327:134|361:156,1,80,2|2,0:0|0:0,0:0:0:0:
412,235,104221,6,0,P|449:194|451:157,2,80
370,321,105319,2,0,L|287:306,1,80
200,278,106050,6,0,P|129:302|74:176,1,240,4|8,3:2|0:0,0:0:0:0:
99,84,107514,2,0,L|2:97,2,80,0|8|0,3:0|0:0|3:1,0:0:0:0:
170,148,108611,1,8,0:0:0:0:
202,57,108977,6,0,P|273:33|328:159,1,240,0|8,3:0|0:0,0:0:0:0:
303,251,110441,2,0,L|400:238,2,80,0|8|0,3:0|0:0|3:0,0:0:0:0:
212,282,111538,2,0,L|123:270,1,80,8|4,0:0|3:2,0:0:0:0:
161,179,112270,22,0,P|175:122|270:91,1,160,8|8,0:0|0:0,0:0:0:0:
354,55,113367,2,0,L|372:136,1,80,0|8,3:0|0:0,0:0:0:0:
446,193,114099,2,0,L|428:274,1,80,0|8,3:0|0:0,0:0:0:0:
362,340,114831,6,0,L|196:327,1,160,0|0,3:0|3:0,0:0:0:0:
110,355,115928,1,8,0:0:0:0:
34,295,116294,2,0,P|18:250|21:202,1,80,0|8,3:0|0:0,0:0:0:0:
107,183,117026,2,0,P|123:138|120:90,1,80,0|8,3:0|0:0,0:0:0:0:
70,25,117758,6,0,B|164:7|164:7|307:28,1,240,0|8,3:0|0:0,0:0:0:0:
385,83,119221,2,0,P|402:47|403:7,2,80,0|8|0,3:0|0:0|3:0,0:0:0:0:
322,156,120319,1,8,0:0:0:0:
352,246,120684,6,0,B|258:228|258:228|115:249,1,240,0|8,3:0|0:0,0:0:0:0:
37,304,122148,2,0,P|19:268|19:228,2,80,0|8|8,3:0|0:0|3:2,0:0:0:0:
127,337,123245,2,0,L|217:324,1,80,8|4,0:0|3:2,0:0:0:0:
272,255,123977,38,0,L|364:278,2,80,8|8|8,0:0|0:0|0:0,0:0:0:0:
181,221,125075,1,8,0:0:0:0:
107,159,125441,2,0,L|15:182,2,80,8|8|8,0:0|0:0|0:0,0:0:0:0:
177,93,126538,6,0,P|204:142|204:156,2,60,4|0|0,3:2|3:0|3:0,0:0:0:0:
33,74,127636,2,0,P|6:25|6:11,2,60,0|0|0,3:0|3:0|3:0,0:0:0:0:
156,147,128733,54,0,L|234:138,2,60,0|0|0,3:0|3:0|3:0,0:0:0:0:
58,253,129831,2,0,L|-20:244,2,60,0|0|0,3:0|3:0|3:0,0:0:0:0:
187,315,130928,6,0,L|357:307,1,160,4|8,3:2|0:0,0:0:0:0:
439,335,132026,1,0,3:0:0:0:
507,267,132392,2,0,P|511:212|498:180,1,80,0|0,0:0|1:0,0:0:0:0:
441,115,133124,2,0,L|503:103,2,60,0|0|0,1:0|1:0|1:0,0:0:0:0:
306,63,134221,6,0,L|244:51,2,60,8|8|0,0:0|0:0|1:0,0:0:0:0:
364,194,135319,1,6,3:2:0:0:
304,269,135684,6,0,L|212:264,2,80,0|0|0,0:0|0:0|0:0,0:0:0:0:
370,338,136782,2,0,P|438:350|464:210,1,240,0|0,0:0|0:0,0:0:0:0:
403,146,138245,1,2,0:0:0:0:
323,200,138611,6,0,L|306:282,2,80,0|0|0,0:0|0:0|0:0,0:0:0:0:
281,113,139709,2,0,P|223:62|101:138,1,240,0|0,0:0|0:0,0:0:0:0:
196,152,141172,1,2,0:0:0:0:
91,307,144099,6,0,L|178:314,1,80,4|0,3:2|3:0,0:0:0:0:
252,263,144831,2,0,L|372:258,1,120,0|0,3:0|3:0,0:0:0:0:
82,89,147758,6,0,P|134:55|212:173,1,240,4|8,3:2|0:0,0:0:0:0:
119,193,149221,2,0,L|32:181,2,80,0|8|0,3:0|0:0|3:0,0:0:0:0:
183,264,150318,1,8,0:0:0:0:
278,250,150684,6,0,P|330:284|408:166,1,240,0|8,3:0|0:0,0:0:0:0:
315,146,152148,2,0,L|222:160,2,80,0|8|0,3:0|0:0|3:0,0:0:0:0:
370,67,153245,2,0,P|413:55|457:66,1,80,8|4,0:0|3:2,0:0:0:0:
504,138,153977,22,0,L|486:308,1,160,8|8,0:0|0:0,0:0:0:0:
412,357,155075,2,0,L|314:344,1,80,0|8,3:0|0:0,0:0:0:0:
237,333,155806,2,0,L|157:343,1,80,0|8,3:0|0:0,0:0:0:0:
62,356,156538,6,0,B|52:306|52:306|65:195,1,160,0|0,3:0|3:0,0:0:0:0:
153,161,157636,1,8,0:0:0:0:
160,65,158001,2,0,P|213:40|248:45,1,80,0|8,3:0|0:0,0:0:0:0:
316,89,158733,2,0,P|355:86|389:64,1,80,0|8,3:0|0:0,0:0:0:0:
471,15,159465,6,0,B|486:107|486:107|472:151|472:151|496:255,1,240,4|8,3:2|0:0,0:0:0:0:
435,324,160928,2,0,P|472:345|518:343,2,80,0|8|0,3:0|0:0|3:0,0:0:0:0:
351,275,162026,1,8,0:0:0:0:
275,334,162392,6,0,B|260:242|260:242|274:198|274:198|250:94,1,240,0|8,3:0|0:0,0:0:0:0:
311,25,163855,2,0,P|273:3|228:6,2,80,0|8|8,3:0|0:0|3:2,0:0:0:0:
390,79,164953,2,0,L|386:167,1,80,8|0,0:0|3:0,0:0:0:0:
334,239,165684,22,0,P|382:256|424:248,2,80,8|8|8,0:0|0:0|0:0,0:0:0:0:
245,200,166782,2,0,P|206:233|192:273,1,80,8|8,0:0|0:0,0:0:0:0:
137,335,167514,2,0,L|55:347,2,80,8|8|4,0:0|3:2|3:2,0:0:0:0:
231,349,168611,22,0,L|310:337,1,80,8|8,0:0|0:0,0:0:0:0:
403,315,169343,1,8,0:0:0:0:
446,229,169709,6,0,P|470:186|468:143,1,80,8|8,0:0|0:0,0:0:0:0:
407,83,170440,2,0,P|383:126|385:169,1,80,8|8,3:2|0:0,0:0:0:0:
354,248,171172,21,4,3:2:0:0:
289,177,171538,2,0,P|238:155|148:202,1,160,4|4,0:2|0:2,0:0:0:0:
71,254,172636,2,0,L|77:352,1,80,0|4,3:0|0:2,0:0:0:0:
165,367,173367,2,0,L|169:287,1,80,0|4,3:0|0:2,0:0:0:0:
217,203,174099,6,0,P|171:189|134:197,2,80,0|4|0,3:0|0:2|3:0,0:0:0:0:
266,285,175197,1,4,0:2:0:0:
327,211,175562,2,0,B|385:243|385:243|441:224|489:172|461:92,1,240,0|0,3:0|3:0,0:0:0:0:
408,31,177026,53,4,3:2:0:0:
324,78,177392,2,0,B|240:71|240:71|155:92,1,160,4|4,0:2|0:2,0:0:0:0:
72,69,178489,2,0,P|75:130|93:154,1,80,0|4,3:0|0:2,0:0:0:0:
157,207,179221,2,0,P|154:268|136:292,1,80,0|4,3:0|0:2,0:0:0:0:
74,348,179953,6,0,L|-5:336,2,80,0|4|0,3:0|0:2|3:0,0:0:0:0:
165,318,181050,1,4,0:2:0:0:
249,363,181416,2,0,B|326:382|326:382|400:352|400:352|431:267,1,240,0|0,3:0|0:0,0:0:0:0:
437,180,182879,6,0,P|399:148|390:117,1,80,12|8,0:2|0:0,0:0:0:0:
314,61,183611,2,0,P|282:99|251:108,1,80,8|8,0:0|0:0,0:0:0:0:
195,184,184343,2,0,P|233:216|242:247,1,80,8|8,0:0|0:0,0:0:0:0:
318,303,185075,2,0,P|350:265|381:256,1,80,8|8,0:0|0:0,0:0:0:0:
453,196,185806,54,0,L|463:117,1,80,8|8,0:0|0:0,0:0:0:0:
382,64,186538,2,0,L|299:46,1,80,8|8,0:0|0:0,0:0:0:0:
208,47,187270,2,0,L|130:64,1,80,8|8,0:0|0:0,0:0:0:0:
49,117,188001,2,0,L|59:196,1,80,0|8,3:0|0:0,0:0:0:0:
37,290,188733,6,0,P|93:329|120:328,1,80,12|8,0:2|0:0,0:0:0:0:
191,293,189465,2,0,L|209:209,1,80,8|8,0:0|0:0,0:0:0:0:
304,214,190197,2,0,L|320:292,1,80,8|8,0:0|0:0,0:0:0:0:
409,329,190929,2,0,P|446:317|474:289,1,80,8|8,0:0|0:0,0:0:0:0:
433,201,191660,6,0,L|416:104,1,80,8|8,0:0|0:0,0:0:0:0:
324,103,192392,2,0,L|337:181,1,80,8|8,0:0|0:0,0:0:0:0:
279,258,193123,2,0,L|292:336,2,80,8|8|8,0:0|0:0|0:0,0:0:0:0:
203,198,194221,6,0,L|189:119,1,80,0|2,0:0|0:0,0:0:0:0:
