osu file format v14

[General]
AudioFilename: 15. MONSTER.mp3
AudioLeadIn: 0
PreviewTime: 146111
Countdown: 0
SampleSet: Soft
StackLeniency: 0.3
Mode: 0
LetterboxInBreaks: 0
WidescreenStoryboard: 0

[Editor]
DistanceSpacing: 0.6
BeatDivisor: 8
GridSize: 4
TimelineZoom: 2.2

[Metadata]
Title:MONSTER
TitleUnicode:MONSTER
Artist:Reol
ArtistUnicode:れをる
Creator:handsome
Version:BEARIZM'S INSANE
Source:
Tags:umetora reworu gokusaishoku -kevincela- regraz sharkie bearizm vinxis asahina momoko mokori fort byfar れをる 極彩色 梅とら
BeatmapID:815690
BeatmapSetID:366440

[Difficulty]
HPDrainRate:6
CircleSize:4
OverallDifficulty:8
ApproachRate:9
SliderMultiplier:1.5
SliderTickRate:1

[Events]
//Background and Video events
0,0,"14.jpg",0,0
//Break Periods
2,78445,80572
2,141372,142676
//Storyboard Layer 0 (Background)
//Storyboard Layer 1 (Fail)
//Storyboard Layer 2 (Pass)
//Storyboard Layer 3 (Foreground)
//Storyboard Sound Samples

[TimingPoints]
685,365.853658536585,4,2,1,40,1,0
12392,-100,4,2,1,80,0,1
24099,-100,4,2,1,60,0,0
35806,-100,4,2,1,70,0,0
48977,-100,4,2,1,80,0,1
69465,-100,4,2,1,80,0,0
81172,-100,4,2,1,60,0,0
92880,-100,4,2,1,70,0,0
105319,-133.333333333333,4,2,1,60,0,0
105684,-80,4,2,1,60,0,0
106050,-100,4,2,1,80,0,1
126538,-100,4,2,1,70,0,0
135319,-133.333333333333,4,2,1,70,0,0
143276,-100,4,2,1,70,0,0
147758,365.853658536585,4,2,1,80,1,1
171172,-100,4,2,1,70,0,0
182879,-90.9090909090909,4,2,1,80,0,1
194587,-90.9090909090909,4,2,1,80,0,0

[Colours]
Combo1 : 255,47,52
Combo2 : 183,183,183
Combo3 : 118,192,220
Combo4 : 91,109,236
Combo5 : 210,38,253

[HitObjects]
256,192,9465,12,2,11660,0:0:0:0:
184,108,12392,22,0,L|176:184,1,75,4|0,3:2|0:0,0:0:0:0:
164,272,12758,1,8,0:0:0:0:
272,160,12941,2,0,L|276:236,1,75,0|0,0:0|3:0,0:0:0:0:
284,324,13306,1,0,0:0:0:0:
408,288,13489,1,8,0:0:0:0:
408,288,13672,1,0,0:0:0:0:
260,332,13855,5,0,3:0:0:0:
488,348,14038,2,0,P|500:312|504:276,1,75,0|8,0:0|0:0,0:0:0:0:
444,156,14404,1,0,0:0:0:0:
333,295,14587,2,0,L|408:288,1,75,0|0,3:0|0:0,0:0:0:0:
224,224,14953,2,0,L|148:216,1,75,8|0,0:0|0:0,0:0:0:0:
76,152,15319,53,0,3:0:0:0:
160,292,15502,1,0,0:0:0:0:
224,144,15684,1,8,0:0:0:0:
52,248,15867,1,0,0:0:0:0:
52,248,16050,1,0,3:0:0:0:
224,224,16233,1,0,0:0:0:0:
56,136,16416,2,0,P|68:96|72:64,1,75,8|0,0:0|0:0,0:0:0:0:
144,216,16782,6,0,L|156:368,1,150,0|8,3:0|0:0,0:0:0:0:
296,280,17331,2,0,L|300:240,1,37.5,0|0,1:0|1:0,0:0:0:0:
312,156,17514,1,8,0:0:0:0:
312,156,17697,1,0,0:0:0:0:
368,344,17880,1,0,3:0:0:0:
304,128,18063,1,0,3:0:0:0:
424,260,18245,54,0,B|464:256|464:256|500:264,1,75,4|0,3:2|0:0,0:0:0:0:
460,344,18611,1,8,0:0:0:0:
280,260,18794,2,0,B|264:224|264:224|264:184,1,75,0|0,0:0|3:0,0:0:0:0:
356,204,19160,1,0,0:0:0:0:
272,352,19343,2,0,L|196:344,1,75,8|0,0:0|0:0,0:0:0:0:
100,332,19709,5,0,3:0:0:0:
280,260,19892,2,0,L|204:252,1,75,0|8,0:0|0:0,0:0:0:0:
108,240,20258,1,0,0:0:0:0:
252,172,20441,2,0,B|260:136|260:136|256:96,1,75,0|0,3:0|0:0,0:0:0:0:
96,76,20806,2,0,B|88:112|88:112|92:152,1,75,8|0,0:0|0:0,0:0:0:0:
108,240,21172,53,0,3:0:0:0:
176,116,21355,1,0,0:0:0:0:
176,116,21538,1,8,0:0:0:0:
188,312,21721,1,0,0:0:0:0:
164,92,21904,1,0,3:0:0:0:
164,92,22087,1,0,0:0:0:0:
92,224,22270,2,0,L|16:232,1,75,8|0,0:0|0:0,0:0:0:0:
204,296,22636,5,0,3:0:0:0:
80,140,22819,1,0,0:0:0:0:
296,240,23002,1,8,0:0:0:0:
104,348,23184,1,0,1:0:0:0:
108,325,23276,1,0,1:0:0:0:
112,303,23367,1,8,0:0:0:0:
196,116,23550,1,0,1:0:0:0:
196,134,23641,1,0,1:0:0:0:
199,153,23732,1,8,0:0:0:0:
203,171,23824,1,0,0:0:0:0:
209,189,23915,1,0,0:0:0:0:
217,206,24007,1,0,0:0:0:0:
227,222,24099,38,0,L|376:208,1,150,4|0,3:1|3:0,0:0:0:0:
436,120,24648,1,0,0:0:0:0:
488,292,24831,2,0,P|452:284|412:280,1,75,0|0,3:0|0:0,0:0:0:0:
288,176,25197,2,0,P|276:140|276:104,1,75,0|0,3:0|0:0,0:0:0:0:
320,280,25563,6,0,L|168:296,1,150,0|0,3:0|3:0,0:0:0:0:
96,224,26111,1,0,0:0:0:0:
48,360,26294,1,0,3:0:0:0:
108,200,26477,1,0,0:0:0:0:
0,272,26660,1,0,3:0:0:0:
170,295,26843,1,0,0:0:0:0:
48,360,27026,54,0,L|36:208,1,150,0|0,3:0|3:0,0:0:0:0:
104,132,27575,1,0,0:0:0:0:
170,295,27758,2,0,B|208:288|208:288|244:296,1,75,0|0,3:0|0:0,0:0:0:0:
340,336,28124,2,0,P|364:308|376:272,1,75,0|0,3:0|0:0,0:0:0:0:
230,125,28489,6,0,L|242:277,1,150,0|0,3:0|3:0,0:0:0:0:
241,274,29038,1,0,0:0:0:0:
328,172,29221,1,0,3:0:0:0:
144,216,29404,1,0,0:0:0:0:
260,356,29587,2,0,L|336:348,1,75,0|0,3:0|0:0,0:0:0:0:
172,328,29953,53,0,3:0:0:0:
172,328,30319,1,0,3:0:0:0:
232,168,30502,1,0,0:0:0:0:
144,216,30684,1,0,3:0:0:0:
312,256,30867,1,0,0:0:0:0:
144,340,31050,1,0,3:0:0:0:
260,352,31233,1,0,0:0:0:0:
128,200,31416,6,0,P|136:160|140:124,1,75,0|0,3:0|0:0,0:0:0:0:
120,32,31782,1,0,3:0:0:0:
144,216,31965,2,0,P|152:176|156:140,1,75,0|0,0:0|3:0,0:0:0:0:
44,120,32331,1,0,0:0:0:0:
260,76,32514,1,0,3:0:0:0:
260,76,32697,1,0,0:0:0:0:
144,216,32880,54,0,L|68:212,1,75,0|0,3:0|0:0,0:0:0:0:
248,312,33245,2,0,B|236:276|236:276|248:164,2,150,0|0|0,3:0|3:0|3:0,0:0:0:0:
348,352,34160,1,0,0:0:0:0:
492,276,34343,6,0,B|456:268|456:268|416:276,1,75,4|0,3:2|0:0,0:0:0:0:
424,253,34617,1,0,3:0:0:0:
429,231,34709,2,0,P|424:192|408:160,1,75,8|0,0:0|0:0,0:0:0:0:
411,138,34983,1,0,3:0:0:0:
414,115,35075,2,0,L|408:76,1,37.5,0|0,3:0|0:0,0:0:0:0:
328,24,35258,5,8,0:0:0:0:
340,224,35441,1,8,0:0:0:0:
315,210,35532,1,0,0:0:0:0:
288,205,35623,1,0,3:0:0:0:
260,209,35715,1,0,3:0:0:0:
235,221,35806,54,0,P|195:227|155:215,1,75,0|0,3:0|0:0,0:0:0:0:
60,144,36172,1,8,0:0:0:0:
200,140,36355,1,0,0:0:0:0:
80,280,36538,2,0,L|4:288,2,75,0|0|8,3:0|3:0|0:0,0:0:0:0:
176,324,37087,1,0,0:0:0:0:
288,205,37270,6,0,L|272:53,1,150,0|8,3:0|0:0,0:0:0:0:
272,55,37819,1,0,0:0:0:0:
368,164,38002,2,0,B|404:156|404:156|444:164,1,75,0|0,3:0|3:0,0:0:0:0:
196,132,38367,2,0,B|156:140|156:140|116:132,1,75,8|0,0:0|0:0,0:0:0:0:
284,204,38733,54,0,L|272:360,2,150,0|8|0,3:0|0:0|3:0,0:0:0:0:
196,132,39648,1,0,3:0:0:0:
168,288,39831,2,0,P|204:280|248:276,1,75,8|0,0:0|0:0,0:0:0:0:
404,288,40197,5,0,3:0:0:0:
272,353,40380,1,0,0:0:0:0:
272,353,40563,1,8,0:0:0:0:
420,272,40745,2,0,P|432:236|436:200,1,75,0|0,0:0|3:0,0:0:0:0:
404,100,41111,1,0,3:0:0:0:
508,272,41294,1,8,0:0:0:0:
312,288,41477,1,8,0:0:0:0:
296,272,41569,1,0,0:0:0:0:
280,256,41660,54,0,L|284:180,1,75,0|0,3:0|0:0,0:0:0:0:
224,96,42026,1,8,0:0:0:0:
224,96,42209,1,0,0:0:0:0:
120,180,42392,2,0,B|80:184|80:184|44:180,2,75,0|0|8,3:0|3:0|0:0,0:0:0:0:
76,84,42941,1,0,0:0:0:0:
0,248,43124,6,0,B|8:284|8:284|4:324|4:324|32:352|32:352|64:360,1,150,0|8,3:0|0:0,0:0:0:0:
172,312,43672,1,0,0:0:0:0:
76,84,43855,1,0,3:0:0:0:
0,248,44038,1,0,3:0:0:0:
192,320,44221,2,0,P|216:292|228:256,1,75,8|0,0:0|0:0,0:0:0:0:
224,233,44495,1,0,0:0:0:0:
208,216,44587,54,0,P|200:178|200:138,1,75,4|0,3:2|0:0,0:0:0:0:
92,256,44953,1,8,0:0:0:0:
92,256,45044,2,0,L|104:332,1,75,8|0,0:0|0:0,0:0:0:0:
103,330,45319,1,8,0:0:0:0:
308,356,45502,1,8,0:0:0:0:
316,336,45593,1,0,0:0:0:0:
324,316,45684,1,0,3:0:0:0:
208,216,45867,1,8,0:0:0:0:
203,193,45959,1,0,0:0:0:0:
199,170,46050,5,0,3:0:0:0:
364,236,46233,1,0,0:0:0:0:
364,236,46416,1,0,0:0:0:0:
103,330,46599,1,0,0:0:0:0:
208,216,46782,1,0,3:0:0:0:
180,368,46965,1,0,3:0:0:0:
204,192,47148,1,0,3:0:0:0:
392,324,47331,1,0,3:0:0:0:
392,324,48977,5,4,3:2:0:0:
192,260,49160,1,0,0:0:0:0:
440,204,49343,1,8,0:0:0:0:
256,356,49526,1,0,0:0:0:0:
356,160,49709,1,0,3:0:0:0:
356,160,49892,1,0,0:0:0:0:
392,324,50075,1,8,0:0:0:0:
348,136,50258,1,0,0:0:0:0:
192,260,50441,6,0,P|232:268|268:272,1,75,0|0,3:0|0:0,0:0:0:0:
136,180,50806,1,8,0:0:0:0:
256,356,50989,1,0,0:0:0:0:
397,193,51172,2,0,P|361:181|293:209,1,112.5,0|0,3:0|0:0,0:0:0:0:
273,197,51538,2,0,L|265:273,1,75,8|0,0:0|0:0,0:0:0:0:
395,168,51904,54,0,L|391:92,1,75,0|0,3:0|0:0,0:0:0:0:
312,24,52270,1,8,0:0:0:0:
312,24,52453,1,0,0:0:0:0:
484,88,52636,1,0,3:0:0:0:
304,124,52819,1,0,0:0:0:0:
512,80,53002,1,8,0:0:0:0:
400,24,53184,1,0,0:0:0:0:
420,192,53367,6,0,B|460:184|460:184|496:188,1,75,0|0,3:0|0:0,0:0:0:0:
348,248,53733,1,8,0:0:0:0:
432,104,53916,1,0,0:0:0:0:
504,320,54099,2,0,P|468:300|400:316,1,112.5,0|0,3:0|0:0,0:0:0:0:
384,328,54465,2,0,P|348:340|312:344,1,75,8|0,0:0|0:0,0:0:0:0:
92,292,54831,21,4,3:2:0:0:
92,292,55197,2,0,L|84:216,1,75,8|0,0:0|0:0,0:0:0:0:
72,124,55563,1,0,3:0:0:0:
72,124,55745,1,0,0:0:0:0:
0,288,55928,1,8,0:0:0:0:
176,232,56111,6,0,B|212:224|212:224|252:228,1,75,0|0,0:0|3:0,0:0:0:0:
352,352,56477,2,0,B|327:324|327:324|310:288,1,75,0|8,0:0|0:0,0:0:0:0:
368,140,56843,2,0,B|356:175|356:175|333:207,1,75,0|0,0:0|3:0,0:0:0:0:
204,152,57209,1,0,0:0:0:0:
364,112,57392,1,8,0:0:0:0:
236,308,57575,54,0,B|196:304|196:304|160:312|160:312|124:308,1,112.5
48,296,57941,1,0,0:0:0:0:
308,188,58124,2,0,B|312:224|312:224|304:268,1,75,8|0,0:0|0:0,0:0:0:0:
116,124,58489,6,0,P|104:88|96:48,1,75,0|0,3:0|0:0,0:0:0:0:
224,232,58855,2,0,P|216:272|204:304,1,75,8|0,0:0|0:0,0:0:0:0:
264,84,59221,54,0,P|300:72|336:68,1,75,0|0,3:0|0:0,0:0:0:0:
128,232,59587,2,0,P|88:228|56:216,1,75,8|0,0:0|3:0,0:0:0:0:
300,176,59953,6,0,P|328:200|352:232,1,75,0|0,3:0|3:0,0:0:0:0:
132,136,60319,1,8,0:0:0:0:
143,110,60410,1,0,1:0:0:0:
153,84,60501,1,0,1:0:0:0:
159,56,60593,1,0,1:0:0:0:
163,28,60684,5,0,3:0:0:0:
32,124,60867,1,0,0:0:0:0:
248,80,61050,1,8,0:0:0:0:
68,36,61233,1,0,0:0:0:0:
156,224,61416,2,0,P|196:188|252:188,1,112.5,0|0,3:0|0:0,0:0:0:0:
272,176,61782,2,0,L|264:252,1,75,8|0,0:0|0:0,0:0:0:0:
328,320,62148,5,0,3:0:0:0:
264,152,62331,1,0,0:0:0:0:
400,212,62514,1,8,0:0:0:0:
196,296,62697,1,0,0:0:0:0:
404,372,62880,2,0,P|412:336|416:296,1,75,0|0,3:0|0:0,0:0:0:0:
264,152,63245,2,0,P|268:192|276:228,1,75,8|0,0:0|0:0,0:0:0:0:
400,212,63611,53,0,3:0:0:0:
260,128,63794,2,0,L|184:140,2,75,0|8|0,0:0|0:0|0:0,0:0:0:0:
460,100,64343,1,0,3:0:0:0:
304,40,64526,1,0,0:0:0:0:
400,212,64709,1,8,0:0:0:0:
476,76,64892,1,0,0:0:0:0:
304,204,65075,6,0,L|312:280,1,75,0|0,3:0|0:0,0:0:0:0:
372,128,65441,1,8,0:0:0:0:
216,260,65624,1,0,0:0:0:0:
432,308,65806,1,0,3:0:0:0:
457,296,65897,1,0,1:0:0:0:
478,277,65988,1,0,1:0:0:0:
492,253,66080,1,0,1:0:0:0:
499,226,66171,1,8,1:0:0:0:
304,204,66355,1,8,1:0:0:0:
304,204,66447,1,8,1:0:0:0:
304,204,66538,54,0,P|296:164|292:128,1,75,4|0,3:2|0:0,0:0:0:0:
352,48,66904,1,8,0:0:0:0:
192,148,67087,1,0,0:0:0:0:
384,156,67270,1,8,0:0:0:0:
192,60,67453,1,0,0:0:0:0:
372,28,67636,1,8,0:0:0:0:
164,168,67819,1,0,0:0:0:0:
304,204,68002,5,8,0:0:0:0:
88,232,68184,2,0,P|72:196|64:160,1,75,0|8,0:0|0:0,0:0:0:0:
104,64,68550,1,0,0:0:0:0:
304,204,68733,1,8,1:0:0:0:
300,231,68824,1,0,1:0:0:0:
296,259,68915,1,0,1:0:0:0:
292,287,69007,1,0,1:0:0:0:
260,320,69099,2,0,L|220:316,1,37.5,8|0,1:0|1:0,0:0:0:0:
136,336,69282,2,0,L|96:344,1,37.5,0|0,1:0|1:0,0:0:0:0:
16,308,69465,21,4,3:2:0:0:
176,212,69648,1,0,0:0:0:0:
176,212,69831,1,8,0:0:0:0:
40,208,70014,1,0,0:0:0:0:
224,288,70197,1,0,3:0:0:0:
224,288,70380,1,0,0:0:0:0:
140,128,70563,2,0,P|152:88|156:56,1,75,8|0,0:0|0:0,0:0:0:0:
44,52,70928,5,0,3:0:0:0:
56,224,71111,2,0,L|132:220,1,75,0|8,0:0|0:0,0:0:0:0:
252,212,71477,1,0,0:0:0:0:
219,361,71660,2,0,B|227:321|227:321|223:285,1,75,0|0,3:0|0:0,0:0:0:0:
144,201,72026,2,0,B|136:165|136:165|140:125,1,75,8|0,0:0|0:0,0:0:0:0:
220,64,72392,53,0,3:0:0:0:
48,152,72575,1,0,0:0:0:0:
252,212,72758,1,8,0:0:0:0:
116,56,72941,2,0,P|80:64|40:68,2,75,0|0|0,0:0|3:0|0:0,0:0:0:0:
272,116,73489,2,0,P|268:156|260:192,1,75,8|0,0:0|0:0,0:0:0:0:
140,268,73855,6,0,L|64:280,2,75,0|0|8,3:0|0:0|0:0,0:0:0:0:
344,360,74404,1,0,1:0:0:0:
348,337,74495,1,0,1:0:0:0:
352,314,74587,2,0,P|342:278|337:239,1,75,8|0,0:0|0:0,0:0:0:0:
512,104,74953,1,8,1:0:0:0:
509,132,75044,1,0,1:0:0:0:
505,159,75135,1,0,1:0:0:0:
499,187,75227,1,0,1:0:0:0:
492,214,75319,54,0,L|411:207,1,75,4|0,3:2|0:0,0:0:0:0:
344,136,75684,1,8,0:0:0:0:
216,212,75867,2,0,P|224:248|228:296,2,75,0|0|0,0:0|3:0|0:0,0:0:0:0:
344,136,76416,2,0,P|348:96|356:60,1,75,8|0,0:0|0:0,0:0:0:0:
444,120,76782,5,0,3:0:0:0:
264,60,76965,1,0,0:0:0:0:
452,28,77148,1,8,0:0:0:0:
452,28,77331,1,0,0:0:0:0:
332,160,77514,2,0,L|256:152,1,75,0|0,3:0|0:0,0:0:0:0:
408,216,77880,2,0,B|416:252|416:252|412:292,1,75,8|0,0:0|0:0,0:0:0:0:
352,352,78154,1,0,0:0:0:0:
352,352,78245,1,0,2:0:0:0:
247,352,81172,38,0,P|208:364|172:364,1,75,0|0,3:0|0:0,0:0:0:0:
100,288,81538,2,0,L|88:212,1,75,8|0,0:0|0:0,0:0:0:0:
172,128,81904,1,0,3:0:0:0:
172,128,82087,1,0,3:0:0:0:
184,256,82270,2,0,B|224:244|224:244|260:248,1,75,8|0,0:0|0:0,0:0:0:0:
356,272,82636,5,0,3:0:0:0:
280,144,82819,1,8,0:0:0:0:
248,336,83002,1,0,0:0:0:0:
284,120,83184,2,0,L|276:44,1,75,8|0,0:0|3:0,0:0:0:0:
376,104,83550,1,0,3:0:0:0:
264,228,83733,2,0,L|188:224,1,75,8|0,0:0|1:0,0:0:0:0:
168,214,84008,1,0,1:0:0:0:
147,204,84099,53,0,3:0:0:0:
147,204,84465,2,0,P|156:244|160:280,1,75,8|0,0:0|0:0,0:0:0:0:
92,356,84831,1,0,3:0:0:0:
252,312,85014,1,0,3:0:0:0:
52,272,85197,1,8,0:0:0:0:
260,336,85380,1,0,3:0:0:0:
147,204,85563,5,0,3:0:0:0:
92,356,85745,1,8,0:0:0:0:
160,180,85928,1,0,0:0:0:0:
160,180,86020,2,0,L|152:104,1,75,0|0,1:0|0:0,0:0:0:0:
152,105,86294,1,0,3:0:0:0:
40,180,86477,1,8,0:0:0:0:
244,160,86660,1,8,0:0:0:0:
168,288,86843,1,0,0:0:0:0:
145,285,86934,1,0,0:0:0:0:
122,283,87026,53,0,3:0:0:0:
122,283,87392,1,8,0:0:0:0:
152,105,87575,1,0,0:0:0:0:
240,244,87758,1,0,3:0:0:0:
40,180,87941,1,0,3:0:0:0:
272,156,88124,1,8,0:0:0:0:
100,304,88306,1,0,0:0:0:0:
152,105,88489,5,0,3:0:0:0:
240,244,88672,1,8,0:0:0:0:
40,180,88855,1,0,0:0:0:0:
112,324,89038,1,0,0:0:0:0:
112,324,89130,1,8,0:0:0:0:
112,324,89221,2,0,L|188:316,1,75,0|0,0:0|3:0,0:0:0:0:
320,236,89587,1,8,0:0:0:0:
306,211,89678,1,0,0:0:0:0:
296,185,89769,1,8,0:0:0:0:
290,157,89861,1,0,3:0:0:0:
288,129,89952,53,8,3:2:0:0:
432,232,90136,1,0,0:0:0:0:
428,256,90227,1,0,3:0:0:0:
424,280,90319,1,8,0:0:0:0:
504,140,90502,1,0,0:0:0:0:
501,117,90593,1,0,3:0:0:0:
497,94,90684,1,0,3:0:0:0:
306,211,90867,1,8,0:0:0:0:
269,222,90958,1,0,0:0:0:0:
233,216,91049,1,0,3:0:0:0:
202,194,91141,1,0,0:0:0:0:
185,161,91232,1,0,3:0:0:0:
194,139,91325,1,0,0:0:0:0:
203,119,91416,21,0,3:0:0:0:
203,119,92880,53,4,3:2:0:0:
203,119,93063,1,0,0:0:0:0:
24,160,93245,1,8,0:0:0:0:
152,208,93428,1,0,0:0:0:0:
64,68,93611,1,0,3:0:0:0:
68,244,93794,1,0,0:0:0:0:
220,100,93977,2,0,L|208:24,1,75,8|0,0:0|0:0,0:0:0:0:
152,208,94343,6,0,L|144:320,1,112.5,0|0,3:0|0:0,0:0:0:0:
160,336,94709,2,0,B|196:328|196:328|236:332,1,75,8|0,0:0|0:0,0:0:0:0:
348,348,95075,1,0,3:0:0:0:
348,348,95258,1,0,0:0:0:0:
220,244,95441,1,8,0:0:0:0:
436,288,95624,1,0,0:0:0:0:
233,331,95806,53,0,3:0:0:0:
392,208,95989,1,0,0:0:0:0:
192,248,96172,2,0,P|172:216|160:180,1,75,8|0,0:0|0:0,0:0:0:0:
216,92,96538,1,0,3:0:0:0:
84,208,96721,1,0,0:0:0:0:
276,188,96904,1,8,0:0:0:0:
64,120,97087,1,0,0:0:0:0:
136,312,97270,6,0,P|200:272|236:280,1,112.5,0|0,3:0|0:0,0:0:0:0:
252,288,97636,2,0,L|248:364,1,75,8|0,0:0|0:0,0:0:0:0:
340,252,98002,1,0,3:0:0:0:
340,252,98184,1,0,3:0:0:0:
220,172,98367,2,0,B|180:168|180:168|144:176,1,75,8|8,0:0|0:0,0:0:0:0:
124,184,98642,1,8,0:0:0:0:
104,192,98733,54,0,P|72:156|64:88,1,112.5,0|0,3:0|0:0,0:0:0:0:
72,76,99099,2,0,L|144:56,1,75,8|0,0:0|0:0,0:0:0:0:
340,168,99465,2,0,P|308:148|236:156,1,112.5,0|0,3:0|0:0,0:0:0:0:
220,172,99831,2,0,L|228:256,1,75,8|0,0:0|0:0,0:0:0:0:
328,324,100197,5,0,3:0:0:0:
328,324,100380,1,0,0:0:0:0:
148,280,100563,1,8,0:0:0:0:
308,240,100745,1,0,0:0:0:0:
192,356,100928,2,0,L|80:352,1,112.5,0|0,3:0|0:0,0:0:0:0:
60,340,101294,2,0,P|36:312|24:276,1,75,8|0,0:0|0:0,0:0:0:0:
68,176,101660,53,0,3:0:0:0:
68,176,101843,1,0,0:0:0:0:
244,100,102026,1,0,3:0:0:0:
92,88,102209,1,0,0:0:0:0:
92,88,102392,1,0,3:0:0:0:
276,188,102575,1,0,0:0:0:0:
296,180,102666,1,0,0:0:0:0:
317,172,102758,2,0,L|304:323,1,150,0|2,3:0|0:0,0:0:0:0:
304,321,104221,5,0,0:0:0:0:
304,321,104404,1,0,2:0:0:0:
392,264,104587,1,0,0:0:0:0:
240,244,104770,1,0,0:0:0:0:
416,268,104953,1,0,0:0:0:0:
280,328,105136,1,0,0:0:0:0:
364,176,105319,54,0,P|353:148|348:93,1,84.3750032186509
368,72,105684,6,0,L|508:80,1,140.625
448,156,106050,5,4,3:2:0:0:
256,88,106233,1,0,0:0:0:0:
456,28,106416,1,8,0:0:0:0:
364,176,106599,1,0,0:0:0:0:
348,40,106782,1,0,3:0:0:0:
368,204,106965,1,0,0:0:0:0:
468,136,107148,1,8,0:0:0:0:
232,84,107331,1,0,0:0:0:0:
368,204,107514,6,0,P|357:242|342:276,1,75,0|0,3:0|0:0,0:0:0:0:
244,320,107880,1,8,0:0:0:0:
440,280,108063,1,0,0:0:0:0:
184,152,108245,2,0,B|176:228|176:228|184:264,1,112.5,0|0,3:1|0:0,0:0:0:0:
244,320,108611,2,0,L|132:316,1,112.5,8|0,0:0|0:0,0:0:0:0:
44,312,108977,53,0,3:0:0:0:
272,232,109160,1,0,0:0:0:0:
68,176,109343,1,8,0:0:0:0:
131,315,109526,1,0,0:0:0:0:
184,152,109709,1,0,3:0:0:0:
36,184,109892,1,0,0:0:0:0:
300,240,110075,2,0,L|416:232,1,112.5,8|0,0:0|0:0,0:0:0:0:
432,244,110441,6,0,P|444:208|448:172,1,75,0|0,3:0|0:0,0:0:0:0:
384,80,110806,1,8,0:0:0:0:
440,272,110989,1,0,0:0:0:0:
372,56,111172,2,0,B|332:52|332:52|296:60|296:60|260:56,1,112.5,0|0,3:0|0:0,0:0:0:0:
204,0,111538,2,0,L|196:116,1,112.5,8|0,0:0|0:0,0:0:0:0:
184,200,111904,21,4,3:2:0:0:
184,200,112270,1,8,0:0:0:0:
316,144,112453,1,0,0:0:0:0:
100,88,112636,1,0,3:0:0:0:
196,220,112819,1,0,0:0:0:0:
40,260,113002,1,8,0:0:0:0:
264,288,113184,6,0,P|280:248|284:216,1,75,0|0,0:0|3:0,0:0:0:0:
100,88,113550,2,0,P|104:128|116:160,1,75,0|8,0:0|0:0,0:0:0:0:
284,196,113916,2,0,L|360:188,2,75,0|0|0,0:0|3:0|0:0,0:0:0:0:
200,116,114465,1,8,0:0:0:0:
184,308,114648,54,0,L|204:196,1,112.5
200,116,115014,1,0,0:0:0:0:
284,280,115197,2,0,B|324:272|324:272|360:276,1,75,8|0,0:0|0:0,0:0:0:0:
488,216,115563,6,0,P|500:180|508:140,1,75,0|0,3:0|0:0,0:0:0:0:
376,288,115928,2,0,P|384:328|396:360,1,75,8|0,0:0|0:0,0:0:0:0:
396,124,116294,54,0,P|372:96|336:76,1,75,0|0,3:0|0:0,0:0:0:0:
416,372,116660,2,0,L|492:360,1,75,8|0,0:0|3:0,0:0:0:0:
272,156,117026,6,0,P|232:168|204:192,1,75,0|0,3:0|3:0,0:0:0:0:
257,359,117392,1,8,0:0:0:0:
269,333,117483,1,0,1:0:0:0:
277,306,117574,1,0,1:0:0:0:
283,279,117666,1,0,1:0:0:0:
284,251,117758,5,0,3:0:0:0:
112,312,117941,1,0,0:0:0:0:
364,324,118124,1,8,0:0:0:0:
188,216,118306,1,0,0:0:0:0:
257,359,118489,1,0,3:0:0:0:
332,168,118672,1,0,0:0:0:0:
160,228,118855,1,8,0:0:0:0:
336,312,119038,1,0,0:0:0:0:
76,300,119221,6,0,P|64:264|56:224,1,75,0|0,3:0|0:0,0:0:0:0:
140,128,119587,1,8,0:0:0:0:
68,320,119770,1,0,0:0:0:0:
113,45,119953,2,0,P|153:41|213:81,1,112.5,0|0,3:0|0:0,0:0:0:0:
220,100,120319,2,0,L|208:176,1,75,8|0,0:0|0:0,0:0:0:0:
316,236,120684,54,0,L|328:312,2,75,0|0|8,3:0|0:0|0:0,0:0:0:0:
388,168,121233,1,0,0:0:0:0:
240,280,121416,1,0,3:0:0:0:
416,260,121599,1,0,0:0:0:0:
244,164,121782,1,8,0:0:0:0:
327,310,121965,1,0,0:0:0:0:
400,148,122148,6,0,P|392:108|376:72,1,75,0|0,3:0|0:0,0:0:0:0:
244,164,122514,2,0,P|232:200|228:240,1,75,8|0,0:0|0:0,0:0:0:0:
344,336,122880,1,0,3:0:0:0:
364,316,122971,1,0,1:0:0:0:
389,304,123062,1,0,1:0:0:0:
417,299,123154,1,0,1:0:0:0:
444,303,123245,1,8,1:0:0:0:
332,176,123428,1,8,1:0:0:0:
337,153,123520,1,0,1:0:0:0:
342,131,123611,54,0,L|332:56,1,75,4|0,3:2|0:0,0:0:0:0:
236,28,123977,1,8,0:0:0:0:
432,48,124160,1,0,0:0:0:0:
244,112,124343,1,8,0:0:0:0:
440,132,124526,1,0,0:0:0:0:
252,196,124709,1,8,0:0:0:0:
448,216,124892,1,0,0:0:0:0:
264,276,125075,6,0,L|188:264,1,75,8|0,0:0|0:0,0:0:0:0:
464,228,125441,2,0,P|480:264|484:300,1,75,8|0,0:0|0:0,0:0:0:0:
324,196,125806,1,8,1:0:0:0:
327,168,125897,1,0,1:0:0:0:
331,140,125988,1,0,1:0:0:0:
335,112,126080,1,0,1:0:0:0:
312,72,126172,2,0,L|309:32,1,37.5,8|0,1:0|1:0,0:0:0:0:
212,116,126355,1,0,1:0:0:0:
188,120,126447,1,0,1:0:0:0:
164,124,126538,38,0,L|88:116,1,75,4|0,3:2|0:0,0:0:0:0:
72,100,126813,2,0,L|76:176,1,75,0|0,3:0|0:0,0:0:0:0:
78,197,127087,1,0,3:0:0:0:
192,228,127270,1,4,0:0:0:0:
12,264,127453,1,0,0:0:0:0:
220,236,127636,6,0,P|240:268|252:304,1,75,0|0,3:0|0:0,0:0:0:0:
252,324,127910,2,0,L|328:316,1,75,0|0,3:0|0:0,0:0:0:0:
349,314,128184,1,0,3:0:0:0:
392,208,128367,1,8,0:0:0:0:
436,364,128550,1,8,0:0:0:0:
384,184,128733,54,0,L|392:108|392:108,1,75,0|0,3:0|0:0,0:0:0:0:
388,88,129008,2,0,P|356:64|324:52,1,75,0|0,3:0|0:0,0:0:0:0:
300,48,129282,1,0,3:0:0:0:
160,84,129465,1,8,0:0:0:0:
308,132,129648,1,8,0:0:0:0:
80,148,129831,6,0,P|64:112|60:76,1,75,0|0,3:0|0:0,0:0:0:0:
156,188,130105,2,0,P|148:228|132:260,1,75,0|0,3:0|0:0,0:0:0:0:
120,276,130380,2,0,L|124:320,1,37.5,0|0,3:0|0:0,0:0:0:0:
220,360,130563,1,4,3:2:0:0:
237,337,130654,1,0,3:0:0:0:
260,321,130745,1,0,3:0:0:0:
286,312,130837,1,0,3:0:0:0:
314,311,130928,54,0,P|356:320|392:320,1,75,4|0,3:2|0:0,0:0:0:0:
412,312,131203,2,0,L|424:232,1,75,0|0,3:0|0:0,0:0:0:0:
426,215,131477,1,0,3:0:0:0:
264,160,131660,1,8,0:0:0:0:
264,160,132026,6,0,P|276:124|280:88,1,75,0|0,3:0|0:0,0:0:0:0:
276,64,132300,2,0,L|352:72,1,75,0|0,3:0|0:0,0:0:0:0:
372,76,132575,1,0,3:0:0:0:
337,253,132758,1,0,1:0:0:0:
310,243,132849,1,0,1:0:0:0:
282,239,132940,1,0,1:0:0:0:
255,243,133032,1,0,1:0:0:0:
228,253,133124,54,0,L|152:244,1,75,0|0,1:0|0:0,0:0:0:0:
16,212,133398,2,0,L|92:200,1,75,0|0,1:0|0:0,0:0:0:0:
152,148,133672,1,0,1:0:0:0:
152,148,134221,6,0,P|144:184|144:224,1,75,0|0,1:0|0:0,0:0:0:0:
160,256,134495,1,0,1:0:0:0:
188,231,134586,1,0,1:0:0:0:
224,223,134677,1,0,1:0:0:0:
260,233,134769,1,0,1:0:0:0:
286,258,134860,1,0,1:0:0:0:
298,294,134952,1,0,3:0:0:0:
292,330,135043,1,0,3:0:0:0:
272,360,135136,2,0,L|232:356,1,37.5,0|0,3:0|3:0,0:0:0:0:
60,288,135319,22,0,L|72:176,1,112.500004291535,6|0,3:2|3:0,0:0:0:0:
128,120,135867,1,0,0:0:0:0:
188,172,136050,2,0,L|244:168,1,56.2500021457673,0|0,3:0|0:0,0:0:0:0:
316,200,136416,2,0,L|372:208,1,56.2500021457673,0|0,3:0|0:0,0:0:0:0:
444,152,136782,6,0,L|452:264,1,112.500004291535,0|0,3:0|3:0,0:0:0:0:
408,332,137331,1,0,0:0:0:0:
332,348,137514,2,0,L|276:344,1,56.2500021457673,0|0,3:0|0:0,0:0:0:0:
216,292,137880,2,0,L|160:300,1,56.2500021457673,0|0,3:0|0:0,0:0:0:0:
96,256,138245,1,2,3:0:0:0:
96,256,138611,54,0,P|108:224|112:200,1,56.2500021457673,0|0,3:0|0:0,0:0:0:0:
68,136,138977,2,0,L|64:80,1,56.2500021457673,0|0,3:0|0:0,0:0:0:0:
140,56,139343,2,0,L|144:112,1,56.2500021457673,0|0,3:0|0:0,0:0:0:0:
208,160,139709,6,0,L|320:152,1,112.500004291535,0|0,3:0|3:0,0:0:0:0:
364,88,140258,1,0,0:0:0:0:
416,148,140441,2,0,L|408:204,1,56.2500021457673,0|0,3:0|0:0,0:0:0:0:
284,80,140806,2,0,P|272:52|268:24,1,56.2500021457673,0|0,3:0|0:0,0:0:0:0:
444,72,141172,21,2,3:2:0:0:
444,72,143276,37,0,3:0:0:0:
449,88,143367,1,0,3:0:0:0:
452,104,143458,1,0,3:0:0:0:
454,121,143550,1,8,0:0:0:0:
454,138,143641,1,0,0:0:0:0:
452,154,143733,2,0,L|444:192,1,37.5,8|0,0:0|0:0,0:0:0:0:
376,256,143916,2,0,L|340:272,1,37.5,0|0,3:0|3:0,0:0:0:0:
216,244,144099,5,4,3:2:0:0:
368,152,144282,1,0,0:0:0:0:
280,340,144465,1,0,3:0:0:0:
248,132,144648,1,0,0:0:0:0:
284,364,144831,54,0,L|360:372,1,75,0|0,3:0|3:0,0:0:0:0:
112,256,145197,1,0,3:0:0:0:
112,256,145380,1,0,3:0:0:0:
112,256,147758,21,4,3:2:0:0:
308,192,147940,1,0,0:0:0:0:
80,160,148123,1,8,0:0:0:0:
196,304,148306,1,0,0:0:0:0:
248,108,148489,1,0,3:0:0:0:
52,168,148672,1,0,0:0:0:0:
272,276,148855,1,8,0:0:0:0:
160,80,149038,1,0,0:0:0:0:
96,296,149221,5,0,3:0:0:0:
232,196,149404,1,0,0:3:0:0:
28,176,149587,1,8,0:0:0:0:
196,304,149770,1,0,0:0:0:0:
324,208,149953,2,0,P|336:168|340:136,1,75,0|0,3:0|0:0,0:0:0:0:
160,80,150318,2,0,P|164:120|176:156,1,75,8|0,0:0|0:0,0:0:0:0:
248,32,150684,53,0,3:0:0:0:
76,92,150867,1,0,0:0:0:0:
276,128,151050,1,8,0:0:0:0:
48,92,151233,1,0,0:0:0:0:
224,220,151416,1,0,3:0:0:0:
148,24,151599,1,0,0:0:0:0:
36,208,151782,2,0,B|69:200|69:200|109:204,1,75,8|0,0:0|0:0,0:0:0:0:
224,220,152148,5,0,3:0:0:0:
76,288,152331,1,0,0:0:0:0:
260,304,152514,1,8,0:0:0:0:
109,204,152697,1,0,0:0:0:0:
336,236,152879,2,0,P|352:272|360:308,1,75,0|0,3:0|0:0,0:0:0:0:
212,196,153245,2,0,P|220:156|240:124,1,75,8|0,0:0|0:0,0:0:0:0:
436,116,153611,21,4,3:2:0:0:
436,116,153977,1,8,0:0:0:0:
336,236,154160,1,0,0:0:0:0:
512,320,154343,2,0,B|436:304|436:304|401:307,1,112.5,0|0,3:0|0:0,0:0:0:0:
320,320,154709,1,8,0:0:0:0:
176,192,154892,6,0,P|168:156|164:116,1,75,0|0,0:0|3:0,0:0:0:0:
336,236,155258,2,0,P|332:272|320:312,1,75,0|8,0:0|0:0,0:0:0:0:
136,348,155623,2,0,L|60:340,1,75,0|0,0:0|3:0,0:0:0:0:
224,288,155989,1,0,0:0:0:0:
36,340,156172,1,8,0:0:0:0:
240,268,156355,54,0,P|252:232|256:196,1,75,0|0,0:0|3:0,0:0:0:0:
156,144,156721,1,0,0:0:0:0:
232,356,156904,2,0,L|308:348,1,75,8|0,0:0|0:0,0:0:0:0:
408,332,157270,5,0,3:0:0:0:
240,268,157453,1,0,0:0:0:0:
460,248,157636,1,8,0:0:0:0:
306,348,157818,1,0,0:0:0:0:
404,168,158001,53,0,3:0:0:0:
408,332,158184,1,0,0:0:0:0:
304,192,158367,1,8,0:0:0:0:
480,260,158550,1,0,3:0:0:0:
240,268,158733,5,0,3:0:0:0:
404,168,158916,1,0,3:0:0:0:
395,151,159008,1,0,3:0:0:0:
388,133,159098,1,8,1:0:0:0:
383,115,159190,1,0,1:0:0:0:
379,97,159281,1,0,1:0:0:0:
376,78,159373,1,0,1:0:0:0:
376,60,159465,6,0,L|300:68,1,75,4|0,3:2|0:0,0:0:0:0:
204,200,159831,2,0,P|220:164|228:120,1,75,8|0,0:0|0:0,0:0:0:0:
93,48,160197,2,0,L|168:52,1,75,0|0,3:0|0:0,0:0:0:0:
24,128,160562,1,8,0:0:0:0:
188,40,160745,1,0,0:0:0:0:
108,188,160928,5,0,3:0:0:0:
60,32,161111,1,0,0:0:0:0:
116,212,161294,1,8,0:0:0:0:
180,120,161477,1,0,0:0:0:0:
168,360,161660,2,0,L|92:352,1,75,0|0,3:0|0:0,0:0:0:0:
264,208,162026,2,0,P|272:248|264:324,1,112.5,8|0,0:0|0:0,0:0:0:0:
260,340,162392,54,0,L|376:336,1,112.5,0|0,3:0|0:0,0:0:0:0:
464,332,162757,1,8,0:0:0:0:
264,208,162940,1,0,0:0:0:0:
504,236,163123,1,0,3:0:0:0:
260,340,163306,1,0,0:0:0:0:
376,240,163489,1,8,0:0:0:0:
464,332,163672,1,0,0:0:0:0:
196,276,163855,6,0,P|184:240|180:204,2,75,0|0|8,3:0|0:0|0:0,0:0:0:0:
352,324,164404,1,0,0:0:0:0:
436,172,164587,1,0,3:0:0:0:
432,144,164678,1,0,1:0:0:0:
428,116,164769,1,0,1:0:0:0:
424,88,164861,1,0,1:0:0:0:
420,60,164952,1,8,1:0:0:0:
284,184,165136,1,8,1:0:0:0:
287,146,165227,1,0,1:0:0:0:
291,109,165318,21,0,3:0:0:0:
291,109,165684,2,0,L|280:36,1,75,8|0,0:0|0:0,0:0:0:0:
180,192,166050,2,0,L|192:116,1,75,8|0,0:0|0:0,0:0:0:0:
272,332,166416,2,0,L|260:258,1,75,8|0,0:0|0:0,0:0:0:0:
348,276,166690,1,0,0:0:0:0:
348,276,166782,6,0,B|384:268|384:268|424:272,1,75,8|0,0:0|0:0,0:0:0:0:
184,304,167148,2,0,B|148:312|148:312|108:308,1,75,8|0,0:0|0:0,0:0:0:0:
12,292,167514,1,8,0:0:0:0:
220,232,167697,1,0,0:0:0:0:
52,192,167879,1,0,3:0:0:0:
66,167,167970,1,0,3:0:0:0:
76,141,168061,1,0,3:0:0:0:
84,114,168153,1,0,3:0:0:0:
87,86,168245,6,0,L|76:8,1,75,4|0,3:2|0:0,0:0:0:0:
192,64,168611,1,8,0:0:0:0:
0,96,168794,1,0,0:0:0:0:
264,152,168977,1,8,0:0:0:0:
0,208,169160,1,0,0:0:0:0:
216,48,169343,1,8,0:0:0:0:
120,312,169526,6,0,L|40:304,1,75,0|8,0:0|0:0,0:0:0:0:
216,244,169892,1,0,0:0:0:0:
0,208,170075,1,8,0:0:0:0:
296,144,170257,1,0,0:0:0:0:
92,40,170440,53,0,3:0:0:0:
95,77,170531,1,0,1:0:0:0:
99,114,170622,1,0,1:0:0:0:
103,151,170714,1,0,1:0:0:0:
84,192,170806,2,0,L|77:235,1,37.5,8|0,1:0|1:0,0:0:0:0:
232,336,170989,1,0,1:0:0:0:
236,312,171081,1,0,1:0:0:0:
240,292,171172,54,0,B|280:284|280:284|316:288,1,75,4|0,3:2|0:0,0:0:0:0:
432,328,171538,2,0,L|416:252,1,75,4|0,0:2|0:0,0:0:0:0:
320,164,171904,2,0,L|332:88,1,75,0|0,3:0|0:0,0:0:0:0:
468,64,172270,2,0,P|492:96|504:168,1,112.5,4|0,0:2|0:0,0:0:0:0:
496,188,172636,54,0,L|420:180,1,75,0|0,3:0|0:0,0:0:0:0:
280,244,173001,2,0,L|204:252,1,75,4|0,0:2|0:0,0:0:0:0:
108,164,173367,2,0,P|120:128|128:88,1,75,0|0,3:0|0:0,0:0:0:0:
40,20,173733,1,4,0:2:0:0:
0,136,173916,1,0,0:0:0:0:
56,244,174099,6,0,L|168:236,1,112.5,0|0,3:0|0:0,0:0:0:0:
184,220,174465,2,0,L|176:296,1,75,4|0,0:2|0:0,0:0:0:0:
312,368,174831,2,0,L|304:292,1,75,0|0,3:0|0:0,0:0:0:0:
432,212,175197,2,0,L|424:288,1,75,4|0,0:2|0:0,0:0:0:0:
280,160,175562,54,0,P|272:120|272:84,1,75,0|0,3:0|0:0,0:0:0:0:
368,44,175928,1,4,0:2:0:0:
176,116,176111,1,0,1:0:0:0:
153,112,176203,1,0,1:0:0:0:
130,108,176294,1,8,0:0:0:0:
280,68,176477,1,0,0:0:0:0:
168,208,176660,1,0,3:0:0:0:
144,16,176843,1,0,3:0:0:0:
172,236,177026,6,0,L|248:228,1,75,4|0,3:2|0:0,0:0:0:0:
400,296,177392,2,0,L|324:284,1,75,4|0,0:2|0:0,0:0:0:0:
484,172,177757,2,0,B|488:212|488:212|480:248,1,75,0|0,3:0|0:0,0:0:0:0:
288,348,178123,2,0,L|176:356,1,112.5,4|0,0:2|0:0,0:0:0:0:
160,340,178489,54,0,P|176:304|184:264,1,75,0|0,3:0|0:0,0:0:0:0:
60,144,178855,2,0,P|64:184|72:220,1,75,4|0,0:2|0:0,0:0:0:0:
256,232,179221,2,0,L|332:228,1,75,0|0,3:0|0:0,0:0:0:0:
216,120,179587,2,0,L|140:116,1,75,4|0,0:2|0:0,0:0:0:0:
320,144,179953,6,0,B|332:108|332:108|332:68,1,75,0|0,3:0|0:0,0:0:0:0:
156,204,180318,2,0,B|156:241|156:241|168:277,1,75,4|0,0:2|0:0,0:0:0:0:
304,332,180684,2,0,L|380:328,1,75,0|0,3:0|0:0,0:0:0:0:
492,288,181050,2,0,L|476:364,1,75,4|0,0:2|0:0,0:0:0:0:
364,256,181416,53,0,3:0:0:0:
488,188,181599,1,8,0:0:0:0:
312,172,181782,1,8,0:0:0:0:
472,88,181965,1,0,0:0:0:0:
472,88,182056,1,0,3:0:0:0:
472,88,182148,1,0,3:0:0:0:
364,256,182331,1,0,3:0:0:0:
335,253,182422,1,0,3:0:0:0:
307,251,182513,1,8,1:0:0:0:
279,249,182605,1,0,1:0:0:0:
252,248,182697,2,0,L|208:256,1,37.5,0|0,1:0|1:0,0:0:0:0:
64,320,182879,6,0,L|48:236,1,82.5000025177003,12|0,0:2|0:0,0:0:0:0:
183,70,183245,2,0,L|172:152,1,82.5000025177003,8|0,0:0|0:0,0:0:0:0:
68,196,183611,1,8,0:0:0:0:
268,120,183794,1,0,0:0:0:0:
64,72,183977,1,8,0:0:0:0:
296,128,184160,1,0,0:0:0:0:
224,292,184343,6,0,L|140:284,1,82.5000025177003,8|0,0:0|0:0,0:0:0:0:
348,184,184709,2,0,B|348:224|348:224|336:272,1,82.5000025177003,8|0,0:0|0:0,0:0:0:0:
192,184,185075,1,8,0:0:0:0:
372,100,185257,1,0,0:0:0:0:
152,28,185440,2,0,B|160:72|160:72|156:112,1,82.5000025177003,8|0,0:0|0:0,0:0:0:0:
88,232,185806,54,0,L|4:224,1,82.5000025177003,8|0,0:0|0:0,0:0:0:0:
164,276,186172,2,0,P|168:320|160:360,1,82.5000025177003,8|0,0:0|0:0,0:0:0:0:
164,192,186538,2,0,L|248:184,1,82.5000025177003,8|0,0:0|0:0,0:0:0:0:
88,148,186904,2,0,L|4:140,1,82.5000025177003,8|0,0:0|0:0,0:0:0:0:
192,96,187270,5,8,0:0:0:0:
72,276,187453,1,0,0:0:0:0:
72,276,187544,1,0,0:0:0:0:
72,276,187636,1,8,0:0:0:0:
236,236,187818,1,0,0:0:0:0:
236,236,187910,1,8,0:0:0:0:
236,236,188001,1,8,0:0:0:0:
16,160,188184,1,0,0:0:0:0:
304,88,188367,1,8,0:0:0:0:
315,116,188458,1,0,1:0:0:0:
322,146,188549,1,0,1:0:0:0:
324,177,188641,1,0,1:0:0:0:
321,208,188733,6,0,P|315:251|315:295,1,82.5000025177003,8|0,0:0|0:0,0:0:0:0:
464,164,189099,2,0,P|460:120|448:80,1,82.5000025177003,8|0,0:0|0:0,0:0:0:0:
304,88,189465,2,0,L|220:104,1,82.5000025177003,8|0,0:0|0:0,0:0:0:0:
136,172,189831,1,8,0:0:0:0:
184,16,190014,1,0,0:0:0:0:
232,200,190197,54,0,P|224:240|208:280,1,82.5000025177003,8|0,0:0|0:0,0:0:0:0:
84,328,190562,2,0,P|44:320|0:324,1,82.5000025177003,8|0,0:0|0:0,0:0:0:0:
176,352,190928,2,0,P|236:324|292:340,1,123.75000377655,8|0,0:0|0:0,0:0:0:0:
312,352,191294,2,0,P|352:364|392:364,1,82.5000025177003,8|0,0:0|0:0,0:0:0:0:
484,292,191660,6,0,L|472:208,1,82.5000025177003,8|0,0:0|0:0,0:0:0:0:
348,152,192026,1,8,0:0:0:0:
512,152,192209,1,0,0:0:0:0:
392,72,192392,1,8,0:0:0:0:
384,236,192575,1,0,0:0:0:0:
480,68,192757,1,8,0:0:0:0:
328,160,192940,1,0,0:0:0:0:
512,152,193123,53,8,0:0:0:0:
280,68,193306,1,0,0:0:0:0:
286,44,193398,1,0,1:0:0:0:
293,20,193489,1,8,1:0:0:0:
384,236,193672,1,0,0:0:0:0:
386,260,193764,1,0,1:0:0:0:
388,284,193855,2,0,P|360:316|324:336,1,82.5000025177003,8|0,1:0|1:0,0:0:0:0:
228,344,194129,1,0,1:0:0:0:
228,344,194221,2,0,L|188:336,1,41.2500012588501,0|0,1:0|1:0,0:0:0:0:
92,256,194404,2,0,L|133:249,1,41.2500012588501,0|0,1:0|1:0,0:0:0:0:
280,164,194587,22,0,L|307:167,2,20.6250006294251,2|2|0,0:0|0:0|0:0,0:0:0:0:
