osu file format v14

[General]
AudioFilename: 15. MONSTER.mp3
AudioLeadIn: 0
PreviewTime: 146111
Countdown: 0
SampleSet: Soft
StackLeniency: 0.3
Mode: 0
LetterboxInBreaks: 0
WidescreenStoryboard: 1

[Editor]
DistanceSpacing: 0.8
BeatDivisor: 4
GridSize: 4
TimelineZoom: 1

[Metadata]
Title:MONSTER
TitleUnicode:MONSTER
Artist:Reol
ArtistUnicode:れをる
Creator:handsome
Version:-KEVINCELA-'S EXTRA
Source:
Tags:umetora reworu gokusaishoku -kevincela- regraz sharkie bearizm vinxis asahina momoko mokori fort byfar れをる 極彩色 梅とら
BeatmapID:807482
BeatmapSetID:366440

[Difficulty]
HPDrainRate:6
CircleSize:4
OverallDifficulty:8.5
ApproachRate:9
SliderMultiplier:1.6
SliderTickRate:1

[Events]
//Background and Video events
0,0,"14.jpg",0,0
//Break Periods
2,78445,80572
//Storyboard Layer 0 (Background)
//Storyboard Layer 1 (Fail)
//Storyboard Layer 2 (Pass)
//Storyboard Layer 3 (Foreground)
//Storyboard Sound Samples

[TimingPoints]
685,365.853658536585,4,2,1,40,1,0
685,-133.333333333333,4,2,1,40,0,0
11294,-76.9230769230769,4,2,1,40,0,0
11660,-166.666666666667,4,2,1,40,0,0
12392,-83.3333333333333,4,1,1,70,0,0
24099,-100,4,2,1,40,0,0
34343,-83.3333333333333,4,1,1,70,0,0
35806,-90.9090909090909,4,2,1,60,0,0
45867,-66.6666666666667,4,2,1,60,0,0
46050,-125,4,2,1,65,0,0
47331,-250,4,2,1,65,0,0
48977,-83.3333333333333,4,1,1,75,0,1
69465,-83.3333333333333,4,1,1,70,0,0
80806,-100,4,2,1,50,0,0
89953,-83.3333333333333,4,2,1,70,0,0
91050,-100,4,2,1,70,0,0
91233,-125,4,2,1,70,0,0
91416,-166.666666666667,4,2,1,40,0,0
92880,-90.9090909090909,4,2,1,60,0,0
103124,-100,4,2,1,40,0,0
104221,-95.2380952380952,4,1,1,50,0,0
106050,-83.3333333333333,4,1,1,75,0,1
126538,-100,4,2,1,65,0,0
135319,-100,4,2,1,55,0,0
143276,-100,4,2,1,65,0,0
147758,365.853658536585,4,1,1,75,1,1
147758,-83.3333333333333,4,1,1,75,0,1
168611,-83.3333333333333,4,1,1,85,0,1
171172,-83.3333333333333,4,1,1,70,0,0
171538,-66.6666666666667,4,1,1,70,0,0
171904,-83.3333333333333,4,1,1,70,0,0
172270,-66.6666666666667,4,1,1,70,0,0
173367,-83.3333333333333,4,1,1,70,0,0
174465,-66.6666666666667,4,1,1,70,0,0
174831,-83.3333333333333,4,1,1,70,0,0
175197,-66.6666666666667,4,1,1,70,0,0
177757,-83.3333333333333,4,1,1,70,0,0
178123,-66.6666666666667,4,1,1,70,0,0
179221,-83.3333333333333,4,1,1,70,0,0
180318,-66.6666666666667,4,1,1,70,0,0
180684,-83.3333333333333,4,1,1,70,0,0
181050,-66.6666666666667,4,1,1,70,0,0
182879,-58.8235294117647,4,1,1,80,0,0
194587,-83.3333333333333,4,2,1,50,0,0

[Colours]
Combo1 : 255,47,52
Combo2 : 183,183,183
Combo3 : 118,192,220
Combo4 : 91,109,236
Combo5 : 210,38,253

[HitObjects]
56,88,685,6,0,L|184:80,1,120.000004577637,2|0,0:0|0:0,0:0:0:0:
240,152,1233,1,2,0:0:0:0:
183,229,1599,1,2,0:0:0:0:
239,307,1965,1,2,0:0:0:0:
331,277,2331,1,2,0:0:0:0:
331,181,2697,1,2,0:0:0:0:
240,152,3063,5,2,0:0:0:0:
183,229,3245,1,2,0:0:0:0:
239,307,3428,1,2,0:0:0:0:
428,220,3611,54,0,L|412:84,1,120.000004577637,2|0,0:0|0:0,0:0:0:0:
348,28,4160,1,2,0:0:0:0:
256,60,4526,1,2,0:0:0:0:
164,32,4892,1,2,0:2:0:0:
156,128,5258,1,2,0:0:0:0:
148,224,5624,1,2,0:0:0:0:
60,260,5989,5,2,0:0:0:0:
68,164,6172,1,2,0:0:0:0:
76,68,6355,1,2,0:0:0:0:
148,224,6538,54,0,L|140:364,1,120.000004577637,2|0,0:0|0:0,0:0:0:0:
228,384,7087,1,2,0:0:0:0:
316,344,7453,1,2,0:0:0:0:
368,264,7819,1,2,0:0:0:0:
380,168,8184,1,2,0:0:0:0:
336,84,8550,1,2,0:0:0:0:
256,32,8916,5,2,0:0:0:0:
296,120,9099,1,2,0:0:0:0:
380,168,9282,1,2,0:0:0:0:
374,14,9465,54,0,B|242:34,1,120.000004577637,2|0,0:0|0:0,0:0:0:0:
160,52,10014,1,2,0:0:0:0:
108,132,10380,1,2,0:0:0:0:
164,212,10745,1,2,0:2:0:0:
108,296,10928,6,0,L|114:355,1,60.0000022888184
272,256,11294,2,0,L|261:152,1,103.999995239258,8|0,1:0|0:0,0:0:0:0:
268,52,11569,1,8,0:1:0:0:
268,52,11660,54,0,L|283:219,1,167.999994873047,2|0,0:1|0:0,0:0:0:0:
296,352,12392,5,4,3:2:0:0:
378,230,12575,2,0,L|283:219,1,95.9999970703126,0|8,0:0|0:0,0:0:0:0:
160,260,12941,5,0,0:0:0:0:
78,138,13124,2,0,L|182:126,1,95.9999970703126,0|0,3:0|0:0,0:0:0:0:
396,64,13489,2,0,L|292:52,1,95.9999970703126,8|0,0:0|0:0,0:0:0:0:
148,32,13855,53,0,3:0:0:0:
248,184,14038,1,0,0:0:0:0:
396,64,14221,2,0,B|407:113|407:113|400:176,1,95.9999970703126,8|0,0:0|0:0,0:0:0:0:
254,278,14587,2,0,B|242:228|242:228|250:166,1,95.9999970703126,0|0,3:0|0:0,0:0:0:0:
402,158,14953,2,0,L|518:174,1,95.9999970703126,8|0,0:0|0:0,0:0:0:0:
312,112,15319,5,0,3:0:0:0:
384,252,15502,1,0,0:0:0:0:
288,372,15684,1,8,0:0:0:0:
148,220,15867,53,0,0:0:0:0:
304,210,16050,1,0,3:0:0:0:
374,346,16232,1,0,0:0:0:0:
120,304,16416,5,8,0:0:0:0:
224,176,16599,1,0,0:0:0:0:
374,346,16782,53,0,3:0:0:0:
220,272,16965,1,0,0:0:0:0:
388,144,17148,1,8,0:0:0:0:
288,332,17331,5,0,0:0:0:0:
288,332,17422,1,8,0:0:0:0:
288,332,17514,1,8,3:0:0:0:
224,176,17697,1,0,0:0:0:0:
324,224,17880,1,0,3:0:0:0:
120,304,18063,1,0,3:0:0:0:
16,120,18245,54,0,L|128:108,1,95.9999970703126,4|0,3:2|0:0,0:0:0:0:
224,176,18611,1,8,0:0:0:0:
352,96,18794,2,0,P|356:68|348:0,1,95.9999970703126,0|0,0:0|3:0,0:0:0:0:
240,56,19160,1,0,0:0:0:0:
324,224,19343,2,0,L|444:212,1,95.9999970703126,8|0,0:0|0:0,0:0:0:0:
224,176,19709,5,0,3:0:0:0:
336,328,19892,1,0,0:0:0:0:
120,280,20075,2,0,L|215:289,1,95.9999970703126,8|0,0:0|0:0,0:0:0:0:
419,214,20441,2,0,L|324:224,1,95.9999970703126,0|0,3:0|0:0,0:0:0:0:
128,166,20806,2,0,L|223:175,1,95.9999970703126,8|0,0:0|0:0,0:0:0:0:
419,214,21172,53,0,3:0:0:0:
376,36,21355,1,0,0:0:0:0:
376,36,21538,1,8,0:0:0:0:
368,296,21721,5,0,0:0:0:0:
419,118,21904,1,0,3:0:0:0:
419,118,22087,1,0,0:0:0:0:
287,341,22270,53,8,0:0:0:0:
419,214,22453,1,0,0:0:0:0:
212,96,22636,6,0,L|100:104,1,95.9999970703126,0|0,3:0|0:0,0:0:0:0:
312,164,23002,1,8,0:0:0:0:
208,272,23184,1,0,0:0:0:0:
208,272,23276,1,8,0:0:0:0:
208,272,23367,2,0,L|205:224,1,47.9999985351563,8|0,3:0|2:0,0:0:0:0:
312,164,23550,53,0,0:0:0:0:
312,164,23642,1,0,0:0:0:0:
312,164,23733,2,0,L|306:217,1,47.9999985351563,8|0,0:0|0:0,0:0:0:0:
392,204,23916,2,0,L|395:256,1,47.9999985351563
460,316,24099,53,4,3:1:0:0:
460,316,24465,1,0,3:0:0:0:
392,204,24648,1,0,0:0:0:0:
476,104,24831,2,0,P|476:76|464:16,1,80,0|0,3:0|0:0,0:0:0:0:
321,84,25197,2,0,P|312:123|311:163,1,80,0|0,3:0|0:0,0:0:0:0:
340,320,25563,6,0,L|160:308,1,160,0|0,3:0|3:0,0:0:0:0:
0,292,26111,1,0,0:0:0:0:
100,314,26294,2,0,L|180:309,1,80,0|0,3:0|0:0,0:0:0:0:
96,176,26660,2,0,L|16:170,1,80,0|0,3:0|0:0,0:0:0:0:
180,220,27026,53,0,3:0:0:0:
180,220,27392,2,0,P|188:184|180:132,1,80,0|0,3:0|0:0,0:0:0:0:
99,97,27758,2,0,P|91:133|99:185,1,80,0|0,3:0|0:0,0:0:0:0:
180,220,28124,2,0,L|280:208,1,80,0|0,3:0|0:0,0:0:0:0:
152,308,28489,6,0,L|340:284,1,160,0|0,3:0|3:0,0:0:0:0:
408,316,29038,1,0,0:0:0:0:
500,236,29221,2,0,P|504:204|500:148,1,80,0|0,3:0|0:0,0:0:0:0:
376,96,29587,2,0,P|372:128|376:184,1,80,0|0,3:0|0:0,0:0:0:0:
408,316,29953,53,0,3:0:0:0:
408,316,30319,1,0,3:0:0:0:
308,328,30502,1,0,0:0:0:0:
208,336,30684,2,0,L|112:328,1,80,0|0,3:0|0:0,0:0:0:0:
44,200,31050,2,0,L|140:192,1,80,0|0,3:0|0:0,0:0:0:0:
237,113,31416,6,0,B|180:120|180:120|140:108|140:108|80:112,1,160,0|0,3:0|3:0,0:0:0:0:
196,32,31965,2,0,L|292:24,1,80,0|0,0:0|3:0,0:0:0:0:
412,96,32331,1,0,0:0:0:0:
288,192,32514,2,0,L|192:200,1,80,0|0,3:0|0:0,0:0:0:0:
52,280,32880,54,0,P|136:296|216:352,1,160,0|0,3:0|3:0,0:0:0:0:
288,192,33428,2,0,L|280:96,1,80,0|0,0:0|3:0,0:0:0:0:
408,240,33794,1,0,0:0:0:0:
412,96,33977,2,0,L|418:16,1,80,0|0,3:0|0:0,0:0:0:0:
408,240,34343,6,0,L|260:224,1,143.999995605469,4|0,3:2|3:0,0:0:0:0:
160,260,34709,1,8,0:0:0:0:
32,128,34892,1,0,0:0:0:0:
61,90,34983,1,0,3:0:0:0:
103,68,35074,1,0,3:0:0:0:
151,65,35166,1,0,0:0:0:0:
195,83,35258,2,0,L|204:156,1,47.9999985351563,8|0,0:0|0:0,0:0:0:0:
300,224,35441,2,0,L|305:176,1,47.9999985351563,8|0,0:0|0:0,0:0:0:0:
409,61,35624,1,0,3:0:0:0:
412,96,35715,1,0,3:0:0:0:
416,132,35806,6,0,L|424:224,1,88.000002685547,4|0,3:2|0:0,0:0:0:0:
292,311,36172,2,0,L|300:224,1,88.000002685547,8|0,0:0|0:0,0:0:0:0:
364,376,36538,1,0,3:0:0:0:
364,376,36721,1,0,3:0:0:0:
200,320,36904,2,0,P|164:320|108:336,1,88.000002685547,8|0,0:0|0:0,0:0:0:0:
16,196,37270,54,0,P|58:208|102:209,1,88.000002685547,0|0,3:0|0:0,0:0:0:0:
204,180,37636,1,8,0:0:0:0:
285,10,37819,2,0,P|253:40|230:77,1,88.000002685547,0|0,0:0|3:0,0:0:0:0:
204,180,38185,1,0,3:0:0:0:
376,188,38367,2,0,P|407:157|430:120,1,88.000002685547,8|0,0:0|0:0,0:0:0:0:
430,120,38642,1,0,0:0:0:0:
430,120,38733,5,0,3:0:0:0:
285,10,38916,2,0,L|293:122,1,88.000002685547,0|8,0:0|0:0,0:0:0:0:
224,364,39282,1,0,0:0:0:0:
197,267,39465,2,0,L|203:179,1,88.000002685547,0|0,3:0|3:0,0:0:0:0:
128,340,39831,1,8,0:0:0:0:
288,292,40014,1,0,0:0:0:0:
104,248,40197,54,0,L|0:260,1,88.000002685547,0|0,3:0|0:0,0:0:0:0:
224,364,40563,1,8,0:0:0:0:
360,232,40745,2,0,B|356:168|356:168|372:124|372:124|368:48,1,176.000005371094,0|0,0:0|3:0,0:0:0:0:
452,192,41294,1,8,0:0:0:0:
280,100,41477,5,8,0:0:0:0:
280,100,41569,1,0,0:0:0:0:
280,100,41660,2,0,L|184:96,1,88.000002685547,0|0,3:0|0:0,0:0:0:0:
48,188,42026,1,8,0:0:0:0:
144,232,42209,2,0,P|184:236|240:224,1,88.000002685547,0|0,0:0|3:0,0:0:0:0:
280,100,42575,1,0,3:0:0:0:
184,56,42758,2,0,P|144:52|88:64,1,88.000002685547,8|0,0:0|0:0,0:0:0:0:
48,188,43124,54,0,L|40:288,1,88.000002685547,0|0,3:0|0:0,0:0:0:0:
128,136,43489,1,8,0:0:0:0:
159,318,43672,2,0,L|144:232,1,88.000002685547,0|0,0:0|3:0,0:0:0:0:
252,352,44038,1,0,3:0:0:0:
220,168,44221,2,0,L|257:247,1,88.000002685547,8|0,0:0|0:0,0:0:0:0:
348,292,44495,1,0,0:0:0:0:
360,268,44587,5,4,3:2:0:0:
128,136,44770,1,0,0:0:0:0:
364,0,44953,1,8,0:0:0:0:
364,0,45044,2,0,L|376:92,1,88.000002685547,8|0,0:0|0:0,0:0:0:0:
424,176,45319,53,8,0:0:0:0:
215,148,45502,1,8,0:0:0:0:
171,142,45593,1,0,0:0:0:0:
128,136,45684,1,4,3:2:0:0:
28,280,45867,1,8,0:0:0:0:
76,273,45958,1,0,0:0:0:0:
123,266,46049,53,4,3:2:0:0:
20,116,46233,1,0,0:0:0:0:
20,116,46416,1,0,0:0:0:0:
28,280,46599,5,0,0:0:0:0:
128,136,46782,1,0,3:0:0:0:
212,328,46965,1,0,3:0:0:0:
360,108,47148,1,0,3:0:0:0:
504,240,47331,54,0,L|224:224,1,272,0|0,3:0|0:0,0:0:0:0:
152,272,48977,37,4,3:2:0:0:
80,116,49160,1,0,0:0:0:0:
232,224,49343,1,8,0:0:0:0:
72,324,49526,1,0,0:0:0:0:
232,124,49709,5,0,3:0:0:0:
232,312,49892,1,0,0:0:0:0:
64,232,50075,1,8,0:0:0:0:
312,168,50258,1,0,0:0:0:0:
368,360,50441,53,0,3:0:0:0:
232,224,50624,1,0,0:0:0:0:
302,74,50806,5,8,0:0:0:0:
352,260,50989,1,0,0:0:0:0:
140,200,51172,2,0,P|132:160|140:100,1,95.9999970703126,0|0,3:0|0:0,0:0:0:0:
352,260,51538,2,0,L|192:280,1,143.999995605469,8|0,0:0|2:0,0:0:0:0:
100,296,51904,53,0,3:0:0:0:
184,108,52087,1,0,0:0:0:0:
209,277,52270,1,8,0:0:0:0:
60,132,52453,1,0,0:0:0:0:
272,176,52636,5,0,3:0:0:0:
100,296,52819,1,0,0:0:0:0:
184,108,53002,1,8,0:0:0:0:
344,244,53184,1,0,0:0:0:0:
300,24,53367,53,0,3:0:0:0:
272,176,53550,1,0,0:0:0:0:
436,312,53733,5,8,0:0:0:0:
404,138,53916,1,0,0:0:0:0:
240,320,54099,54,0,L|128:304,1,95.9999970703126,0|0,3:0|0:0,0:0:0:0:
16,172,54465,2,0,P|80:176|160:140,1,143.999995605469,8|0,0:0|2:0,0:0:0:0:
196,56,54831,38,0,L|80:40,1,95.9999970703126,4|0,3:2|0:0,0:0:0:0:
248,132,55197,1,8,0:0:0:0:
100,42,55380,1,0,0:0:0:0:
212,224,55563,2,0,L|328:208,1,95.9999970703126,0|0,3:0|0:0,0:0:0:0:
120,184,55928,1,8,0:0:0:0:
192,315,56111,6,0,P|211:271|212:224,1,95.9999970703126,0|0,0:0|3:0,0:0:0:0:
24,160,56477,2,0,P|24:207|43:251,1,95.9999970703126,0|8,0:0|0:0,0:0:0:0:
184,72,56843,2,0,L|80:64,1,95.9999970703126,0|0,0:0|3:0,0:0:0:0:
212,224,57209,1,0,0:0:0:0:
352,52,57392,1,8,0:0:0:0:
344,376,57575,54,0,L|336:172,1,191.999994140625,0|0,0:0|0:0,0:0:0:0:
464,68,58124,2,0,L|457:224,1,143.999995605469,8|0,0:0|2:0,0:0:0:0:
476,236,58489,6,0,L|376:228,1,95.9999970703126,0|0,3:0|0:0,0:0:0:0:
272,144,58855,2,0,L|176:151,1,95.9999970703126,8|0,0:0|0:0,0:0:0:0:
56,248,59221,53,0,3:0:0:0:
107,340,59404,1,0,0:0:0:0:
200,289,59587,1,8,0:0:0:0:
149,197,59770,1,0,3:0:0:0:
8,336,59953,5,0,3:0:0:0:
192,384,60136,1,0,3:0:0:0:
244,196,60319,1,8,0:0:0:0:
291,193,60410,1,0,0:0:0:0:
339,190,60501,1,0,0:0:0:0:
387,187,60593,1,0,0:0:0:0:
435,185,60684,5,4,3:2:0:0:
280,280,60867,1,0,0:0:0:0:
304,88,61050,1,8,0:0:0:0:
492,260,61233,1,0,0:0:0:0:
244,196,61416,6,0,B|168:184|184:220|84:200,1,143.999995605469,0|0,3:0|2:0,0:0:0:0:
8,160,61782,1,8,0:0:0:0:
124,308,61965,1,0,0:0:0:0:
76,80,62148,53,0,3:0:0:0:
32,260,62331,1,0,0:0:0:0:
272,304,62514,5,8,0:0:0:0:
221,98,62697,1,0,0:0:0:0:
32,260,62880,54,0,L|136:252,1,95.9999970703126,0|0,3:0|0:0,0:0:0:0:
351,147,63245,2,0,P|291:107|221:98,1,143.999995605469,8|0,0:0|2:0,0:0:0:0:
116,108,63611,5,0,3:0:0:0:
32,260,63794,1,0,0:0:0:0:
192,192,63977,1,8,0:0:0:0:
32,48,64160,1,0,0:0:0:0:
128,260,64343,53,0,3:0:0:0:
264,80,64526,1,0,0:0:0:0:
32,156,64709,1,8,0:0:0:0:
200,336,64892,1,0,0:0:0:0:
392,168,65075,5,0,3:0:0:0:
192,192,65258,1,0,0:0:0:0:
32,48,65441,53,8,0:0:0:0:
264,80,65624,1,0,0:0:0:0:
244,276,65806,5,0,3:0:0:0:
197,287,65897,1,0,0:0:0:0:
151,276,65988,1,0,0:0:0:0:
115,245,66080,1,0,0:0:0:0:
96,201,66171,1,8,0:0:0:0:
264,80,66355,21,8,0:0:0:0:
264,80,66447,1,0,0:0:0:0:
264,80,66538,2,0,L|412:68,1,143.999995605469,4|0,3:2|2:0,0:0:0:0:
496,116,66904,21,8,0:0:0:0:
264,80,67087,1,0,0:0:0:0:
466,28,67270,5,8,0:0:0:0:
284,176,67453,1,0,0:0:0:0:
180,140,67636,53,8,0:0:0:0:
412,104,67819,1,0,0:0:0:0:
192,36,68002,5,8,0:0:0:0:
376,184,68185,1,0,0:0:0:0:
160,244,68367,53,8,0:0:0:0:
192,36,68550,1,0,0:0:0:0:
376,184,68733,37,0,0:0:0:0:
338,212,68824,1,0,0:0:0:0:
291,220,68915,1,0,0:0:0:0:
246,205,69007,1,0,0:0:0:0:
213,170,69099,5,0,0:0:0:0:
158,150,69190,1,0,0:0:0:0:
101,168,69281,1,0,0:0:0:0:
67,216,69373,1,0,0:0:0:0:
70,275,69465,54,0,L|180:284,1,95.9999970703126,4|0,3:2|0:0,0:0:0:0:
280,340,69831,1,8,0:0:0:0:
296,120,70014,2,0,L|288:16,1,95.9999970703126,0|0,0:0|3:0,0:0:0:0:
376,184,70380,1,0,0:0:0:0:
213,170,70563,2,0,L|100:160,1,95.9999970703126,8|0,0:0|0:0,0:0:0:0:
284,236,70928,5,0,3:0:0:0:
264,44,71111,1,0,0:0:0:0:
117,161,71294,2,0,B|104:208|104:208|116:260,1,95.9999970703126,8|0,0:0|0:0,0:0:0:0:
281,329,71660,2,0,B|294:282|294:282|282:230,1,95.9999970703126,0|0,3:0|0:0,0:0:0:0:
176,88,72026,1,8,0:0:0:0:
114,254,72209,1,0,0:0:0:0:
281,329,72392,53,0,3:0:0:0:
476,300,72575,1,0,0:0:0:0:
292,228,72758,1,8,0:0:0:0:
376,372,72941,5,0,0:0:0:0:
400,204,73124,1,0,3:0:0:0:
420,36,73306,1,0,0:0:0:0:
288,144,73489,53,8,0:0:0:0:
512,112,73672,1,0,0:0:0:0:
296,40,73855,5,0,3:0:0:0:
212,188,74038,1,0,0:0:0:0:
180,24,74221,1,8,0:0:0:0:
292,228,74404,53,0,0:0:0:0:
292,228,74495,1,8,0:0:0:0:
292,228,74587,1,8,3:0:0:0:
196,104,74770,1,0,0:0:0:0:
152,252,74953,1,8,0:0:0:0:
108,270,75044,1,0,0:0:0:0:
61,264,75135,1,0,0:0:0:0:
24,234,75227,1,0,0:0:0:0:
7,190,75319,6,0,L|20:80,1,95.9999970703126,4|0,3:2|0:0,0:0:0:0:
88,8,75684,1,8,0:0:0:0:
152,252,75867,2,0,L|163:347,1,95.9999970703126,0|0,0:0|3:0,0:0:0:0:
212,156,76233,1,0,0:0:0:0:
380,240,76416,2,0,P|340:248|280:228,1,95.9999970703126,8|0,0:0|0:0,0:0:0:0:
156,76,76782,54,0,P|201:61|248:69,1,95.9999970703126,0|0,3:0|0:0,0:0:0:0:
356,128,77148,1,8,0:0:0:0:
380,240,77331,1,0,0:0:0:0:
212,343,77514,5,0,3:0:0:0:
102,192,77697,1,0,0:0:0:0:
279,249,77880,1,8,0:0:0:0:
102,307,78063,1,0,0:0:0:0:
212,156,78245,53,0,2:0:0:0:
216,264,81172,70,0,L|308:256,1,80,0|0,3:0|0:0,0:0:0:0:
384,300,81538,2,0,P|392:252|364:140,1,160,8|0,0:0|3:0,0:0:0:0:
300,76,82087,1,0,3:0:0:0:
216,128,82270,2,0,L|128:124,1,80,8|0,0:0|0:0,0:0:0:0:
64,208,82636,54,0,P|56:252|60:312,1,80,0|8,3:0|0:0,0:0:0:0:
136,124,83002,1,0,0:0:0:0:
228,216,83184,2,0,P|272:224|332:220,1,80,8|0,0:0|3:0,0:0:0:0:
428,176,83550,1,0,3:0:0:0:
396,280,83733,1,8,0:0:0:0:
336,124,83916,2,0,L|340:80,1,40,0|0,3:0|3:0,3:0:0:0:
268,48,84099,6,0,B|180:32|196:72|108:48,1,160,0|8,3:0|0:0,0:0:0:0:
4,16,84648,1,0,0:0:0:0:
112,160,84831,1,0,3:0:0:0:
112,160,85014,1,0,3:0:0:0:
0,120,85197,2,0,L|4:208,1,80,8|0,0:0|3:0,0:0:0:0:
112,292,85563,53,0,3:0:0:0:
212,304,85745,1,8,0:0:0:0:
316,316,85928,1,0,0:0:0:0:
316,316,86019,1,0,0:0:0:0:
316,316,86111,1,8,0:0:0:0:
420,324,86294,5,0,3:0:0:0:
272,224,86477,1,8,0:0:0:0:
444,160,86660,1,8,0:0:0:0:
280,80,86843,2,0,L|232:72,1,40,0|0,3:0|3:0,3:0:0:0:
168,112,87026,54,0,L|184:200,1,80,0|0,3:0|0:0,0:0:0:0:
352,152,87392,2,0,P|372:108|340:-4,1,160,8|0,0:0|3:0,0:0:0:0:
280,80,87941,1,0,3:0:0:0:
272,224,88124,2,0,L|288:312,1,80,8|0,0:0|0:0,0:0:0:0:
182,190,88489,5,0,3:0:0:0:
96,144,88672,2,0,L|110:65,1,80,8|0,0:0|0:0,0:0:0:0:
12,192,89038,1,0,0:0:0:0:
12,192,89130,1,8,0:0:0:0:
12,192,89221,2,0,L|26:270,1,80,8|0,3:0|0:0,0:0:0:0:
132,332,89587,2,0,L|180:328,1,40,8|0,0:0|0:0,0:0:0:0:
264,300,89770,1,8,0:0:0:0:
260,332,89861,1,0,3:0:0:0:
256,364,89953,53,12,3:2:0:0:
192,244,90136,1,0,0:0:0:0:
192,244,90227,1,0,3:0:0:0:
192,244,90319,1,8,0:0:0:0:
272,136,90502,1,0,0:0:0:0:
272,136,90593,1,0,3:0:0:0:
272,136,90684,1,0,3:0:0:0:
132,16,90867,22,0,L|72:12,1,47.9999985351563,8|0,0:0|0:0,0:0:0:0:
16,116,91050,2,0,L|42:169,1,40,0|0,3:0|0:0,0:0:0:0:
160,164,91233,2,0,L|193:114,1,32,0|0,3:0|0:0,0:0:0:0:
104,100,91416,38,0,L|92:256,1,143.999995605469,2|0,3:1|2:0,0:0:0:0:
92,243,92880,6,0,L|104:348,1,88.000002685547,4|0,3:2|0:0,0:0:0:0:
224,164,93245,2,0,B|132:188|140:136|48:160,1,176.000005371094,8|0,0:0|3:0,0:0:0:0:
188,80,93794,1,0,0:0:0:0:
260,244,93977,2,0,P|260:292|248:348,1,88.000002685547,8|0,0:0|0:0,0:0:0:0:
224,164,94343,6,0,L|324:156,1,88.000002685547,0|0,3:0|0:0,0:0:0:0:
168,236,94709,1,8,0:0:0:0:
347,251,94892,2,0,L|247:243,1,88.000002685547,0|0,0:0|3:0,0:0:0:0:
76,224,95258,1,0,0:0:0:0:
200,320,95441,1,8,0:0:0:0:
224,164,95624,1,0,0:0:0:0:
224,164,95715,1,0,0:0:0:0:
224,164,95806,54,0,P|228:124|216:64,1,88.000002685547,0|0,3:0|0:0,0:0:0:0:
168,236,96172,1,8,0:0:0:0:
301,23,96355,2,0,P|321:108|316:196,1,176.000005371094,0|0,0:0|0:0,0:0:0:0:
136,120,96904,2,0,L|36:112,1,88.000002685547,8|0,0:0|0:0,0:0:0:0:
224,164,97270,5,0,3:0:0:0:
224,164,97453,1,0,3:0:0:0:
48,320,97636,2,0,B|100:312|100:312|128:296|128:296|188:288,1,132.00000402832,8|0,0:0|0:0,0:0:0:0:
280,308,98002,53,0,3:0:0:0:
280,308,98184,1,0,3:0:0:0:
312,124,98367,1,8,0:0:0:0:
132,200,98550,1,8,0:0:0:0:
132,200,98642,1,0,0:0:0:0:
132,200,98733,6,0,L|40:192,1,88.000002685547,0|0,3:0|0:0,0:0:0:0:
224,164,99099,2,0,B|220:228|220:228|192:268|192:268|184:348,1,176.000005371094,8|0,0:0|3:0,0:0:0:0:
132,200,99648,1,0,0:0:0:0:
280,308,99831,2,0,L|372:300,1,88.000002685547,8|0,0:0|0:0,0:0:0:0:
472,200,100197,54,0,P|476:164|464:96,1,88.000002685547,0|0,3:0|0:0,0:0:0:0:
420,24,100563,1,8,0:0:0:0:
296,80,100745,2,0,P|248:88|188:80,1,88.000002685547,0|0,0:0|3:0,0:0:0:0:
108,44,101111,1,0,0:0:0:0:
120,148,101294,1,8,0:0:0:0:
296,80,101477,5,0,0:0:0:0:
296,80,101569,1,0,3:0:0:0:
296,80,101660,1,0,3:0:0:0:
308,184,101843,1,0,0:0:0:0:
137,323,102026,2,0,L|120:148,1,176.000005371094,0|0,3:0|3:0,0:0:0:0:
108,44,102575,53,0,0:0:0:0:
200,60,102758,1,0,3:0:0:0:
296,80,102941,1,0,0:0:0:0:
392,96,103124,53,2,0:0:0:0:
420,192,103489,1,2,0:0:0:0:
384,284,103855,1,2,0:0:0:0:
288,312,104221,5,0,0:0:0:0:
384,284,104404,1,0,2:0:0:0:
420,192,104587,1,0,0:0:0:0:
392,96,104770,1,0,0:0:0:0:
304,48,104953,1,0,0:0:0:0:
208,72,105136,1,0,0:0:0:0:
128,217,105319,6,0,L|292:182,1,167.999994873047,0|0,0:0|0:0,0:0:0:0:
292,182,106050,5,4,3:2:0:0:
208,72,106233,1,0,0:0:0:0:
128,217,106416,1,8,0:0:0:0:
304,88,106599,1,0,0:0:0:0:
96,52,106782,5,0,3:0:0:0:
224,264,106965,1,0,0:0:0:0:
416,112,107148,1,8,0:0:0:0:
192,168,107331,1,0,0:0:0:0:
380,300,107514,53,0,3:0:0:0:
304,88,107697,1,0,0:0:0:0:
224,264,107880,5,8,0:0:0:0:
416,112,108063,1,0,0:0:0:0:
184,52,108245,54,0,L|76:56,1,95.9999970703126,0|0,3:1|0:0,0:0:0:0:
80,269,108611,2,0,L|223:263,1,143.999995605469,8|0,0:0|2:0,0:0:0:0:
332,256,108977,5,0,3:0:0:0:
164,176,109160,1,0,0:0:0:0:
188,360,109343,1,8,0:0:0:0:
272,164,109526,1,0,0:0:0:0:
56,188,109709,53,0,3:0:0:0:
232,264,109892,1,0,0:0:0:0:
104,100,110075,1,8,0:0:0:0:
8,280,110258,1,0,0:0:0:0:
164,176,110441,5,0,3:0:0:0:
44,20,110624,1,0,0:0:0:0:
56,188,110806,53,8,0:0:0:0:
272,164,110989,1,0,0:0:0:0:
104,100,111172,6,0,L|-16:112,1,95.9999970703126,0|0,3:0|0:0,0:0:0:0:
272,164,111538,2,0,L|425:148,1,143.999995605469,8|0,0:0|2:0,0:0:0:0:
488,224,111904,22,0,L|380:236,1,95.9999970703126,4|0,3:2|0:0,0:0:0:0:
208,236,112270,1,8,0:0:0:0:
320,80,112453,1,0,0:0:0:0:
300,268,112636,2,0,L|296:380,1,95.9999970703126,0|0,3:0|0:0,0:0:0:0:
272,164,113002,1,8,0:0:0:0:
148,308,113184,6,0,P|104:327|57:327,1,95.9999970703126,0|0,0:0|3:0,0:0:0:0:
180,143,113550,2,0,P|228:143|271:163,1,95.9999970703126,0|8,0:0|0:0,0:0:0:0:
80,200,113916,2,0,L|68:100,1,95.9999970703126,0|0,0:0|3:0,0:0:0:0:
208,236,114282,1,0,0:0:0:0:
68,104,114465,1,8,0:0:0:0:
276,48,114648,54,0,B|344:44|344:44|396:56|396:56|472:52,1,191.999994140625,0|0,0:0|0:0,0:0:0:0:
320,136,115197,2,0,B|267:139|267:139|227:129|227:129|172:132,1,143.999995605469,8|0,0:0|2:0,0:0:0:0:
152,152,115563,6,0,P|160:116|148:40,1,95.9999970703126,0|0,3:0|0:0,0:0:0:0:
40,204,115928,2,0,P|33:251|42:298,1,95.9999970703126,8|0,0:0|0:0,0:0:0:0:
176,356,116294,53,0,3:0:0:0:
288,336,116477,1,0,0:0:0:0:
400,316,116660,1,8,0:0:0:0:
512,296,116843,1,0,3:0:0:0:
320,240,117026,5,0,3:0:0:0:
468,384,117209,1,0,3:0:0:0:
512,184,117392,1,8,0:0:0:0:
485,143,117483,1,0,0:0:0:0:
443,120,117574,1,0,0:0:0:0:
396,119,117666,1,0,0:0:0:0:
352,138,117757,5,4,3:2:0:0:
400,316,117941,1,0,0:0:0:0:
512,184,118124,1,8,0:0:0:0:
320,240,118306,1,0,0:0:0:0:
352,20,118489,5,0,3:0:0:0:
416,212,118672,1,0,0:0:0:0:
216,164,118855,1,8,0:0:0:0:
444,92,119038,1,0,0:0:0:0:
320,240,119221,53,0,3:0:0:0:
248,40,119404,1,0,0:0:0:0:
96,207,119587,5,8,0:0:0:0:
332,128,119770,1,0,0:0:0:0:
211,367,119953,54,0,L|204:272,1,95.9999970703126,0|0,3:0|0:0,0:0:0:0:
107,63,120319,2,0,L|95:211,1,143.999995605469,8|0,0:0|2:0,0:0:0:0:
84,316,120684,5,0,3:0:0:0:
220,156,120867,1,0,0:0:0:0:
20,96,121050,1,8,0:0:0:0:
176,264,121233,1,0,0:0:0:0:
256,52,121416,53,0,3:0:0:0:
52,200,121599,1,0,0:0:0:0:
288,328,121782,1,8,0:0:0:0:
116,120,121965,1,0,0:0:0:0:
8,368,122148,5,0,3:0:0:0:
272,232,122331,1,0,0:0:0:0:
52,200,122514,53,8,0:0:0:0:
360,358,122697,1,0,0:0:0:0:
268,127,122880,5,0,3:0:0:0:
222,140,122971,1,0,0:0:0:0:
187,172,123062,1,0,0:0:0:0:
170,216,123154,1,0,0:0:0:0:
175,263,123245,1,8,0:0:0:0:
415,218,123428,21,8,0:0:0:0:
415,218,123520,1,0,0:0:0:0:
415,218,123611,2,0,L|272:232,1,143.999995605469,4|0,3:2|2:0,0:0:0:0:
175,263,123977,21,8,0:0:0:0:
268,127,124160,1,0,0:0:0:0:
196,284,124343,5,8,0:0:0:0:
172,98,124526,1,0,0:0:0:0:
216,304,124709,53,8,0:0:0:0:
77,141,124892,1,0,0:0:0:0:
236,324,125075,5,8,0:0:0:0:
12,231,125258,1,0,0:0:0:0:
256,344,125441,53,8,0:0:0:0:
0,352,125624,1,0,0:0:0:0:
272,364,125806,37,0,0:0:0:0:
274,328,125897,1,0,0:0:0:0:
277,292,125988,1,0,0:0:0:0:
279,256,126080,1,0,0:0:0:0:
264,216,126172,5,0,0:0:0:0:
306,236,126263,1,0,0:0:0:0:
354,238,126354,1,0,0:0:0:0:
398,221,126446,1,0,0:0:0:0:
432,187,126538,6,0,L|424:36,2,120,4|0|0,3:2|3:0|3:0,0:0:0:0:
396,328,127270,1,4,0:0:0:0:
332,136,127453,1,0,0:0:0:0:
168,252,127636,54,0,B|104:268|112:240|48:250,2,120,0|0|0,3:0|3:0|3:0,0:0:0:0:
332,136,128367,1,8,0:0:0:0:
396,328,128550,5,8,0:0:0:0:
396,328,128642,1,0,0:0:0:0:
396,328,128733,2,0,P|464:324|512:288,2,120,0|0|0,3:0|3:0|3:0,0:0:0:0:
256,216,129465,1,8,0:0:0:0:
116,328,129648,1,8,0:0:0:0:
24,152,129831,54,0,L|32:32,2,120,0|0|0,3:0|3:0|3:0,0:0:0:0:
112,192,130471,1,0,3:0:0:0:
112,192,130563,2,0,L|114:152,1,40,4|0,3:2|3:0,0:0:0:0:
284,96,130745,2,0,L|281:135,1,40,0|0,3:0|3:0,0:0:0:0:
196,204,130928,6,0,L|204:84,2,120,4|0|0,3:2|3:0|3:0,0:0:0:0:
240,288,131569,1,0,3:0:0:0:
240,288,131661,2,0,L|242:327,3,40,8|0|0|0,0:0|0:0|0:0|0:0,0:0:0:0:
312,220,132026,2,0,L|314:180,3,40,0|0|0|0,3:0|0:0|0:0|3:0,0:0:0:0:
372,296,132392,53,0,0:0:0:0:
420,287,132483,1,0,0:0:0:0:
461,258,132574,1,0,3:0:0:0:
484,214,132666,1,0,0:0:0:0:
486,165,132758,5,0,1:0:0:0:
426,159,132849,1,0,1:0:0:0:
366,154,132940,1,0,1:0:0:0:
306,149,133032,1,0,1:0:0:0:
246,144,133123,53,0,1:0:0:0:
156,320,133398,1,0,1:0:0:0:
24,168,133672,1,0,1:0:0:0:
24,168,134221,6,0,L|156:154,1,120,8|8,0:0|0:0,0:0:0:0:
246,144,134587,53,0,1:0:0:0:
242,174,134678,1,0,1:0:0:0:
238,203,134769,1,0,1:0:0:0:
234,233,134861,1,0,1:0:0:0:
256,268,134953,5,0,3:0:0:0:
259,290,135044,1,0,3:0:0:0:
262,312,135135,1,0,3:0:0:0:
265,334,135227,1,0,3:0:0:0:
240,368,135319,21,6,3:2:0:0:
144,348,135684,1,0,0:0:0:0:
48,324,136050,1,0,0:0:0:0:
144,304,136416,1,0,0:0:0:0:
240,280,136782,1,0,0:0:0:0:
144,256,137148,1,0,0:0:0:0:
44,224,137514,1,0,0:0:0:0:
144,204,137880,2,0,L|240:184,1,80,0|0,0:0|0:0,0:0:0:0:
414,146,138245,5,2,0:0:0:0:
318,166,138610,1,0,0:0:0:0:
222,190,138976,1,0,0:0:0:0:
318,210,139342,1,0,0:0:0:0:
414,234,139708,1,0,0:0:0:0:
318,258,140074,1,0,0:0:0:0:
218,290,140440,1,0,0:0:0:0:
318,310,140806,2,0,L|414:326,1,80,0|0,0:0|0:0,0:0:0:0:
218,290,141172,53,2,0:0:0:0:
132,316,141904,1,2,0:0:0:0:
40,288,142636,1,2,0:0:0:0:
8,200,143184,5,0,0:0:0:0:
8,200,143276,1,0,3:0:0:0:
8,200,143367,2,0,L|56:188,1,40,0|0,3:0|3:0,0:0:0:0:
156,160,143550,1,8,0:0:0:0:
92,368,143733,1,8,0:0:0:0:
232,232,143916,5,0,3:0:0:0:
232,232,144008,1,0,3:0:0:0:
232,232,144099,1,4,3:0:0:0:
46,190,144282,1,0,0:0:0:0:
280,40,144465,53,0,3:0:0:0:
156,160,144648,1,0,0:0:0:0:
88,4,144831,5,0,3:0:0:0:
256,136,145014,1,0,3:0:0:0:
46,190,145197,53,0,3:0:0:0:
280,40,145380,1,0,3:0:0:0:
280,32,147758,21,4,3:2:0:0:
332,232,147940,1,0,0:0:0:0:
384,40,148123,1,8,0:0:0:0:
188,92,148306,1,0,0:0:0:0:
424,160,148489,5,0,3:0:0:0:
212,200,148672,1,0,0:0:0:0:
440,276,148855,1,8,0:0:0:0:
308,128,149038,1,0,0:0:0:0:
252,308,149221,53,0,3:0:0:0:
424,160,149404,1,0,0:3:0:0:
212,200,149587,5,8,0:0:0:0:
440,276,149770,1,0,0:0:0:0:
308,128,149953,54,0,P|300:92|312:16,1,95.9999970703126,0|0,3:0|0:0,0:0:0:0:
344,228,150318,2,0,L|160:216,1,143.999995605469,8|0,0:0|2:0,0:0:0:0:
108,248,150684,5,0,3:0:0:0:
308,128,150867,1,0,0:0:0:0:
184,324,151050,1,8,0:0:0:0:
200,96,151233,1,0,0:0:0:0:
292,320,151416,53,0,3:0:0:0:
112,152,151599,1,0,0:0:0:0:
324,28,151782,1,8,0:0:0:0:
204,228,151965,1,0,0:0:0:0:
12,88,152148,5,0,3:0:0:0:
308,128,152331,1,0,0:0:0:0:
88,256,152514,53,8,0:0:0:0:
408,92,152697,1,0,0:0:0:0:
104,24,152879,6,0,L|112:132,1,95.9999970703126,0|0,3:0|0:0,0:0:0:0:
268,308,153245,2,0,P|292:272|280:156,1,143.999995605469,8|0,0:0|2:0,0:0:0:0:
252,84,153611,22,0,L|364:72,1,95.9999970703126,4|0,3:2|0:0,0:0:0:0:
196,168,153977,1,8,0:0:0:0:
347,73,154160,1,0,0:0:0:0:
156,44,154343,6,0,L|44:32,1,95.9999970703126,0|0,3:0|0:0,0:0:0:0:
196,168,154709,1,8,0:0:0:0:
347,73,154892,54,0,L|459:61,1,95.9999970703126,0|0,0:0|3:0,0:0:0:0:
196,168,155258,2,0,L|84:156,1,95.9999970703126,0|8,0:0|0:0,0:0:0:0:
380,224,155623,2,0,L|492:212,1,95.9999970703126,0|0,0:0|3:0,0:0:0:0:
292,160,155989,1,0,0:0:0:0:
248,328,156172,1,8,0:0:0:0:
396,124,156355,6,0,P|336:72|220:84,1,191.999994140625,0|0,0:0|0:0,0:0:0:0:
64,212,156904,2,0,L|216:204,1,143.999995605469,8|0,0:0|2:0,0:0:0:0:
292,160,157270,54,0,P|300:200|280:268,1,95.9999970703126,0|0,3:0|0:0,0:0:0:0:
108,304,157636,2,0,L|228:297,1,95.9999970703126,8|0,0:0|0:0,0:0:0:0:
412,284,158001,5,0,3:0:0:0:
316,252,158184,1,0,0:0:0:0:
292,160,158367,1,8,0:0:0:0:
340,72,158550,1,0,3:0:0:0:
496,224,158733,53,0,3:0:0:0:
328,348,158916,1,0,3:0:0:0:
387,142,159099,1,8,0:0:0:0:
339,150,159190,1,0,0:0:0:0:
292,160,159281,1,0,0:0:0:0:
245,170,159373,1,0,0:0:0:0:
198,180,159464,21,4,3:2:0:0:
316,252,159648,1,0,0:0:0:0:
212,72,159831,1,8,0:0:0:0:
172,276,160014,1,0,0:0:0:0:
0,120,160197,6,0,B|72:108|60:140|144:120,1,143.999995605469,0|0,3:0|2:0,0:0:0:0:
212,72,160562,1,8,0:0:0:0:
28,204,160745,1,0,0:0:0:0:
100,36,160928,53,0,3:0:0:0:
172,276,161111,1,0,0:0:0:0:
0,120,161294,5,8,0:0:0:0:
256,184,161477,1,0,0:0:0:0:
72,384,161660,54,0,L|68:288,1,95.9999970703126,0|0,3:0|0:0,0:0:0:0:
212,72,162026,2,0,L|204:228,1,143.999995605469,8|0,0:0|2:0,0:0:0:0:
252,308,162392,5,0,3:0:0:0:
112,172,162575,1,0,0:0:0:0:
296,96,162757,1,8,0:0:0:0:
148,280,162940,1,0,0:0:0:0:
356,220,163123,53,0,3:0:0:0:
112,172,163306,1,0,0:0:0:0:
176,384,163489,1,8,0:0:0:0:
228,188,163672,1,0,0:0:0:0:
0,156,163855,5,0,3:0:0:0:
252,308,164038,1,0,0:0:0:0:
180,88,164221,53,8,0:0:0:0:
64,360,164404,1,0,0:0:0:0:
228,188,164587,5,0,3:0:0:0:
275,190,164678,1,0,0:0:0:0:
323,193,164769,1,0,0:0:0:0:
371,196,164861,1,0,0:0:0:0:
419,198,164952,1,8,0:0:0:0:
180,88,165136,21,8,0:0:0:0:
180,88,165227,1,0,0:0:0:0:
180,88,165318,2,0,L|340:96,1,143.999995605469,0|0,3:0|2:0,0:0:0:0:
436,104,165684,21,8,0:0:0:0:
424,296,165867,1,0,0:0:0:0:
323,95,166050,5,8,0:0:0:0:
333,267,166233,1,0,0:0:0:0:
216,88,166416,53,8,0:0:0:0:
237,240,166599,1,0,0:0:0:0:
136,336,166782,5,8,0:0:0:0:
157,184,166965,1,0,0:0:0:0:
255,329,167148,53,8,0:0:0:0:
265,157,167331,1,0,0:0:0:0:
376,320,167514,5,8,0:0:0:0:
364,128,167697,1,0,0:0:0:0:
492,304,167879,21,0,3:0:0:0:
487,250,167970,1,0,3:0:0:0:
482,196,168061,1,0,3:0:0:0:
477,142,168153,1,0,3:0:0:0:
472,88,168245,6,0,L|300:72,1,143.999995605469,4|0,3:0|2:0,0:0:0:0:
216,68,168611,5,8,0:0:0:0:
316,240,168794,1,0,0:0:0:0:
328,74,168977,5,8,0:0:0:0:
208,236,169160,1,0,0:0:0:0:
400,320,169343,53,8,0:0:0:0:
144,144,169526,1,0,0:0:0:0:
392,160,169709,5,8,0:0:0:0:
116,296,169892,1,0,0:0:0:0:
92,48,170075,53,8,0:0:0:0:
256,328,170257,1,0,0:0:0:0:
444,64,170440,5,0,3:0:0:0:
400,62,170531,1,0,0:0:0:0:
356,60,170622,1,0,0:0:0:0:
312,58,170714,1,0,0:0:0:0:
268,56,170805,1,8,0:0:0:0:
224,54,170897,1,0,0:0:0:0:
180,52,170988,1,0,0:0:0:0:
136,50,171080,1,0,0:0:0:0:
92,48,171172,38,0,L|100:160,1,95.9999970703126,4|0,3:2|0:0,0:0:0:0:
255,327,171538,2,0,L|247:208,1,120.000004577637,4|0,0:2|0:0,0:0:0:0:
98,143,171904,6,0,L|90:255,1,95.9999970703126,0|0,3:0|0:0,0:0:0:0:
247,208,172270,2,0,L|255:88,1,120.000004577637,4|0,0:2|0:0,0:0:0:0:
172,272,172636,53,0,3:0:0:0:
256,88,172818,1,0,0:0:0:0:
365,230,173001,2,0,L|248:208,1,120.000004577637,4|0,0:2|0:0,0:0:0:0:
3,161,173367,6,0,L|120:138,1,95.9999970703126,0|0,3:0|0:0,0:0:0:0:
256,88,173733,1,4,0:2:0:0:
172,272,173916,1,0,0:0:0:0:
324,8,174099,54,0,P|349:48|359:95,1,95.9999970703126,0|0,3:0|0:0,0:0:0:0:
64,292,174465,2,0,P|72:232|107:183,1,120.000004577637,4|0,0:2|0:0,0:0:0:0:
332,356,174831,6,0,L|236:348,1,95.9999970703126,0|0,3:0|0:0,0:0:0:0:
84,88,175197,2,0,P|143:98|191:135,1,120.000004577637,4|0,0:2|0:0,0:0:0:0:
236,348,175562,53,0,3:0:0:0:
100,192,175745,1,0,0:0:0:0:
320,232,175928,2,0,L|176:248,1,120.000004577637,4|0,0:2|0:0,0:0:0:0:
200,245,176203,1,0,0:0:0:0:
200,245,176294,5,8,0:0:0:0:
408,296,176477,1,0,0:0:0:0:
264,144,176660,1,0,3:0:0:0:
236,348,176843,1,0,3:0:0:0:
372,188,177026,54,0,P|380:144|352:68,1,120.000004577637,4|0,3:2|0:0,0:0:0:0:
152,104,177392,2,0,P|144:148|172:224,1,120.000004577637,4|0,0:2|0:0,0:0:0:0:
408,296,177757,6,0,L|504:288,1,95.9999970703126,0|0,3:0|0:0,0:0:0:0:
264,144,178123,2,0,L|144:134,1,120.000004577637,4|0,0:2|0:0,0:0:0:0:
356,80,178489,53,0,3:0:0:0:
304,276,178672,1,0,0:0:0:0:
144,134,178855,2,0,L|134:15,1,120.000004577637,4|0,0:2|0:0,0:0:0:0:
196,232,179221,6,0,L|185:351,1,95.9999970703126,0|0,3:0|0:0,0:0:0:0:
264,144,179587,1,4,0:2:0:0:
80,244,179770,1,0,0:0:0:0:
304,276,179953,54,0,L|412:264,1,95.9999970703126,0|0,3:0|0:0,0:0:0:0:
143,133,180318,2,0,P|132:188|151:265,1,120.000004577637,4|0,0:2|0:0,0:0:0:0:
359,133,180684,6,0,L|251:145,1,95.9999970703126,0|0,3:0|0:0,0:0:0:0:
80,336,181050,2,0,P|135:347|212:328,1,120.000004577637,4|0,0:2|0:0,0:0:0:0:
359,133,181416,53,0,3:0:0:0:
144,248,181599,1,8,0:0:0:0:
132,4,181782,1,8,0:0:0:0:
452,76,181965,5,0,0:0:0:0:
452,76,182056,1,0,3:0:0:0:
452,76,182148,1,0,3:0:0:0:
248,188,182331,1,0,0:0:0:0:
36,304,182514,1,0,0:0:0:0:
23,260,182605,1,0,0:0:0:0:
27,216,182696,1,0,0:0:0:0:
45,175,182788,1,0,0:0:0:0:
77,144,182879,6,0,L|224:152,1,136.000002593994,12|0,0:2|0:0,0:0:0:0:
152,312,183245,2,0,L|287:304,1,136.000002593994,8|0,0:0|0:0,0:0:0:0:
348,144,183611,54,0,L|201:152,1,136.000002593994,8|0,0:0|0:0,0:0:0:0:
423,312,183977,2,0,L|287:304,1,136.000002593994,8|0,0:0|0:0,0:0:0:0:
448,196,184343,5,8,0:0:0:0:
287,304,184526,1,0,0:0:0:0:
284,40,184709,2,0,P|344:28|432:48,1,136.000002593994,8|0,0:0|0:0,0:0:0:0:
208,128,185075,54,0,L|56:116,1,136.000002593994,8|0,0:0|0:0,0:0:0:0:
348,144,185440,1,8,0:0:0:0:
144,288,185623,1,0,0:0:0:0:
28,56,185806,6,0,L|40:216,1,136.000002593994,8|0,0:0|0:0,0:0:0:0:
260,224,186172,2,0,L|248:384,1,136.000002593994,8|0,0:0|0:0,0:0:0:0:
152,172,186538,54,0,L|141:36,1,136.000002593994,8|0,0:0|0:0,0:0:0:0:
384,240,186904,2,0,L|373:375,1,136.000002593994,8|0,0:0|0:0,0:0:0:0:
348,144,187270,5,8,0:0:0:0:
160,276,187453,1,0,0:0:0:0:
144,52,187636,1,8,0:0:0:0:
260,224,187818,53,0,0:0:0:0:
260,224,187910,1,8,0:0:0:0:
260,224,188001,1,8,0:0:0:0:
56,240,188184,1,0,0:0:0:0:
240,344,188367,1,8,0:0:0:0:
290,338,188458,1,0,0:0:0:0:
341,333,188549,1,0,0:0:0:0:
392,327,188641,1,0,0:0:0:0:
442,322,188732,5,8,0:0:0:0:
468,144,188916,1,0,0:0:0:0:
368,236,189099,53,8,0:0:0:0:
342,57,189283,1,0,0:0:0:0:
240,144,189465,5,8,0:0:0:0:
214,323,189649,1,0,0:0:0:0:
116,236,189832,53,8,0:0:0:0:
91,58,190014,1,0,0:0:0:0:
20,280,190197,5,8,0:0:0:0:
152,136,190379,1,0,0:0:0:0:
24,152,190562,53,8,0:0:0:0:
108,356,190745,1,0,0:0:0:0:
224,216,190928,5,8,0:0:0:0:
20,280,191111,1,0,0:0:0:0:
214,323,191294,53,8,0:0:0:0:
236,104,191477,1,0,0:0:0:0:
366,351,191660,5,8,0:0:0:0:
348,164,191843,1,0,0:0:0:0:
448,72,192026,53,8,0:0:0:0:
430,259,192209,1,0,0:0:0:0:
252,136,192392,5,8,0:0:0:0:
472,164,192575,1,0,0:0:0:0:
284,248,192757,53,8,0:0:0:0:
303,42,192940,1,0,0:0:0:0:
430,259,193123,5,8,0:0:0:0:
228,344,193306,1,0,0:0:0:0:
252,136,193489,1,8,0:0:0:0:
352,360,193672,1,0,0:0:0:0:
352,360,193764,1,8,0:0:0:0:
352,360,193855,1,8,0:0:0:0:
176,232,194038,53,0,0:0:0:0:
133,216,194129,1,0,0:0:0:0:
88,218,194220,1,0,0:0:0:0:
47,237,194312,1,0,0:0:0:0:
16,269,194403,1,0,0:0:0:0:
0,311,194495,1,0,0:0:0:0:
0,356,194587,22,0,L|40:364,2,23.9999992675781,2|0|0,0:0|0:0|0:0,0:0:0:0:
