osu file format v14

[General]
AudioFilename: audio.mp3
AudioLeadIn: 0
PreviewTime: 48295
Countdown: 0
SampleSet: Soft
StackLeniency: 0.7
Mode: 3
LetterboxInBreaks: 0
EpilepsyWarning: 1
SpecialStyle: 0
WidescreenStoryboard: 1

[Editor]
DistanceSpacing: 1
BeatDivisor: 8
GridSize: 32
TimelineZoom: 2

[Metadata]
Title:MONSTER
TitleUnicode:MONSTER
Artist:Reol
ArtistUnicode:れをる
Creator:atian540
Version:MX
Source:
Tags:極彩色 梅とら umetora reworu gokusaishikoku short-ver fadillsan umo-
BeatmapID:1469009
BeatmapSetID:694349

[Difficulty]
HPDrainRate:8
CircleSize:4
OverallDifficulty:8
ApproachRate:10
SliderMultiplier:1.4
SliderTickRate:1

[Events]
//Background and Video events
0,0,"BG MONSTER.jpg",0,0
//Break Periods
//Storyboard Layer 0 (Background)
//Storyboard Layer 1 (Fail)
//Storyboard Layer 2 (Pass)
//Storyboard Layer 3 (Foreground)
//Storyboard Sound Samples

[TimingPoints]
735,365.853658536585,4,2,1,60,1,0
11710,-400,4,2,1,60,0,0
12167,-133.333333333333,4,2,1,60,0,0
12259,-80,4,2,1,60,0,0
12350,-57.1428571428571,4,2,1,60,0,0
12442,-100,4,2,1,60,0,0
23600,-57.1428571428571,4,2,1,60,0,0
23646,-400,4,2,1,60,0,0
23692,-57.1428571428571,4,2,1,60,0,0
23738,-400,4,2,1,60,0,0
23783,-57.1428571428571,4,2,1,60,0,0
23829,-400,4,2,1,60,0,0
23875,-57.1428571428571,4,2,1,60,0,0
23920,-400,4,2,1,60,0,0
23966,-57.1428571428571,4,2,1,60,0,0
24012,-400,4,2,1,60,0,0
24058,-57.1428571428571,4,2,1,60,0,0
24103,-400,4,2,1,60,0,0
24149,-100,4,2,1,60,0,0
47564,-133.333333333333,4,2,1,60,0,0
48295,-22.2222222222222,4,2,1,60,0,0
48341,-200,4,2,1,60,0,0
48661,-22.2222222222222,4,2,1,60,0,0
48707,-200,4,2,1,60,0,0
49027,-100,4,2,1,60,0,1
72442,-100,4,2,1,60,0,0

[HitObjects]
320,192,735,5,2,0:0:0:0:
448,192,735,128,0,1283:0:0:0:100:G#5S_Ab5S_s.wav
64,192,1100,1,2,0:0:0:0:
320,192,1283,128,0,1832:0:0:0:100:A5S_s.wav
192,192,1466,1,2,0:0:0:0:
448,192,1832,1,2,0:0:0:0:
64,192,1832,128,0,1924:0:0:0:100:G#5S_Ab5S_s.wav
64,192,2015,128,0,2381:0:0:0:100:G#5S_Ab5S_s.wav
448,192,2198,1,2,0:0:0:0:
320,192,2381,128,0,2930:0:0:0:100:F#5S_Gb5S_s.wav
192,192,2564,1,2,0:0:0:0:
64,192,2930,128,0,3295:0:0:0:100:E5S_s.wav
448,192,2930,1,2,0:0:0:0:
192,192,3113,1,0,0:0:0:0:
448,192,3295,1,2,0:0:0:0:
320,192,3295,128,0,3661:0:0:0:100:C#5S_Db5S_s.wav
64,192,3478,1,0,0:0:0:0:
448,192,3661,1,2,0:0:0:0:
192,192,3661,128,0,4210:0:0:0:100:E5S_s.wav
320,192,4027,1,2,0:0:0:0:
64,192,4210,128,0,4942:0:0:0:100:F#5S_Gb5S_s.wav
192,192,4393,1,2,0:0:0:0:
320,192,4759,1,2,0:0:0:0:
448,192,4942,128,0,6588:0:0:0:100:C#6S_Db6S_s.wav
64,192,5125,1,2,0:0:0:0:
192,192,5491,1,2,0:0:0:0:
64,192,5856,1,2,0:0:0:0:
320,192,6039,1,0,0:0:0:0:
192,192,6222,1,2,0:0:0:0:
320,192,6405,1,0,0:0:0:0:
192,192,6588,1,2,0:0:0:0:
64,192,6588,128,0,7137:0:0:0:100:G#5S_Ab5S_s.wav
448,192,6954,1,2,0:0:0:0:
320,192,7137,128,0,7686:0:0:0:100:A5S_s.wav
192,192,7320,1,2,0:0:0:0:
64,192,7686,1,2,0:0:0:0:
448,192,7686,128,0,7777:0:0:0:100:C#6S_Db6S_s.wav
448,192,7869,128,0,8234:0:0:0:100:C#6S_Db6S_s.wav
192,192,8052,1,2,0:0:0:0:
64,192,8234,128,0,8783:0:0:0:100:E6S_s.wav
320,192,8417,1,2,0:0:0:0:
448,192,8783,1,2,0:0:0:0:
320,192,8783,128,0,9149:0:0:0:100:C#6S_Db6S_s.wav
64,192,8966,1,0,0:0:0:0:
192,192,9149,1,2,0:0:0:0:
448,192,9149,128,0,9515:0:0:0:100:G#5S_Ab5S_s.wav
64,192,9332,1,0,0:0:0:0:
192,192,9515,1,2,0:0:0:0:
320,192,9515,128,0,10064:0:0:0:100:A5S_s.wav
64,192,9881,1,2,0:0:0:0:
192,192,10064,128,0,10795:0:0:0:100:C#6S_Db6S_s.wav
448,192,10247,1,2,0:0:0:0:
320,192,10613,1,2,0:0:0:0:
64,192,10795,128,0,11619:0:0:0:100:F#6S_Gb6S_s.wav
448,192,10978,1,2,0:0:0:0:
320,192,11344,1,8,0:0:0:0:
448,192,11344,1,2,0:0:0:0:
192,192,11619,1,8,0:0:0:0:
320,192,11619,1,0,0:0:0:0:
448,192,11710,128,0,12442:0:0:0:0:
64,192,12442,1,2,0:0:0:0:
320,192,12442,1,4,0:0:0:0:
192,192,12442,1,0,0:0:0:0:
192,192,12625,1,0,0:0:0:60:hit.wav
320,192,12808,1,8,0:0:0:0:
448,192,12808,1,0,0:0:0:0:
64,192,12808,1,0,0:0:0:0:
192,192,12991,1,0,0:0:0:60:hit.wav
64,192,13174,1,2,0:0:0:0:
448,192,13174,1,0,0:0:0:0:
320,192,13356,1,0,0:0:0:60:hit.wav
64,192,13539,1,8,0:0:0:0:
448,192,13539,1,0,0:0:0:0:
192,192,13539,1,0,0:0:0:0:
320,192,13722,1,0,0:0:0:60:hit.wav
64,192,13905,1,2,0:0:0:0:
192,192,13905,1,0,0:0:0:0:
448,192,14088,1,0,0:0:0:60:hit.wav
192,192,14271,1,8,0:0:0:0:
64,192,14271,1,0,0:0:0:0:
320,192,14271,1,0,0:0:0:0:
448,192,14454,1,0,0:0:0:60:hit.wav
192,192,14637,1,2,0:0:0:0:
320,192,14637,1,0,0:0:0:0:
64,192,14820,1,0,0:0:0:60:hit.wav
192,192,15003,1,8,0:0:0:0:
320,192,15003,1,0,0:0:0:0:
448,192,15003,1,0,0:0:0:0:
64,192,15186,1,0,0:0:0:60:hit.wav
192,192,15369,1,2,0:0:0:0:
448,192,15369,1,0,0:0:0:0:
320,192,15552,1,0,0:0:0:60:hit.wav
192,192,15734,1,8,0:0:0:0:
64,192,15734,1,0,0:0:0:0:
320,192,15734,1,0,0:0:0:0:
448,192,15917,1,0,0:0:0:60:hit.wav
448,192,16100,1,2,0:0:0:0:
64,192,16100,1,0,0:0:0:0:
192,192,16283,1,0,0:0:0:60:hit.wav
64,192,16466,1,8,0:0:0:0:
192,192,16466,1,0,0:0:0:0:
448,192,16466,1,0,0:0:0:0:
320,192,16649,1,0,0:0:0:60:hit.wav
448,192,16832,1,2,0:0:0:0:
320,192,16832,1,0,0:0:0:0:
64,192,17015,1,0,0:0:0:60:hit.wav
192,192,17198,1,8,0:0:0:0:
64,192,17198,1,0,0:0:0:0:
320,192,17198,1,0,0:0:0:0:
448,192,17381,1,0,0:0:0:60:hit.wav
192,192,17472,1,8,0:0:0:0:
64,192,17472,1,0,0:0:0:0:
448,192,17564,1,2,0:0:0:0:
320,192,17564,1,0,0:0:0:0:
192,192,17747,1,0,0:0:0:60:hit.wav
320,192,17930,1,8,0:0:0:0:
64,192,17930,1,2,0:0:0:0:
192,192,18113,1,8,0:0:0:0:
448,192,18113,1,0,0:0:0:0:
64,192,18295,1,2,0:0:0:0:
448,192,18295,1,4,0:0:0:0:
320,192,18295,1,0,0:0:0:0:
192,192,18295,1,0,0:0:0:0:
64,192,18478,1,0,0:0:0:60:hit.wav
192,192,18661,1,8,0:0:0:0:
448,192,18661,1,0,0:0:0:0:
320,192,18661,1,0,0:0:0:0:
64,192,18844,1,0,0:0:0:60:hit.wav
192,192,19027,1,2,0:0:0:0:
320,192,19027,1,0,0:0:0:0:
448,192,19210,1,0,0:0:0:60:hit.wav
320,192,19393,1,8,0:0:0:0:
64,192,19393,1,0,0:0:0:0:
192,192,19393,1,0,0:0:0:0:
448,192,19576,1,0,0:0:0:60:hit.wav
64,192,19759,1,0,0:0:0:0:
192,192,19759,1,2,0:0:0:0:
320,192,19942,1,0,0:0:0:60:hit.wav
192,192,20125,1,8,0:0:0:0:
64,192,20125,1,0,0:0:0:0:
448,192,20125,1,0,0:0:0:0:
320,192,20308,1,0,0:0:0:60:hit.wav
64,192,20491,1,2,0:0:0:0:
448,192,20491,1,0,0:0:0:0:
192,192,20674,1,0,0:0:0:60:hit.wav
448,192,20856,1,8,0:0:0:0:
64,192,20856,1,0,0:0:0:0:
320,192,20856,1,0,0:0:0:0:
192,192,21039,1,0,0:0:0:60:hit.wav
64,192,21222,1,2,0:0:0:0:
320,192,21222,1,0,0:0:0:0:
448,192,21405,1,0,0:0:0:60:hit.wav
320,192,21588,1,8,0:0:0:0:
448,192,21588,1,0,0:0:0:0:
192,192,21588,1,0,0:0:0:0:
64,192,21771,1,0,0:0:0:60:hit.wav
448,192,21954,1,2,0:0:0:0:
64,192,21954,1,0,0:0:0:0:
320,192,22137,1,0,0:0:0:60:hit.wav
448,192,22320,1,8,0:0:0:0:
320,192,22320,1,0,0:0:0:0:
64,192,22320,1,0,0:0:0:0:
192,192,22503,1,0,0:0:0:60:hit.wav
448,192,22686,1,2,0:0:0:0:
192,192,22686,1,0,0:0:0:0:
64,192,22869,1,0,0:0:0:60:hit.wav
64,192,23052,1,8,0:0:0:0:
448,192,23052,1,0,0:0:0:0:
192,192,23052,1,0,0:0:0:0:
320,192,23234,1,0,0:0:0:60:hit.wav
192,192,23326,1,8,0:0:0:0:
64,192,23326,1,0,0:0:0:0:
448,192,23417,1,2,0:0:0:0:
320,192,23417,1,0,0:0:0:0:
64,192,23600,1,8,0:0:0:0:
192,192,23600,128,0,23692:0:0:0:0:
448,192,23692,1,8,0:0:0:0:
320,192,23692,128,0,23783:0:0:0:0:
64,192,23783,1,2,0:0:0:0:
192,192,23783,128,8,23875:0:0:0:0:
448,192,23875,1,8,0:0:0:0:
320,192,23875,128,0,23966:0:0:0:0:
64,192,23966,1,0,0:0:0:0:
192,192,23966,128,8,24058:0:0:0:0:
448,192,24058,1,8,0:0:0:0:
320,192,24058,128,0,24149:0:0:0:0:
192,192,24149,1,2,0:0:0:0:
64,192,24149,128,0,24515:0:0:0:0:
448,192,24515,1,2,0:0:0:0:
320,192,24698,128,0,24881:0:0:0:0:
64,192,24881,1,2,0:0:0:0:
320,192,25064,128,0,25247:0:0:0:0:
192,192,25247,1,2,0:0:0:0:
448,192,25430,128,0,25795:0:0:0:0:
192,192,25613,1,2,0:0:0:0:
64,192,25795,128,0,25978:0:0:0:0:
320,192,25978,1,2,0:0:0:0:
192,192,26161,128,0,26527:0:0:0:0:
448,192,26344,1,2,0:0:0:0:
64,192,26527,128,0,26710:0:0:0:0:
320,192,26710,1,2,0:0:0:0:
448,192,26710,128,0,26893:0:0:0:0:
192,192,26893,128,0,27076:0:0:0:0:
448,192,27076,1,2,0:0:0:0:
320,192,27076,128,0,27442:0:0:0:0:
64,192,27442,1,2,0:0:0:0:
192,192,27625,128,0,27808:0:0:0:0:
448,192,27808,1,2,0:0:0:0:
192,192,27991,128,0,28174:0:0:0:0:
320,192,28174,1,2,0:0:0:0:
64,192,28356,128,0,28722:0:0:0:0:
320,192,28539,1,2,0:0:0:0:
448,192,28722,128,0,28905:0:0:0:0:
192,192,28905,1,2,0:0:0:0:
320,192,29088,128,0,29454:0:0:0:0:
64,192,29271,1,2,0:0:0:0:
448,192,29454,128,0,29637:0:0:0:0:
320,192,29637,1,2,0:0:0:0:
64,192,29637,128,0,29820:0:0:0:0:
192,192,29820,128,0,30003:0:0:0:0:
64,192,30003,1,2,0:0:0:0:
448,192,30003,128,0,30369:0:0:0:0:
192,192,30369,1,2,0:0:0:0:
64,192,30552,128,0,30734:0:0:0:0:
448,192,30734,1,2,0:0:0:0:
64,192,30917,128,0,31100:0:0:0:0:
320,192,31100,1,2,0:0:0:0:
192,192,31283,128,0,31649:0:0:0:0:
448,192,31466,1,2,0:0:0:0:
320,192,31649,128,0,31832:0:0:0:0:
64,192,31832,1,2,0:0:0:0:
320,192,32015,128,0,32381:0:0:0:0:
192,192,32198,1,2,0:0:0:0:
64,192,32381,128,0,32564:0:0:0:0:
448,192,32564,1,2,0:0:0:0:
192,192,32564,128,0,32747:0:0:0:0:
320,192,32747,128,0,32930:0:0:0:0:
64,192,32930,1,2,0:0:0:0:
192,192,32930,128,0,33295:0:0:0:0:
320,192,33295,1,2,0:0:0:0:
448,192,33478,128,0,33661:0:0:0:0:
64,192,33661,1,2,0:0:0:0:
448,192,33844,128,0,34027:0:0:0:0:
192,192,34027,1,2,0:0:0:0:
448,192,34210,128,0,34393:0:0:0:0:
64,192,34393,1,2,0:0:0:0:
320,192,34393,1,4,0:0:0:40:
192,192,34393,1,0,0:0:0:0:
448,192,34667,1,2,0:0:0:0:
320,192,34667,1,0,0:0:0:0:
192,192,34759,1,8,0:0:0:0:
64,192,34759,1,0,0:0:0:0:
320,192,34942,1,2,0:0:0:0:
448,192,35033,1,2,0:0:0:0:
64,192,35125,1,2,0:0:0:0:
192,192,35216,1,2,0:0:0:0:
320,192,35308,1,8,0:0:0:0:
448,192,35308,1,0,0:0:0:0:
192,192,35399,1,2,0:0:0:0:
320,192,35491,1,8,0:0:0:0:
64,192,35491,1,0,0:0:0:0:
448,192,35582,1,2,0:0:0:0:
192,192,35674,1,2,0:0:0:0:
64,192,35765,1,2,0:0:0:0:
448,192,35856,1,2,0:0:0:0:
320,192,35856,1,4,0:0:0:0:
192,192,35856,1,0,0:0:0:0:
320,192,36039,1,0,0:0:0:60:hit.wav
192,192,36222,1,8,0:0:0:0:
64,192,36222,1,0,0:0:0:60:hit.wav
448,192,36222,1,0,0:0:0:0:
320,192,36405,1,0,0:0:0:60:hit.wav
64,192,36588,1,2,0:0:0:0:
320,192,36588,1,0,0:0:0:60:hit.wav
448,192,36771,1,2,0:0:0:0:
192,192,36771,1,0,0:0:0:60:hit.wav
320,192,36954,1,8,0:0:0:0:
64,192,36954,1,0,0:0:0:60:hit.wav
448,192,36954,1,0,0:0:0:0:
64,192,37137,1,0,0:0:0:60:hit.wav
192,192,37320,1,2,0:0:0:0:
320,192,37320,1,0,0:0:0:60:hit.wav
448,192,37503,1,0,0:0:0:60:hit.wav
448,192,37686,1,8,0:0:0:0:
192,192,37686,1,0,0:0:0:60:hit.wav
64,192,37686,1,0,0:0:0:0:
320,192,37869,1,0,0:0:0:60:hit.wav
448,192,38052,1,2,0:0:0:0:
320,192,38052,1,0,0:0:0:60:hit.wav
192,192,38234,1,2,0:0:0:0:
64,192,38234,1,0,0:0:0:60:hit.wav
64,192,38417,1,8,0:0:0:0:
320,192,38417,1,0,0:0:0:60:hit.wav
448,192,38417,1,0,0:0:0:0:
192,192,38600,1,8,0:0:0:0:
320,192,38692,1,8,0:0:0:0:
64,192,38783,1,2,0:0:0:0:
448,192,38783,1,0,0:0:0:60:hit.wav
192,192,38966,1,0,0:0:0:60:hit.wav
192,192,39149,1,8,0:0:0:0:
320,192,39149,1,0,0:0:0:60:hit.wav
448,192,39149,1,0,0:0:0:0:
64,192,39332,1,0,0:0:0:60:hit.wav
64,192,39515,1,2,0:0:0:0:
320,192,39515,1,0,0:0:0:60:hit.wav
448,192,39698,1,2,0:0:0:0:
192,192,39698,1,0,0:0:0:60:hit.wav
320,192,39881,1,8,0:0:0:0:
64,192,39881,1,0,0:0:0:60:hit.wav
448,192,39881,1,0,0:0:0:0:
192,192,40064,1,2,0:0:0:0:
320,192,40064,1,0,0:0:0:60:hit.wav
64,192,40247,1,2,0:0:0:0:
448,192,40247,1,0,0:0:0:60:hit.wav
192,192,40430,1,0,0:0:0:60:hit.wav
64,192,40613,1,8,0:0:0:0:
320,192,40613,1,0,0:0:0:60:hit.wav
448,192,40613,1,0,0:0:0:0:
448,192,40795,1,0,0:0:0:60:hit.wav
64,192,40978,1,2,0:0:0:0:
192,192,40978,1,0,0:0:0:60:hit.wav
448,192,41161,1,2,0:0:0:0:
320,192,41161,1,0,0:0:0:60:hit.wav
192,192,41344,1,8,0:0:0:0:
64,192,41344,1,0,0:0:0:60:hit.wav
448,192,41344,1,0,0:0:0:0:
320,192,41527,1,8,0:0:0:0:
192,192,41527,1,0,0:0:0:0:
64,192,41619,1,8,0:0:0:0:
448,192,41619,1,0,0:0:0:0:
192,192,41710,1,2,0:0:0:0:
320,192,41710,1,0,0:0:0:60:hit.wav
64,192,41893,1,0,0:0:0:60:hit.wav
192,192,42076,1,8,0:0:0:0:
320,192,42076,1,0,0:0:0:60:hit.wav
448,192,42076,1,0,0:0:0:0:
64,192,42259,1,0,0:0:0:60:hit.wav
448,192,42442,1,2,0:0:0:0:
192,192,42442,1,0,0:0:0:60:hit.wav
64,192,42625,1,2,0:0:0:0:
320,192,42625,1,0,0:0:0:60:hit.wav
64,192,42808,1,8,0:0:0:0:
192,192,42808,1,0,0:0:0:60:hit.wav
448,192,42808,1,0,0:0:0:0:
320,192,42991,1,0,0:0:0:60:hit.wav
448,192,43174,1,2,0:0:0:0:
192,192,43174,1,0,0:0:0:60:hit.wav
64,192,43356,1,0,0:0:0:60:hit.wav
192,192,43539,1,8,0:0:0:0:
320,192,43539,1,0,0:0:0:60:hit.wav
64,192,43539,1,0,0:0:0:0:
448,192,43722,1,0,0:0:0:60:hit.wav
320,192,43905,1,2,0:0:0:0:
64,192,43905,1,0,0:0:0:60:hit.wav
192,192,44088,1,2,0:0:0:0:
448,192,44088,1,0,0:0:0:60:hit.wav
64,192,44271,1,8,0:0:0:0:
320,192,44271,1,0,0:0:0:60:hit.wav
448,192,44271,1,0,0:0:0:0:
192,192,44454,1,0,0:0:0:60:hit.wav
64,192,44637,1,2,0:0:0:0:
448,192,44637,1,4,0:0:0:0:
192,192,44637,1,0,0:0:0:0:
448,192,44820,1,8,0:0:0:0:
320,192,44820,1,0,0:0:0:0:
192,192,45003,1,8,0:0:0:0:
64,192,45003,1,0,0:0:0:0:
448,192,45094,1,8,0:0:0:0:
320,192,45094,1,0,0:0:0:0:
320,192,45369,1,8,0:0:0:0:
192,192,45369,1,0,0:0:0:0:
64,192,45552,1,8,0:0:0:0:
448,192,45552,1,0,0:0:0:0:
320,192,45643,1,8,0:0:0:0:
64,192,45734,1,4,0:0:0:0:
448,192,45734,1,2,0:0:0:0:
192,192,45734,1,0,0:0:0:0:
320,192,45917,1,8,0:0:0:0:
192,192,45917,1,0,0:0:0:0:
448,192,46009,1,8,0:0:0:0:
64,192,46009,1,0,0:0:0:0:
320,192,46100,1,0,0:0:0:100:Tom.wav
192,192,46100,1,0,0:0:0:0:
64,192,46283,1,0,0:0:0:0:
448,192,46466,1,0,0:0:0:0:
64,192,46649,1,0,0:0:0:100:Tom.wav
192,192,46649,128,0,47015:0:0:0:0:
320,192,46832,1,8,0:0:0:0:
448,192,46832,1,0,0:0:0:0:
448,192,47015,1,2,0:0:0:0:
64,192,47015,128,0,47198:0:0:0:0:
320,192,47198,1,2,0:0:0:0:
192,192,47198,128,0,47381:0:0:0:0:
64,192,47381,1,0,0:0:0:60:hit.wav
448,192,47381,128,2,47564:0:0:0:0:
64,192,49027,1,2,0:0:0:0:
448,192,49027,1,4,0:0:0:0:
320,192,49027,128,0,49210:0:0:0:0:
192,192,49027,1,0,0:0:0:0:
192,192,49210,128,0,49393:0:0:0:60:hit.wav
448,192,49393,1,8,0:0:0:0:
320,192,49393,128,0,49576:0:0:0:0:
64,192,49393,1,0,0:0:0:0:
64,192,49576,128,0,49759:0:0:0:60:hit.wav
320,192,49759,1,2,0:0:0:0:
448,192,49759,128,0,49942:0:0:0:0:
64,192,49942,128,0,50125:0:0:0:60:hit.wav
192,192,50125,1,8,0:0:0:0:
448,192,50125,128,0,50308:0:0:0:0:
320,192,50125,1,0,0:0:0:0:
320,192,50308,128,0,50491:0:0:0:60:hit.wav
64,192,50491,1,2,0:0:0:0:
192,192,50491,128,0,50674:0:0:0:0:
448,192,50674,128,0,50856:0:0:0:60:hit.wav
64,192,50856,1,8,0:0:0:0:
320,192,50856,128,0,51039:0:0:0:0:
192,192,50856,1,0,0:0:0:0:
448,192,51039,128,0,51222:0:0:0:60:hit.wav
64,192,51222,1,2,0:0:0:0:
192,192,51222,128,0,51588:0:0:0:0:
64,192,51405,1,0,0:0:0:60:hit.wav
320,192,51588,1,8,0:0:0:0:
448,192,51588,128,0,51954:0:0:0:0:
320,192,51771,1,0,0:0:0:60:hit.wav
192,192,51954,1,2,0:0:0:0:
64,192,51954,128,0,52137:0:0:0:0:
448,192,52137,128,0,52320:0:0:0:60:hit.wav
320,192,52320,1,8,0:0:0:0:
64,192,52320,128,0,52503:0:0:0:0:
192,192,52320,1,0,0:0:0:0:
448,192,52503,128,0,52686:0:0:0:60:hit.wav
64,192,52686,1,2,0:0:0:0:
192,192,52686,128,0,52869:0:0:0:0:
320,192,52869,128,0,53052:0:0:0:60:hit.wav
448,192,53052,1,8,0:0:0:0:
192,192,53052,128,0,53234:0:0:0:0:
64,192,53052,1,0,0:0:0:0:
320,192,53234,128,0,53417:0:0:0:60:hit.wav
448,192,53417,1,2,0:0:0:0:
64,192,53417,128,0,53600:0:0:0:0:
192,192,53600,128,0,53783:0:0:0:60:hit.wav
320,192,53783,1,8,0:0:0:0:
448,192,53783,128,0,53966:0:0:0:0:
64,192,53783,1,0,0:0:0:0:
320,192,53966,128,0,54149:0:0:0:60:hit.wav
64,192,54149,1,2,0:0:0:0:
192,192,54149,128,0,54515:0:0:0:0:
448,192,54332,1,0,0:0:0:60:hit.wav
448,192,54515,128,0,54881:0:0:0:0:
320,192,54515,1,8,0:0:0:0:
64,192,54698,1,0,0:0:0:60:hit.wav
64,192,54881,1,2,0:0:0:0:
320,192,54881,1,4,0:0:0:0:
192,192,54881,1,0,0:0:0:0:
320,192,55064,1,0,0:0:0:60:hit.wav
192,192,55247,1,8,0:0:0:0:
448,192,55247,1,0,0:0:0:0:
64,192,55247,1,0,0:0:0:0:
192,192,55430,1,0,0:0:0:60:hit.wav
64,192,55613,1,2,0:0:0:0:
448,192,55613,1,0,0:0:0:0:
64,192,55795,1,0,0:0:0:60:hit.wav
320,192,55978,1,8,0:0:0:0:
192,192,55978,1,0,0:0:0:0:
448,192,55978,1,0,0:0:0:0:
320,192,56161,1,0,0:0:0:60:hit.wav
64,192,56344,1,2,0:0:0:0:
448,192,56344,1,0,0:0:0:0:
448,192,56527,1,0,0:0:0:60:hit.wav
192,192,56710,1,8,0:0:0:0:
64,192,56710,1,0,0:0:0:0:
320,192,56710,1,0,0:0:0:0:
192,192,56893,1,0,0:0:0:60:hit.wav
320,192,57076,1,2,0:0:0:0:
448,192,57076,1,0,0:0:0:0:
320,192,57259,1,0,0:0:0:60:hit.wav
192,192,57442,1,8,0:0:0:0:
448,192,57442,1,0,0:0:0:0:
64,192,57442,1,0,0:0:0:0:
64,192,57625,1,0,0:0:0:60:hit.wav
192,192,57808,1,2,0:0:0:0:
448,192,57808,1,0,0:0:0:0:
448,192,57991,1,0,0:0:0:60:hit.wav
64,192,58174,1,8,0:0:0:0:
192,192,58174,1,0,0:0:0:0:
320,192,58174,1,0,0:0:0:0:
320,192,58356,1,0,0:0:0:60:hit.wav
64,192,58539,1,2,0:0:0:0:
448,192,58539,128,0,58905:0:0:0:0:
192,192,58722,1,0,0:0:0:60:hit.wav
192,192,58905,1,8,0:0:0:0:
64,192,58905,128,0,59271:0:0:0:0:
320,192,58905,1,0,0:0:0:0:
320,192,59088,1,0,0:0:0:60:hit.wav
192,192,59271,1,2,0:0:0:0:
448,192,59271,128,0,59637:0:0:0:0:
320,192,59454,1,0,0:0:0:60:hit.wav
192,192,59637,1,8,0:0:0:0:
320,192,59637,128,0,60003:0:0:0:0:
64,192,59637,1,0,0:0:0:0:
64,192,59820,1,2,0:0:0:0:
192,192,60003,1,2,0:0:0:0:
448,192,60003,1,0,0:0:0:0:
448,192,60186,1,8,0:0:0:0:
64,192,60186,1,0,0:0:0:0:
320,192,60277,1,2,0:0:0:0:
192,192,60369,1,8,0:0:0:0:
64,192,60369,1,0,0:0:0:0:
448,192,60460,1,8,0:0:0:0:
320,192,60460,1,0,0:0:0:0:
192,192,60552,1,8,0:0:0:0:
64,192,60552,1,0,0:0:0:0:
448,192,60643,1,8,0:0:0:0:
320,192,60643,1,0,0:0:0:0:
448,192,60734,1,4,0:0:0:0:
64,192,60734,1,2,0:0:0:0:
192,192,60734,128,0,60917:0:0:0:0:
320,192,60917,128,0,61100:0:0:0:60:hit.wav
192,192,61100,1,8,0:0:0:0:
64,192,61100,128,0,61283:0:0:0:0:
448,192,61100,1,0,0:0:0:0:
448,192,61283,128,0,61466:0:0:0:60:hit.wav
192,192,61466,1,2,0:0:0:0:
320,192,61466,128,0,61649:0:0:0:0:
64,192,61649,1,0,0:0:0:60:hit.wav
448,192,61832,1,8,0:0:0:0:
192,192,61832,128,0,62015:0:0:0:0:
64,192,61832,1,0,0:0:0:0:
320,192,62015,128,0,62198:0:0:0:60:hit.wav
64,192,62198,1,2,0:0:0:0:
448,192,62198,128,0,62381:0:0:0:0:
192,192,62381,128,0,62564:0:0:0:60:hit.wav
320,192,62564,1,8,0:0:0:0:
64,192,62564,128,0,62747:0:0:0:0:
448,192,62564,1,0,0:0:0:0:
320,192,62747,128,0,62930:0:0:0:60:hit.wav
448,192,62930,1,2,0:0:0:0:
192,192,62930,128,0,63295:0:0:0:0:
64,192,63113,1,0,0:0:0:60:hit.wav
448,192,63295,128,0,63661:0:0:0:0:
320,192,63295,1,8,0:0:0:0:
64,192,63295,1,0,0:0:0:0:
192,192,63478,1,0,0:0:0:60:hit.wav
320,192,63661,1,2,0:0:0:0:
64,192,63661,128,0,63844:0:0:0:0:
192,192,63844,128,0,64027:0:0:0:60:hit.wav
320,192,64027,1,8,0:0:0:0:
448,192,64027,128,0,64210:0:0:0:0:
64,192,64027,1,0,0:0:0:0:
192,192,64210,128,0,64393:0:0:0:60:hit.wav
448,192,64393,1,2,0:0:0:0:
320,192,64393,128,0,64576:0:0:0:0:
64,192,64576,128,0,64759:0:0:0:60:hit.wav
192,192,64759,1,8,0:0:0:0:
448,192,64759,128,0,64942:0:0:0:0:
320,192,64759,1,0,0:0:0:0:
64,192,64942,128,0,65125:0:0:0:60:hit.wav
448,192,65125,1,2,0:0:0:0:
192,192,65125,128,0,65491:0:0:0:0:
320,192,65308,1,0,0:0:0:60:hit.wav
320,192,65491,1,8,0:0:0:0:
64,192,65491,1,0,0:0:0:0:
448,192,65491,1,0,0:0:0:0:
192,192,65674,1,0,0:0:0:60:hit.wav
64,192,65856,1,2,0:0:0:0:
192,192,65856,1,8,0:0:0:0:
320,192,65948,1,8,0:0:0:0:
448,192,65948,1,0,0:0:0:0:
192,192,66039,1,8,0:0:0:0:
64,192,66039,1,0,0:0:0:0:
320,192,66131,1,8,0:0:0:0:
448,192,66131,1,0,0:0:0:0:
64,192,66222,1,8,0:0:0:0:
192,192,66222,1,2,0:0:0:0:
448,192,66405,1,8,0:0:0:0:
320,192,66405,1,0,0:0:0:0:
64,192,66497,1,8,0:0:0:0:
192,192,66497,1,0,0:0:0:0:
64,192,66588,1,4,0:0:0:0:
448,192,66588,1,2,0:0:0:0:
320,192,66588,1,0,0:0:0:0:
192,192,66771,1,0,0:0:0:60:hit.wav
320,192,66954,1,8,0:0:0:0:
448,192,66954,1,2,0:0:0:0:
64,192,66954,1,0,0:0:0:0:
192,192,67137,1,0,0:0:0:60:hit.wav
64,192,67320,1,2,0:0:0:0:
448,192,67320,1,0,0:0:0:0:
320,192,67503,1,0,0:0:0:60:hit.wav
448,192,67686,1,8,0:0:0:0:
64,192,67686,1,2,0:0:0:0:
192,192,67686,1,0,0:0:0:0:
320,192,67869,1,0,0:0:0:60:hit.wav
64,192,68052,1,2,0:0:0:0:
448,192,68052,1,4,0:0:0:0:
192,192,68052,1,0,0:0:0:0:
320,192,68052,1,0,0:0:0:0:
64,192,68234,1,0,0:0:0:60:hit.wav
192,192,68417,1,8,0:0:0:0:
448,192,68417,1,0,0:0:0:0:
320,192,68417,1,2,0:0:0:0:
320,192,68600,1,0,0:0:0:60:hit.wav
64,192,68783,1,2,0:0:0:0:
448,192,68783,1,0,0:0:0:0:
192,192,68966,1,0,0:0:0:60:hit.wav
320,192,69058,1,0,0:0:0:100:Tom.wav
448,192,69149,1,0,0:0:0:100:Tom.wav
64,192,69149,1,0,0:0:0:0:
192,192,69241,1,2,0:0:0:0:
448,192,69332,1,2,0:0:0:0:
320,192,69424,1,2,0:0:0:0:
64,192,69515,1,2,0:0:0:0:
448,192,69515,1,4,0:0:0:0:
192,192,69515,1,0,0:0:0:0:
320,192,69698,1,2,0:0:0:0:
64,192,69698,1,0,0:0:0:0:
192,192,69881,1,0,0:0:0:60:hit.wav
320,192,69881,1,8,0:0:0:0:
448,192,69881,1,2,0:0:0:0:
448,192,70064,1,2,0:0:0:0:
64,192,70064,1,0,0:0:0:0:
320,192,70247,1,0,0:0:0:60:hit.wav
192,192,70247,1,8,0:0:0:0:
64,192,70247,1,2,0:0:0:0:
192,192,70430,1,2,0:0:0:0:
448,192,70430,1,0,0:0:0:0:
320,192,70613,1,0,0:0:0:60:hit.wav
64,192,70613,1,8,0:0:0:0:
448,192,70613,1,2,0:0:0:0:
192,192,70795,1,2,0:0:0:0:
320,192,70795,1,0,0:0:0:0:
64,192,70978,1,0,0:0:0:60:hit.wav
192,192,70978,1,8,0:0:0:0:
448,192,70978,1,2,0:0:0:0:
64,192,71161,1,2,0:0:0:0:
320,192,71161,1,0,0:0:0:0:
320,192,71344,1,0,0:0:0:60:hit.wav
192,192,71344,1,8,0:0:0:0:
448,192,71344,1,2,0:0:0:0:
64,192,71527,1,2,0:0:0:0:
192,192,71527,1,0,0:0:0:0:
448,192,71710,1,2,0:0:0:0:
64,192,71710,1,8,0:0:0:0:
192,192,71802,1,8,0:0:0:0:
320,192,71802,1,0,0:0:0:0:
448,192,71893,1,8,0:0:0:0:
64,192,71893,1,0,0:0:0:0:
192,192,71984,1,8,0:0:0:0:
320,192,71984,1,0,0:0:0:0:
64,192,72076,1,2,0:0:0:0:
448,192,72076,1,8,0:0:0:0:
192,192,72167,1,8,0:0:0:0:
320,192,72167,1,0,0:0:0:0:
448,192,72259,1,8,0:0:0:0:
64,192,72259,1,0,0:0:0:0:
192,192,72350,1,8,0:0:0:0:
320,192,72350,1,0,0:0:0:0:
64,192,72442,1,2,0:0:0:0:
448,192,72442,1,4,0:0:0:0:
320,192,72442,1,0,0:0:0:0:
192,192,72625,1,0,0:0:0:60:hit.wav
320,192,72808,1,4,0:0:0:0:
192,192,72808,1,8,0:0:0:0:
64,192,72808,1,0,0:0:0:0:
448,192,72808,1,0,0:0:0:0:
320,192,72991,1,0,0:0:0:60:hit.wav
64,192,73174,1,2,0:0:0:0:
448,192,73174,1,0,0:0:0:0:
192,192,73356,1,0,0:0:0:60:hit.wav
192,192,73539,1,8,0:0:0:0:
448,192,73539,1,4,0:0:0:0:
320,192,73539,1,0,0:0:0:0:
64,192,73539,1,0,0:0:0:0:
320,192,73722,1,0,0:0:0:60:hit.wav
192,192,73905,1,2,0:0:0:0:
64,192,73905,1,0,0:0:0:0:
448,192,74088,1,0,0:0:0:60:hit.wav
64,192,74271,1,8,0:0:0:0:
448,192,74271,1,4,0:0:0:0:
320,192,74271,1,0,0:0:0:0:
192,192,74271,1,0,0:0:0:0:
192,192,74454,1,0,0:0:0:60:hit.wav
64,192,74637,1,2,0:0:0:0:
448,192,74637,1,0,0:0:0:0:
320,192,74820,1,0,0:0:0:60:hit.wav
192,192,75003,1,8,0:0:0:0:
448,192,75003,1,4,0:0:0:0:
64,192,75003,1,0,0:0:0:0:
320,192,75003,1,0,0:0:0:0:
192,192,75186,1,0,0:0:0:60:hit.wav
320,192,75369,1,2,0:0:0:0:
448,192,75369,1,0,0:0:0:0:
64,192,75552,1,0,0:0:0:60:hit.wav
320,192,75734,1,8,0:0:0:0:
448,192,75734,1,4,0:0:0:0:
64,192,75734,1,0,0:0:0:0:
192,192,75734,1,0,0:0:0:0:
320,192,75917,1,0,0:0:0:60:hit.wav
64,192,76100,1,2,0:0:0:0:
448,192,76100,1,0,0:0:0:0:
192,192,76283,1,0,0:0:0:60:hit.wav
192,192,76466,1,8,0:0:0:0:
448,192,76466,1,4,0:0:0:0:
64,192,76466,1,0,0:0:0:0:
320,192,76466,1,0,0:0:0:0:
320,192,76649,1,0,0:0:0:60:hit.wav
64,192,76832,1,2,0:0:0:0:
192,192,76832,1,0,0:0:0:0:
448,192,77015,1,0,0:0:0:60:hit.wav
320,192,77198,1,4,0:0:0:0:
192,192,77198,1,8,0:0:0:0:
448,192,77198,1,0,0:0:0:0:
64,192,77198,1,0,0:0:0:0:
192,192,77381,1,0,0:0:0:60:hit.wav
320,192,77472,1,8,0:0:0:0:
448,192,77472,1,0,0:0:0:0:
192,192,77564,1,2,0:0:0:0:
64,192,77564,128,0,78295:0:0:0:0:
448,192,77747,1,0,0:0:0:60:hit.wav
192,192,77930,1,8,0:0:0:0:
320,192,77930,1,2,0:0:0:0:
320,192,78113,1,8,0:0:0:0:
448,192,78113,1,0,0:0:0:0:
320,192,78295,1,2,0:0:0:0:
448,192,78295,1,4,0:0:0:0:
192,192,78295,1,0,0:0:0:0:
64,192,78478,1,0,0:0:0:60:hit.wav
320,192,78661,1,8,0:0:0:0:
448,192,78661,1,4,0:0:0:0:
192,192,78661,1,0,0:0:0:0:
64,192,78661,1,0,0:0:0:0:
320,192,78844,1,0,0:0:0:60:hit.wav
448,192,79027,1,2,0:0:0:0:
192,192,79027,1,0,0:0:0:0:
64,192,79210,1,0,0:0:0:60:hit.wav
320,192,79393,1,8,0:0:0:0:
448,192,79393,1,4,0:0:0:0:
64,192,79393,1,0,0:0:0:0:
192,192,79393,1,0,0:0:0:0:
192,192,79576,1,0,0:0:0:60:hit.wav
64,192,79759,1,2,0:0:0:0:
320,192,79759,1,0,0:0:0:0:
448,192,79942,1,0,0:0:0:60:hit.wav
192,192,80125,1,8,0:0:0:0:
448,192,80125,1,4,0:0:0:0:
64,192,80125,1,0,0:0:0:0:
320,192,80125,1,0,0:0:0:0:
64,192,80308,1,0,0:0:0:60:hit.wav
320,192,80491,1,2,0:0:0:0:
192,192,80491,1,0,0:0:0:0:
448,192,80674,1,0,0:0:0:60:hit.wav
192,192,80856,1,8,0:0:0:0:
448,192,80856,1,4,0:0:0:0:
320,192,80856,1,0,0:0:0:0:
64,192,80856,1,0,0:0:0:0:
64,192,81039,1,0,0:0:0:60:hit.wav
448,192,81222,1,2,0:0:0:0:
320,192,81222,1,0,0:0:0:0:
192,192,81405,1,0,0:0:0:60:hit.wav
192,192,81588,1,8,0:0:0:0:
64,192,81588,1,4,0:0:0:0:
320,192,81588,1,0,0:0:0:0:
448,192,81588,1,0,0:0:0:0:
448,192,81771,1,0,0:0:0:60:hit.wav
192,192,81954,1,2,0:0:0:0:
64,192,81954,1,0,0:0:0:0:
320,192,82137,1,0,0:0:0:60:hit.wav
320,192,82320,1,8,0:0:0:0:
448,192,82320,1,4,0:0:0:0:
64,192,82320,1,0,0:0:0:0:
192,192,82320,1,0,0:0:0:0:
64,192,82503,1,0,0:0:0:60:hit.wav
320,192,82686,1,2,0:0:0:0:
448,192,82686,1,8,0:0:0:0:
192,192,82869,1,8,0:0:0:0:
64,192,82869,1,0,0:0:0:0:
320,192,83052,1,8,0:0:0:0:
448,192,83052,1,2,0:0:0:0:
192,192,83234,1,0,0:0:0:0:
448,192,83326,1,8,0:0:0:0:
320,192,83326,1,0,0:0:0:0:
192,192,83417,1,2,0:0:0:0:
64,192,83417,1,0,0:0:0:0:
448,192,83600,1,8,0:0:0:0:
320,192,83600,1,0,0:0:0:0:
192,192,83692,1,8,0:0:0:0:
64,192,83692,1,0,0:0:0:0:
448,192,83783,1,8,0:0:0:0:
320,192,83783,1,2,0:0:0:0:
192,192,83875,1,8,0:0:0:0:
64,192,83875,1,0,0:0:0:0:
448,192,83966,1,8,0:0:0:0:
320,192,83966,1,0,0:0:0:0:
192,192,84058,1,8,0:0:0:0:
64,192,84058,1,0,0:0:0:0:
64,192,84149,1,2,0:0:0:0:
448,192,84149,1,4,0:0:0:0:
320,192,84149,128,0,84515:0:0:0:0:
64,192,84515,1,2,0:0:0:0:
192,192,84515,1,8,0:0:0:0:
448,192,84515,128,0,84881:0:0:0:60:hit.wav
64,192,84881,1,2,0:0:0:0:
192,192,84881,128,0,85247:0:0:0:60:hit.wav
448,192,85247,1,2,0:0:0:0:
320,192,85247,1,8,0:0:0:0:
64,192,85247,128,0,85613:0:0:0:60:hit.wav
448,192,85613,1,2,0:0:0:0:
320,192,85613,128,0,85978:0:0:0:60:hit.wav
64,192,85978,1,2,0:0:0:0:
192,192,85978,1,8,0:0:0:0:
448,192,85978,128,0,86344:0:0:0:60:hit.wav
64,192,86344,1,2,0:0:0:0:
192,192,86344,128,0,86710:0:0:0:60:hit.wav
448,192,86710,1,8,0:0:0:0:
320,192,86710,1,2,0:0:0:0:
64,192,86710,128,0,87076:0:0:0:60:hit.wav
192,192,86893,128,0,87076:0:0:0:0:
320,192,87076,1,2,0:0:0:0:
448,192,87076,128,0,87442:0:0:0:60:hit.wav
192,192,87442,1,8,0:0:0:0:
64,192,87442,1,2,0:0:0:0:
320,192,87442,128,0,87808:0:0:0:60:hit.wav
192,192,87808,1,2,0:0:0:0:
64,192,87808,128,0,88174:0:0:0:60:hit.wav
320,192,88174,1,2,0:0:0:0:
448,192,88174,1,8,0:0:0:0:
192,192,88174,128,0,88539:0:0:0:60:hit.wav
320,192,88539,1,2,0:0:0:0:
448,192,88539,128,0,88905:0:0:0:60:hit.wav
64,192,88905,1,2,0:0:0:0:
192,192,88905,1,8,0:0:0:0:
320,192,88905,128,0,89271:0:0:0:60:hit.wav
192,192,89180,1,8,0:0:0:0:
64,192,89271,1,2,0:0:0:0:
448,192,89271,128,0,89637:0:0:0:60:hit.wav
64,192,89637,1,10,0:0:0:0:
192,192,89637,1,0,0:0:0:0:
320,192,89728,1,8,0:0:0:0:
448,192,89728,1,0,0:0:0:0:
192,192,89820,1,8,0:0:0:0:
64,192,89820,1,0,0:0:0:0:
320,192,89911,1,0,0:0:0:0:
448,192,89911,1,8,0:0:0:0:
448,192,90003,1,4,0:0:0:0:
64,192,90003,128,0,90369:0:0:0:60:hit.wav
192,192,90003,1,2,0:0:0:0:
192,192,90369,1,8,0:0:0:0:
320,192,90369,1,2,0:0:0:0:
448,192,90369,128,0,90734:0:0:0:60:hit.wav
64,192,90734,1,2,0:0:0:0:
320,192,90734,128,0,91100:0:0:0:60:hit.wav
192,192,91100,1,2,0:0:0:0:
448,192,91100,1,8,0:0:0:0:
64,192,91100,128,0,91466:0:0:0:60:hit.wav
320,192,91283,128,0,91466:0:0:0:0:
448,192,91466,1,2,0:0:0:0:
192,192,91466,128,0,91832:0:0:0:60:hit.wav
64,192,91832,1,2,0:0:0:0:
320,192,91832,1,8,0:0:0:0:
448,192,91832,128,0,92198:0:0:0:60:hit.wav
64,192,92198,1,2,0:0:0:0:
320,192,92198,128,0,92564:0:0:0:60:hit.wav
448,192,92564,1,8,0:0:0:0:
64,192,92564,1,2,0:0:0:0:
192,192,92564,128,0,92930:0:0:0:60:hit.wav
320,192,92930,1,2,0:0:0:0:
448,192,92930,128,0,93295:0:0:0:60:hit.wav
192,192,93295,1,8,0:0:0:0:
320,192,93295,1,2,0:0:0:0:
64,192,93295,128,0,93661:0:0:0:60:hit.wav
448,192,93661,1,2,0:0:0:0:
192,192,93661,128,0,94027:0:0:0:60:hit.wav
64,192,94027,1,2,0:0:0:0:
320,192,94027,1,8,0:0:0:0:
448,192,94027,128,0,94393:0:0:0:60:hit.wav
192,192,94210,128,0,94393:0:0:0:0:
64,192,94393,1,2,0:0:0:0:
320,192,94393,128,0,94759:0:0:0:60:hit.wav
192,192,94759,1,2,0:0:0:0:
448,192,94759,1,0,0:0:0:60:hit.wav
64,192,94759,128,8,95033:0:0:0:0:
448,192,95033,1,8,0:0:0:0:
320,192,95033,1,0,0:0:0:0:
192,192,95125,1,2,0:0:0:0:
64,192,95125,1,0,0:0:0:0:
320,192,95308,1,8,0:0:0:0:
192,192,95399,1,8,0:0:0:0:
320,192,95491,1,8,0:0:0:0:
448,192,95491,1,2,0:0:0:0:
192,192,95582,1,8,0:0:0:0:
64,192,95582,1,0,0:0:0:0:
448,192,95674,1,8,0:0:0:0:
320,192,95674,1,0,0:0:0:0:
192,192,95765,1,8,0:0:0:0:
64,192,95765,1,0,0:0:0:0:
448,192,95856,1,0,0:0:0:0:
320,192,95902,1,0,0:0:0:0:
192,192,95948,1,0,0:0:0:0:
