osu file format v14

[General]
AudioFilename: audio.mp3
AudioLeadIn: 0
PreviewTime: 48295
Countdown: 0
SampleSet: Soft
StackLeniency: 0.7
Mode: 3
LetterboxInBreaks: 0
EpilepsyWarning: 1
SpecialStyle: 0
WidescreenStoryboard: 1

[Editor]
DistanceSpacing: 1
BeatDivisor: 4
GridSize: 32
TimelineZoom: 0.7999998

[Metadata]
Title:MONSTER
TitleUnicode:MONSTER
Artist:Reol
ArtistUnicode:れをる
Creator:atian540
Version:Fadill's EZ
Source:
Tags:極彩色 梅とら umetora reworu gokusaishikoku short-ver fadillsan umo-
BeatmapID:1469008
BeatmapSetID:694349

[Difficulty]
HPDrainRate:6.5
CircleSize:4
OverallDifficulty:6.5
ApproachRate:10
SliderMultiplier:1.4
SliderTickRate:1

[Events]
//Background and Video events
0,0,"BG MONSTER.jpg",0,0
//Break Periods
//Storyboard Layer 0 (Background)
//Storyboard Layer 1 (Fail)
//Storyboard Layer 2 (Pass)
//Storyboard Layer 3 (Foreground)
//Storyboard Sound Samples
Sample,70247,0,"hit.wav",60
Sample,70978,0,"hit.wav",60
Sample,84881,0,"hit.wav",60
Sample,85613,0,"hit.wav",60
Sample,86344,0,"hit.wav",60
Sample,87076,0,"hit.wav",60
Sample,87808,0,"hit.wav",60
Sample,88539,0,"hit.wav",60
Sample,88905,0,"hit.wav",60
Sample,89271,0,"hit.wav",60
Sample,90734,0,"hit.wav",60
Sample,91466,0,"hit.wav",60
Sample,92198,0,"hit.wav",60
Sample,92930,0,"hit.wav",60
Sample,93661,0,"hit.wav",60
Sample,94393,0,"hit.wav",60
Sample,94759,0,"hit.wav",60

[TimingPoints]
735,365.853658536585,4,2,1,60,1,0
49027,-100,4,2,1,60,0,1
72442,-100,4,2,1,60,0,0

[HitObjects]
64,192,735,128,0,1283:0:0:0:100:G#5S_Ab5S_s.wav
192,192,735,1,2,0:0:0:0:
448,192,1283,128,0,1832:0:0:0:100:A5S_s.wav
320,192,1832,1,0,0:0:0:100:G#5S_Ab5S_s.wav
192,192,2015,128,0,2381:0:0:0:100:G#5S_Ab5S_s.wav
64,192,2381,128,0,2930:0:0:0:100:F#5S_Gb5S_s.wav
320,192,2930,128,0,3295:0:0:0:100:E5S_s.wav
64,192,3295,128,0,3661:0:0:0:100:C#5S_Db5S_s.wav
192,192,3661,128,0,4210:0:0:0:100:E5S_s.wav
320,192,4210,128,0,4942:0:0:0:100:F#5S_Gb5S_s.wav
448,192,4942,128,0,6222:0:0:0:100:C#6S_Db6S_s.wav
64,192,6588,128,0,7137:0:0:0:100:G#5S_Ab5S_s.wav
192,192,7137,128,0,7686:0:0:0:100:A5S_s.wav
448,192,7686,1,0,0:0:0:100:C#6S_Db6S_s.wav
320,192,7869,128,0,8234:0:0:0:100:C#6S_Db6S_s.wav
448,192,8234,128,0,8783:0:0:0:100:E6S_s.wav
320,192,8783,128,0,9149:0:0:0:100:C#6S_Db6S_s.wav
64,192,9149,128,0,9515:0:0:0:100:G#5S_Ab5S_s.wav
192,192,9515,128,0,10064:0:0:0:100:A5S_s.wav
320,192,10064,128,0,10795:0:0:0:100:C#6S_Db6S_s.wav
448,192,10795,128,0,11344:0:0:0:100:F#6S_Gb6S_s.wav
64,192,11344,1,10,0:0:0:0:
192,192,11710,128,0,12442:0:0:0:0:
320,192,12442,128,6,12991:0:0:0:0:
448,192,12991,128,0,13539:0:0:0:60:hit.wav
192,192,13539,128,8,14088:0:0:0:0:
64,192,14088,128,0,14637:0:0:0:60:hit.wav
320,192,14637,128,2,15003:0:0:0:0:
192,192,15003,128,8,15369:0:0:0:0:
64,192,15369,128,2,15917:0:0:0:0:
320,192,15917,128,0,18295:0:0:0:60:hit.wav
192,192,18295,128,6,18844:0:0:0:0:
448,192,18844,128,0,19393:0:0:0:60:hit.wav
320,192,19393,128,8,19942:0:0:0:0:
64,192,19942,128,0,20491:0:0:0:60:hit.wav
192,192,20491,128,2,20856:0:0:0:0:
64,192,20856,128,8,21222:0:0:0:0:
320,192,21222,128,2,21771:0:0:0:0:
448,192,21771,128,0,23052:0:0:0:60:hit.wav
192,192,23052,128,8,23783:0:0:0:0:
320,192,23783,128,10,24149:0:0:0:0:
64,192,24149,128,2,24515:0:0:0:0:
448,192,24515,1,2,0:0:0:0:
320,192,24881,1,2,0:0:0:0:
192,192,25247,1,2,0:0:0:0:
320,192,25613,1,2,0:0:0:0:
64,192,25978,1,2,0:0:0:0:
448,192,26344,1,2,0:0:0:0:
320,192,26710,1,2,0:0:0:0:
64,192,27076,128,2,27442:0:0:0:0:
192,192,27442,1,2,0:0:0:0:
448,192,27808,1,2,0:0:0:0:
320,192,28174,1,2,0:0:0:0:
64,192,28539,1,2,0:0:0:0:
320,192,28905,1,2,0:0:0:0:
192,192,29271,1,2,0:0:0:0:
448,192,29637,1,2,0:0:0:0:
320,192,30003,128,2,30369:0:0:0:0:
64,192,30369,1,2,0:0:0:0:
192,192,30734,1,2,0:0:0:0:
320,192,31100,1,2,0:0:0:0:
448,192,31466,1,2,0:0:0:0:
192,192,31832,1,2,0:0:0:0:
64,192,32198,1,2,0:0:0:0:
320,192,32564,1,2,0:0:0:0:
192,192,32930,128,2,33295:0:0:0:0:
448,192,33295,1,2,0:0:0:0:
64,192,33661,1,2,0:0:0:0:
320,192,34027,1,2,0:0:0:0:
192,192,34393,1,6,0:0:0:0:
448,192,34759,1,8,0:0:0:0:
320,192,34759,1,0,0:0:0:0:
64,192,35125,128,2,35856:0:0:0:0:
320,192,35856,1,4,0:0:0:0:
192,192,35856,1,2,0:0:0:0:
448,192,36222,1,8,0:0:0:0:
64,192,36588,1,2,0:0:0:0:
192,192,36771,1,2,0:0:0:0:
320,192,36954,1,8,0:0:0:0:
448,192,37320,1,2,0:0:0:0:
64,192,37686,1,8,0:0:0:0:
448,192,38052,1,2,0:0:0:0:
320,192,38234,1,2,0:0:0:0:
192,192,38417,1,8,0:0:0:0:
64,192,38783,1,2,0:0:0:0:
320,192,39149,1,8,0:0:0:0:
192,192,39515,1,2,0:0:0:0:
320,192,39698,1,2,0:0:0:0:
448,192,39881,1,8,0:0:0:0:
192,192,40064,1,2,0:0:0:0:
64,192,40247,1,2,0:0:0:0:
320,192,40613,1,8,0:0:0:0:
448,192,40978,1,2,0:0:0:0:
320,192,41161,1,2,0:0:0:0:
192,192,41344,1,8,0:0:0:0:
64,192,41527,1,8,0:0:0:0:
448,192,41710,1,2,0:0:0:0:
320,192,42076,1,8,0:0:0:0:
64,192,42442,1,2,0:0:0:0:
192,192,42625,1,2,0:0:0:0:
320,192,42808,1,8,0:0:0:0:
192,192,43174,1,2,0:0:0:0:
448,192,43539,1,8,0:0:0:0:
320,192,43905,1,2,0:0:0:0:
192,192,44088,1,2,0:0:0:0:
64,192,44271,1,8,0:0:0:0:
192,192,44637,1,6,0:0:0:0:
448,192,44820,1,8,0:0:0:0:
320,192,45003,1,8,0:0:0:0:
64,192,45369,1,8,0:0:0:0:
448,192,45552,1,8,0:0:0:0:
192,192,45734,1,6,0:0:0:0:
320,192,45917,1,8,0:0:0:0:
64,192,46100,1,0,0:0:0:100:Tom.wav
320,192,46649,1,0,0:0:0:100:Tom.wav
192,192,46832,1,8,0:0:0:0:
448,192,47015,1,2,0:0:0:0:
320,192,47198,1,2,0:0:0:0:
64,192,47381,1,2,0:0:0:0:
192,192,47381,1,0,0:0:0:60:hit.wav
320,192,48295,128,0,49027:0:0:0:0:
64,192,49027,1,2,0:0:0:0:
448,192,49027,1,4,0:0:0:0:
192,192,49210,1,0,0:0:0:60:hit.wav
320,192,49393,1,8,0:0:0:0:
64,192,49576,1,0,0:0:0:60:hit.wav
448,192,49759,1,2,0:0:0:0:
192,192,49942,1,0,0:0:0:60:hit.wav
320,192,50125,1,8,0:0:0:0:
64,192,50308,1,0,0:0:0:60:hit.wav
448,192,50491,1,2,0:0:0:0:
192,192,50674,1,0,0:0:0:60:hit.wav
320,192,50856,1,8,0:0:0:0:
448,192,51039,1,0,0:0:0:60:hit.wav
192,192,51222,128,2,51588:0:0:0:0:
320,192,51588,128,8,51954:0:0:0:0:
64,192,51954,1,2,0:0:0:0:
448,192,52137,1,0,0:0:0:60:hit.wav
192,192,52320,1,8,0:0:0:0:
320,192,52503,1,0,0:0:0:60:hit.wav
64,192,52686,1,2,0:0:0:0:
192,192,52869,1,0,0:0:0:60:hit.wav
448,192,53052,1,8,0:0:0:0:
320,192,53234,1,0,0:0:0:60:hit.wav
64,192,53417,1,2,0:0:0:0:
192,192,53600,1,0,0:0:0:60:hit.wav
320,192,53783,1,8,0:0:0:0:
448,192,53966,1,0,0:0:0:60:hit.wav
64,192,54149,128,2,54515:0:0:0:0:
320,192,54515,128,8,54881:0:0:0:0:
192,192,54881,1,2,0:0:0:0:
64,192,54881,1,4,0:0:0:0:
64,192,55247,1,8,0:0:0:0:
448,192,55247,1,0,0:0:0:0:
320,192,55613,1,2,0:0:0:0:
64,192,55978,1,8,0:0:0:0:
192,192,55978,1,0,0:0:0:0:
448,192,56344,1,2,0:0:0:0:
64,192,56710,1,8,0:0:0:0:
320,192,56710,1,0,0:0:0:0:
192,192,57076,1,2,0:0:0:0:
320,192,57442,1,8,0:0:0:0:
448,192,57442,1,0,0:0:0:0:
64,192,57808,1,2,0:0:0:0:
192,192,58174,1,8,0:0:0:0:
448,192,58174,1,0,0:0:0:0:
320,192,58539,1,2,0:0:0:0:
64,192,58905,1,8,0:0:0:0:
448,192,58905,1,0,0:0:0:0:
192,192,59271,1,2,0:0:0:0:
64,192,59637,1,8,0:0:0:0:
448,192,59637,1,0,0:0:0:0:
320,192,60003,128,2,60369:0:0:0:0:
448,192,60369,128,8,60734:0:0:0:0:
64,192,60734,1,2,0:0:0:0:
192,192,60734,1,4,0:0:0:0:
320,192,60917,1,0,0:0:0:60:hit.wav
192,192,61100,1,8,0:0:0:0:
448,192,61283,1,0,0:0:0:60:hit.wav
64,192,61466,1,2,0:0:0:0:
320,192,61649,1,0,0:0:0:60:hit.wav
192,192,61832,1,8,0:0:0:0:
64,192,62015,1,0,0:0:0:60:hit.wav
320,192,62198,1,2,0:0:0:0:
448,192,62381,1,0,0:0:0:60:hit.wav
192,192,62564,1,8,0:0:0:0:
64,192,62747,1,0,0:0:0:60:hit.wav
448,192,62930,128,2,63295:0:0:0:0:
320,192,63295,128,8,63661:0:0:0:0:
64,192,63661,1,2,0:0:0:0:
192,192,63844,1,0,0:0:0:60:hit.wav
448,192,64027,1,8,0:0:0:0:
320,192,64210,1,0,0:0:0:60:hit.wav
192,192,64393,1,2,0:0:0:0:
64,192,64576,1,0,0:0:0:60:hit.wav
320,192,64759,1,8,0:0:0:0:
448,192,64942,1,0,0:0:0:60:hit.wav
192,192,65125,1,2,0:0:0:0:
320,192,65308,1,0,0:0:0:60:hit.wav
64,192,65491,1,8,0:0:0:0:
192,192,65674,1,0,0:0:0:60:hit.wav
448,192,65856,128,10,66222:0:0:0:0:
64,192,66222,128,10,66588:0:0:0:0:
192,192,66588,1,2,0:0:0:0:
320,192,66588,1,4,0:0:0:0:
320,192,66954,1,8,0:0:0:0:
448,192,66954,1,2,0:0:0:0:
192,192,67320,1,2,0:0:0:0:
64,192,67686,1,8,0:0:0:0:
448,192,67686,1,2,0:0:0:0:
320,192,68052,1,2,0:0:0:0:
192,192,68052,1,4,0:0:0:0:
64,192,68417,1,8,0:0:0:0:
192,192,68417,1,2,0:0:0:0:
320,192,68783,1,2,0:0:0:0:
64,192,69149,1,0,0:0:0:100:Tom.wav
448,192,69149,1,0,0:0:0:0:
192,192,69515,1,2,0:0:0:0:
320,192,69515,1,4,0:0:0:0:
64,192,69881,1,10,0:0:0:0:
448,192,69881,1,0,0:0:0:60:hit.wav
192,192,70247,1,10,0:0:0:0:
320,192,70613,1,10,0:0:0:0:
448,192,70613,1,0,0:0:0:60:hit.wav
192,192,70978,1,10,0:0:0:0:
64,192,71344,1,10,0:0:0:0:
448,192,71344,1,0,0:0:0:60:hit.wav
192,192,71710,128,10,72076:0:0:0:0:
320,192,72076,128,10,72442:0:0:0:0:
64,192,72442,128,2,72808:0:0:0:0:
448,192,72442,1,4,0:0:0:0:
448,192,72808,1,12,0:0:0:0:
320,192,73174,128,2,73539:0:0:0:0:
64,192,73539,1,8,0:0:0:0:
448,192,73539,1,4,0:0:0:0:
192,192,73905,128,2,74271:0:0:0:0:
320,192,74271,1,8,0:0:0:0:
448,192,74271,1,4,0:0:0:0:
64,192,74637,128,2,75003:0:0:0:0:
448,192,75003,1,8,0:0:0:0:
192,192,75003,1,4,0:0:0:0:
320,192,75369,128,2,75734:0:0:0:0:
192,192,75734,1,8,0:0:0:0:
448,192,75734,1,4,0:0:0:0:
64,192,76100,128,2,76466:0:0:0:0:
320,192,76466,1,8,0:0:0:0:
448,192,76466,1,4,0:0:0:0:
192,192,76832,128,2,77198:0:0:0:0:
448,192,77198,1,8,0:0:0:0:
320,192,77198,1,4,0:0:0:0:
64,192,77564,128,2,77930:0:0:0:0:
320,192,77930,1,10,0:0:0:0:
192,192,78113,1,8,0:0:0:0:
448,192,78295,128,4,78661:0:0:0:0:
64,192,78295,1,2,0:0:0:0:
192,192,78661,1,8,0:0:0:0:
320,192,78661,1,4,0:0:0:0:
64,192,79027,128,2,79393:0:0:0:0:
448,192,79393,1,8,0:0:0:0:
192,192,79393,1,4,0:0:0:0:
320,192,79759,128,2,80125:0:0:0:0:
64,192,80125,1,8,0:0:0:0:
192,192,80125,1,4,0:0:0:0:
448,192,80491,128,2,80856:0:0:0:0:
192,192,80856,1,8,0:0:0:0:
320,192,80856,1,4,0:0:0:0:
64,192,81222,128,2,81588:0:0:0:0:
320,192,81588,1,8,0:0:0:0:
448,192,81588,1,4,0:0:0:0:
192,192,81954,128,2,82320:0:0:0:0:
448,192,82320,1,8,0:0:0:0:
320,192,82320,1,4,0:0:0:0:
64,192,82686,128,10,83052:0:0:0:0:
320,192,83052,128,10,83417:0:0:0:0:
192,192,83417,128,2,83783:0:0:0:0:
448,192,83783,128,10,84149:0:0:0:0:
64,192,84149,1,4,0:0:0:0:
320,192,84149,1,2,0:0:0:0:
192,192,84515,1,10,0:0:0:0:
320,192,84515,1,0,0:0:0:60:hit.wav
448,192,84881,1,2,0:0:0:0:
64,192,85247,1,10,0:0:0:0:
320,192,85247,1,0,0:0:0:60:hit.wav
192,192,85613,1,2,0:0:0:0:
64,192,85978,1,10,0:0:0:0:
448,192,85978,1,0,0:0:0:60:hit.wav
320,192,86344,1,2,0:0:0:0:
64,192,86710,1,10,0:0:0:0:
192,192,86710,1,0,0:0:0:60:hit.wav
448,192,87076,1,2,0:0:0:0:
64,192,87442,1,10,0:0:0:0:
320,192,87442,1,0,0:0:0:60:hit.wav
192,192,87808,1,2,0:0:0:0:
320,192,88174,1,10,0:0:0:0:
448,192,88174,1,0,0:0:0:60:hit.wav
64,192,88539,128,2,88905:0:0:0:0:
192,192,88905,128,10,89271:0:0:0:0:
320,192,89271,128,2,89637:0:0:0:0:
448,192,89637,128,10,90003:0:0:0:0:
192,192,90003,1,2,0:0:0:0:
64,192,90003,1,4,0:0:0:0:
64,192,90369,1,10,0:0:0:0:
320,192,90369,1,0,0:0:0:60:hit.wav
448,192,90734,1,2,0:0:0:0:
64,192,91100,1,10,0:0:0:0:
192,192,91100,1,0,0:0:0:60:hit.wav
320,192,91466,1,2,0:0:0:0:
64,192,91832,1,10,0:0:0:0:
448,192,91832,1,0,0:0:0:60:hit.wav
192,192,92198,1,2,0:0:0:0:
320,192,92564,1,10,0:0:0:0:
448,192,92564,1,0,0:0:0:60:hit.wav
64,192,92930,1,2,0:0:0:0:
192,192,93295,1,10,0:0:0:0:
448,192,93295,1,0,0:0:0:60:hit.wav
320,192,93661,1,2,0:0:0:0:
64,192,94027,1,10,0:0:0:0:
192,192,94027,1,0,0:0:0:60:hit.wav
448,192,94393,128,2,94759:0:0:0:0:
320,192,94759,128,10,95125:0:0:0:0:
64,192,95125,128,2,95491:0:0:0:0:
192,192,95491,1,10,0:0:0:0:
320,192,95674,1,8,0:0:0:0:
448,192,95856,1,0,0:0:0:0:
