osu file format v14

[General]
AudioFilename: 15. MONSTER 196.8.mp3
AudioLeadIn: 0
PreviewTime: 121759
Countdown: 0
SampleSet: Normal
StackLeniency: 0.3
Mode: 0
LetterboxInBreaks: 0
WidescreenStoryboard: 0

[Editor]
DistanceSpacing: 1.1
BeatDivisor: 8
GridSize: 4
TimelineZoom: 5.799996

[Metadata]
Title:MONSTER (Speed Up Ver)
TitleUnicode:MONSTER (Speed Up Ver)
Artist:Reol
ArtistUnicode:Reol
Creator:Palm
Version:Monster
Source:
Tags:
BeatmapID:976074
BeatmapSetID:395457

[Difficulty]
HPDrainRate:5
CircleSize:4
OverallDifficulty:8.5
ApproachRate:9.5
SliderMultiplier:3
SliderTickRate:1

[Events]
//Background and Video events
0,0,"14.jpg",0,0
//Break Periods
//Storyboard Layer 0 (Background)
//Storyboard Layer 1 (Fail)
//Storyboard Layer 2 (Pass)
//Storyboard Layer 3 (Foreground)
//Storyboard Sound Samples

[TimingPoints]
571,304.878048780488,4,2,1,40,1,0
571,-166.666666666667,4,2,1,40,0,0
609,-166.666666666667,4,1,1,40,0,0
10327,-83.3333333333333,4,1,1,70,0,0
20083,-100,4,3,1,40,0,0
28619,-83.3333333333333,4,1,1,70,0,0
29838,-100,4,2,1,60,0,0
38375,-125,4,2,1,65,0,0
40814,-83.3333333333333,4,1,1,75,0,1
57888,-83.3333333333333,4,1,1,70,0,0
67643,-100,4,2,1,50,0,0
74961,-83.3333333333333,4,2,1,70,0,0
76180,-166.666666666667,4,2,1,40,0,0
77400,-100,4,2,1,60,0,0
85937,-100,4,2,1,40,0,0
86851,-100,4,1,1,50,0,0
88375,-83.3333333333333,4,1,1,75,0,1
105448,-100,4,2,1,65,0,0
112766,-100,4,2,1,55,0,0
119397,-100,4,2,1,65,0,0
123132,304.878048780488,4,1,1,75,1,1
123132,-83.3333333333333,4,1,1,75,0,1
140509,-83.3333333333333,4,1,1,85,0,1
142643,-100,4,1,1,70,0,0
152399,-83.3333333333333,4,1,1,80,0,0
157278,-71.4285714285714,4,1,1,85,0,0
162156,-83.3333333333333,4,2,1,50,0,0

[Colours]
Combo1 : 255,47,52
Combo2 : 183,183,183
Combo3 : 118,192,220
Combo4 : 91,109,236
Combo5 : 210,38,253

[HitObjects]
84,112,609,5,2,0:0:0:0:
84,112,913,5,0,0:0:0:0:
264,140,1066,1,2,0:0:0:0:
204,308,1218,1,0,0:0:0:0:
24,332,1371,6,0,P|16:292|32:232,1,89.9999972534181
84,72,1676,5,2,0:0:0:0:
260,108,1828,1,2,0:0:0:0:
260,288,1981,5,0,0:0:0:0:
376,152,2133,2,0,P|380:216|364:252,1,89.9999972534181
196,196,2438,1,2,0:0:0:0:
288,92,2590,2,0,P|280:48|296:-4,1,89.9999972534181
116,180,2895,2,0,L|20:204,1,89.9999972534181
364,340,3353,5,0,0:0:0:0:
236,216,3505,1,2,0:0:0:0:
360,88,3657,2,0,P|404:60|452:48,1,89.9999972534181
264,92,3962,5,0,0:0:0:0:
376,236,4115,1,2,0:1:0:0:
220,324,4267,1,0,0:0:0:0:
64,232,4420,6,0,P|56:268|80:320,1,89.9999972534181
136,148,4724,2,0,P|128:96|92:72,1,89.9999972534181
176,240,5029,2,0,P|228:224|252:200,2,89.9999972534181
216,36,5487,1,0,0:0:0:0:
352,280,5792,5,2,0:0:0:0:
452,100,5945,1,0,0:0:0:0:
252,156,6097,5,0,0:0:0:0:
452,220,6250,1,0,0:0:0:0:
340,48,6401,6,0,P|328:128|328:156,1,89.9999972534181
352,344,6707,1,0,0:0:0:0:
152,292,6859,53,2,0:0:0:0:
148,84,7011,2,0,P|180:112|200:168,1,89.9999972534181
292,340,7316,5,2,0:0:0:0:
88,320,7468,2,0,P|88:264|100:232,1,89.9999972534181
272,120,7773,2,0,P|228:152|180:164,1,89.9999972534181
36,168,8230,5,0,0:0:0:0:
164,332,8383,1,2,0:0:0:0:
348,240,8535,1,0,0:0:0:0:
440,52,8688,2,0,L|432:156,1,89.9999972534181
380,340,8992,5,2,0:1:0:0:
276,156,9145,1,0,0:0:0:0:
144,240,9260,2,0,P|116:268|140:336,1,112.499996566773
276,156,9602,5,0,0:0:0:0:
240,116,9679,1,0,0:0:0:0:
200,100,9755,2,0,P|103:82|32:228,1,269.999991760254
328,124,10365,6,0,L|328:356,1,224.999993133545,4|0,3:2|0:0,0:0:0:0:
120,360,10670,2,0,L|120:168,1,179.999994506836,8|0,0:0|0:0,0:0:0:0:
304,252,10974,5,0,0:0:0:0:
504,272,11127,1,0,3:0:0:0:
488,68,11279,6,0,P|428:84|388:196,1,179.999994506836,8|0,0:0|0:0,0:0:0:0:
224,328,11584,6,0,L|194:150,1,179.999994506836,0|0,3:0|0:0,0:0:0:0:
420,224,11889,2,0,P|330:220|244:245,1,179.999994506836,8|0,0:0|0:0,0:0:0:0:
148,360,12194,5,0,3:0:0:0:
416,280,12346,1,0,0:0:0:0:
164,316,12499,2,0,P|192:340|336:364,1,179.999994506836,8|0,0:0|0:0,0:0:0:0:
232,168,12805,5,0,0:0:0:0:
436,104,12957,1,0,3:0:0:0:
264,232,13109,5,8,0:0:0:0:
380,48,13262,1,0,0:0:0:0:
388,264,13414,5,0,3:0:0:0:
292,68,13567,1,0,0:0:0:0:
488,152,13718,5,8,0:0:0:0:
296,256,13871,1,0,0:0:0:0:
305,32,14023,54,0,P|261:38|208:152,1,179.999994506836,0|0,3:0|0:0,0:0:0:0:
376,288,14328,2,0,P|382:243|282:175,1,179.999994506836,8|0,0:0|0:0,0:0:0:0:
260,184,14557,1,0,0:0:0:0:
232,196,14633,1,8,0:0:0:0:
32,112,14785,5,0,0:0:0:0:
108,312,14937,1,0,3:0:0:0:
204,116,15090,1,0,3:0:0:0:
40,256,15243,54,0,L|44:64,1,179.999994506836,4|0,3:2|0:0,0:0:0:0:
260,48,15548,2,0,L|264:228,1,179.999994506836,8|0,0:0|0:0,0:0:0:0:
80,336,15852,5,0,3:0:0:0:
296,332,16005,1,0,0:0:0:0:
188,144,16157,2,0,P|139:152|55:252,1,179.999994506836,8|0,0:0|0:0,0:0:0:0:
264,308,16462,6,0,P|357:287|380:212,1,179.999994506836,0|0,3:0|0:0,0:0:0:0:
120,80,16767,2,0,P|228:80|300:120,1,179.999994506836,8|0,0:0|0:0,0:0:0:0:
232,320,17071,5,0,3:0:0:0:
424,216,17224,1,0,0:0:0:0:
208,216,17377,2,0,P|184:168|216:44,1,179.999994506836,8|0,0:0|0:0,0:0:0:0:
60,64,17682,53,0,3:0:0:0:
244,140,17835,1,0,0:0:0:0:
108,284,17987,5,0,0:0:0:0:
168,96,18140,1,8,0:0:0:0:
324,216,18292,5,0,3:0:0:0:
124,200,18445,1,0,0:0:0:0:
304,136,18597,5,8,0:0:0:0:
212,312,18750,1,0,0:0:0:0:
408,316,18902,53,0,3:0:0:0:
416,92,19055,1,0,0:0:0:0:
316,284,19207,1,8,0:0:0:0:
200,208,19359,2,0,P|132:180|92:184,2,89.9999972534181
384,112,19664,53,0,0:0:0:0:
396,96,19740,1,0,0:0:0:0:
416,92,19816,1,8,0:0:0:0:
440,112,19892,1,0,0:0:0:0:
440,148,19968,1,0,0:0:0:0:
404,176,20045,1,0,0:0:0:0:
352,196,20122,1,4,0:1:0:0:
76,360,20426,5,0,0:0:0:0:
332,192,20578,2,0,L|332:273,1,75
60,279,20731,1,0,0:0:0:0:
60,279,20883,2,0,L|60:192,1,75
256,104,21036,1,0,0:0:0:0:
256,104,21187,2,0,L|258:188,1,75
60,92,21340,5,0,0:0:0:0:
60,92,21493,2,0,L|63:10,1,75
196,256,21645,1,0,0:0:0:0:
196,256,21798,2,0,L|196:344,1,75
296,152,21950,1,0,0:0:0:0:
296,152,22103,2,0,L|297:70,1,75
435,230,22256,1,0,0:0:0:0:
435,230,22407,2,0,L|436:308,1,75
428,44,22560,53,0,0:0:0:0:
148,128,22865,1,0,0:0:0:0:
308,316,23017,2,0,L|306:227,1,75
24,260,23169,1,0,0:0:0:0:
24,260,23322,2,0,L|24:343,1,75
160,104,23474,1,0,0:0:0:0:
160,104,23627,2,0,L|162:23,1,75
264,320,23779,5,0,0:0:0:0:
264,320,23932,2,0,L|263:228,1,75
400,64,24084,1,0,0:0:0:0:
400,64,24237,2,0,L|402:153,1,75
133,144,24389,1,0,0:0:0:0:
133,144,24542,2,0,L|136:56,1,75
296,260,24695,1,0,0:0:0:0:
296,260,24846,2,0,L|294:180,1,75
284,44,24999,53,0,0:0:0:0:
284,44,25304,5,0,0:0:0:0:
172,164,25456,1,0,0:0:0:0:
20,224,25608,5,0,0:0:0:0:
172,288,25761,1,0,0:0:0:0:
224,376,25913,5,0,0:0:0:0:
272,216,26066,1,0,0:0:0:0:
432,172,26218,5,0,0:0:0:0:
272,124,26371,1,0,0:0:0:0:
140,224,26523,5,0,0:0:0:0:
192,68,26676,1,0,0:0:0:0:
300,308,26827,5,0,0:0:0:0:
132,156,26980,1,0,0:0:0:0:
392,204,27132,5,0,0:0:0:0:
104,264,27285,1,0,0:0:0:0:
384,80,27438,53,0,0:0:0:0:
168,352,27590,1,0,0:0:0:0:
324,304,27742,5,0,0:0:0:0:
80,136,27895,1,0,0:0:0:0:
120,296,28047,5,0,0:0:0:0:
240,48,28200,1,0,0:0:0:0:
284,184,28352,5,0,0:0:0:0:
448,212,28505,1,0,0:0:0:0:
420,48,28657,6,0,P|360:40|240:64,1,179.999994506836,4|0,3:2|0:0,0:0:0:0:
292,148,28886,1,0,3:0:0:0:
292,148,28962,2,0,L|296:328,1,179.999994506836,8|0,0:0|0:0,0:0:0:0:
196,324,29191,5,0,3:0:0:0:
196,324,29267,1,0,0:0:0:0:
196,324,29343,1,0,0:0:0:0:
196,324,29420,1,0,0:0:0:0:
196,324,29458,6,0,L|112:252,2,89.9999972534181,8|0|0,0:0|0:0|0:0,0:0:0:0:
252,184,29724,1,0,3:0:0:0:
252,184,29802,1,0,3:0:0:0:
252,184,29877,54,0,P|240:104|260:32,1,150,4|0,3:2|0:0,0:0:0:0:
388,140,30182,2,0,P|404:212|400:300,1,150,8|0,0:0|0:0,0:0:0:0:
236,332,30487,1,0,0:0:0:0:
168,184,30639,2,0,B|148:152|119:127|31:127,1,150
192,76,30944,1,0,0:0:0:0:
260,228,31096,1,0,0:0:0:0:
448,60,31249,6,0,L|448:228,1,150
140,216,31555,5,0,0:0:0:0:
356,340,31707,1,0,3:0:0:0:
376,120,31859,1,0,3:0:0:0:
204,60,32011,6,0,L|368:44,1,150,8|0,0:0|0:0,0:0:0:0:
92,256,32316,53,0,3:0:0:0:
96,40,32468,1,0,0:0:0:0:
376,108,32621,2,0,P|409:137|424:248,1,150,8|0,0:0|0:0,0:0:0:0:
60,204,32926,5,0,3:0:0:0:
276,344,33078,1,0,0:0:0:0:
412,224,33230,2,0,P|445:253|444:364,1,150,8|0,0:0|0:0,0:0:0:0:
44,140,33535,54,0,L|192:112,1,150,0|0,3:0|0:0,0:0:0:0:
148,344,33840,1,0,0:0:0:0:
376,132,33993,5,0,0:0:0:0:
93,173,34145,5,0,3:0:0:0:
272,265,34297,1,0,3:0:0:0:
160,56,34450,1,8,0:0:0:0:
84,212,34602,1,8,0:0:0:0:
84,264,34679,1,0,0:0:0:0:
100,300,34755,54,0,P|152:308|252:320,1,150,0|0,3:0|0:0,0:0:0:0:
224,124,35060,5,0,0:0:0:0:
224,124,35136,1,0,0:0:0:0:
224,124,35212,1,0,0:0:0:0:
468,324,35365,5,0,0:0:0:0:
220,272,35517,1,0,0:0:0:0:
204,20,35669,1,0,0:0:0:0:
404,116,35822,5,0,0:0:0:0:
353,366,35974,1,0,0:0:0:0:
353,366,36127,6,0,P|345:302|368:212,1,150
80,72,36432,1,0,0:0:0:0:
380,60,36585,1,0,3:0:0:0:
252,320,36737,1,0,3:0:0:0:
55,145,36890,2,0,L|56:300,1,150,8|0,0:0|0:0,0:0:0:0:
380,272,37195,53,4,3:2:0:0:
208,88,37347,1,0,0:0:0:0:
32,328,37500,1,8,0:0:0:0:
32,328,37576,2,0,P|112:336|184:320,1,150,8|0,0:0|0:0,0:0:0:0:
252,276,37805,5,8,0:0:0:0:
220,264,37956,1,8,0:0:0:0:
192,248,38032,1,8,0:0:0:0:
176,216,38109,1,4,3:2:0:0:
216,56,38261,53,8,0:0:0:0:
256,32,38337,1,0,0:0:0:0:
300,36,38413,2,0,L|312:160,1,120,4|0,3:2|0:0,0:0:0:0:
96,324,38718,2,0,L|84:188,1,120
360,304,39023,5,0,3:0:0:0:
76,44,39176,1,0,3:0:0:0:
416,56,39328,1,0,3:0:0:0:
76,336,39481,1,0,3:0:0:0:
112,304,40243,6,0,B|148:260|120:228|48:128|40:164,1,180
32,160,40548,2,0,P|8:112|44:48,1,120
332,56,40853,2,0,P|264:68|240:88,1,89.9999972534181
200,208,41005,2,0,P|228:260|224:304,1,89.9999972534181
364,208,41157,2,0,P|428:208|468:180,1,89.9999972534181
244,32,41310,6,0,P|172:60|136:92,1,89.9999972534181
196,240,41462,2,0,P|156:284|92:296,1,89.9999972534181
16,216,41615,5,0,0:0:0:0:
408,312,41767,1,8,0:0:0:0:
384,68,41919,1,0,0:0:0:0:
56,120,42072,6,0,P|144:124|164:136,1,89.9999972534181
264,304,42224,2,0,P|200:260|192:240,1,89.9999972534181
296,52,42377,2,0,P|228:92|216:128,1,89.9999972534181
152,332,42529,2,0,P|160:280|188:256,1,89.9999972534181
364,248,42720,6,0,P|476:204|448:88,1,224.999993133545
176,132,42987,2,0,B|96:116|87:158|68:128|-32:188,1,179.999994506836
324,348,43292,5,0,0:0:0:0:
324,348,43368,2,0,L|220:312,1,89.9999972534181
180,24,43596,6,0,P|240:32|272:48,1,89.9999972534181
464,176,43749,2,0,P|412:232|376:240,1,89.9999972534181
164,268,43901,2,0,P|188:188|216:156,1,89.9999972534181
392,60,44054,5,0,0:0:0:0:
364,324,44206,1,8,0:0:0:0:
136,104,44359,5,0,0:0:0:0:
468,136,44511,6,0,P|440:188|384:212,1,89.9999972534181
188,360,44663,2,0,P|172:276|180:252,1,89.9999972534181
168,20,44816,2,0,P|244:56|264:92,1,89.9999972534181
428,268,44968,2,0,P|352:256|328:244,1,89.9999972534181
124,136,45121,6,0,P|200:96|388:204,1,314.999990386963
432,204,45426,2,0,P|424:116|392:28,1,179.999994506836
497,360,45730,22,0,P|457:372|280:312,1,224.999993133545,4|0,3:2|2:0,0:0:0:0:
312,216,46035,2,0,L|120:224,1,179.999994506836,8|0,0:0|0:0,0:0:0:0:
380,320,46340,2,0,P|448:316|488:216,1,179.999994506836,0|0,3:0|0:0,0:0:0:0:
328,84,46645,5,8,0:0:0:0:
176,348,46797,1,0,0:0:0:0:
104,52,46950,6,0,P|144:112|76:204,1,179.999994506836,0|0,3:0|0:0,0:0:0:0:
436,324,47255,1,0,0:0:0:0:
143,83,47407,1,0,0:0:0:0:
143,83,47560,2,0,B|108:98|108:98|19:86,1,89.9999972534181,0|0,3:0|0:0,0:0:0:0:
52,48,47712,2,0,P|48:132|88:244,2,179.999994506836
384,160,48169,54,0,P|304:156|168:88,1,224.999993133545,0|0,3:0|0:2,0:0:0:0:
104,192,48474,2,0,P|95:244|172:344,1,179.999994506836,8|0,0:0|0:0,0:0:0:0:
464,224,48779,5,0,3:0:0:0:
312,32,48931,1,0,0:0:0:0:
236,336,49084,2,0,B|276:348|372:216,1,179.999994506836,8|0,0:0|0:0,0:0:0:0:
476,328,49389,5,0,3:0:0:0:
192,108,49541,1,0,0:0:0:0:
84,320,49694,5,8,0:0:0:0:
388,128,49846,1,0,3:0:0:0:
28,128,49999,5,0,3:0:0:0:
320,164,50152,2,0,L|344:261,1,89.9999972534181,8|0,0:0|3:0,0:0:0:0:
372,276,50305,5,8,0:0:0:0:
404,304,50381,1,8,0:0:0:0:
408,344,50457,1,8,0:0:0:0:
372,360,50533,1,8,0:0:0:0:
332,348,50609,6,0,P|268:336|224:340,1,89.9999972534181
96,156,50761,2,0,B|140:156|167:159|199:167,1,89.9999972534181
420,204,50913,2,0,P|344:212|304:212,1,89.9999972534181
152,32,51066,2,0,P|212:88|224:116,1,89.9999972534181
176,336,51218,2,0,P|200:272|216:256,1,89.9999972534181
316,20,51523,2,0,B|308:64|327:95|299:127,1,89.9999972534181
356,320,51676,6,0,P|288:272|260:280,1,89.9999972534181
56,232,51828,2,0,P|116:188|144:188,1,89.9999972534181
260,92,51982,5,0,0:0:0:0:
488,120,52134,1,8,0:0:0:0:
176,288,52285,5,0,0:0:0:0:
240,40,52438,2,0,B|216:84|236:136|300:156|320:64|396:56,1,224.999993133545
472,80,52705,2,0,L|476:316,1,224.999993133545
340,120,53048,6,0,P|336:48|324:16,1,89.9999972534181
228,260,53200,2,0,P|232:308|268:340,1,89.9999972534181
252,80,53353,2,0,P|208:48|168:52,1,89.9999972534181
324,292,53505,2,0,P|372:296|408:268,1,89.9999972534181
136,108,53657,2,0,P|76:132|64:152,1,89.9999972534181
104,288,53810,5,0,0:0:0:0:
380,60,53962,2,0,P|328:84|316:120,1,89.9999972534181
472,288,54115,2,0,P|424:256|412:224,1,89.9999972534181
248,252,54267,1,0,3:0:0:0:
236,88,54420,5,0,0:0:0:0:
336,328,54572,1,8,0:0:0:0:
184,236,54725,5,0,0:0:0:0:
460,184,54876,1,8,3:2:0:0:
433,161,54952,5,8,0:0:0:0:
417,132,55028,1,8,0:0:0:0:
414,98,55105,1,8,0:0:0:0:
423,66,55181,1,8,0:0:0:0:
240,320,55334,5,0,0:0:0:0:
204,336,55410,1,0,0:0:0:0:
168,332,55487,2,0,P|112:316|88:156,1,224.999993133545
384,160,55829,21,8,0:0:0:0:
328,384,55944,1,0,0:0:0:0:
268,84,56096,5,8,0:0:0:0:
24,116,56249,1,0,0:0:0:0:
308,228,56401,5,8,0:0:0:0:
12,304,56554,1,0,0:0:0:0:
312,364,56706,5,8,0:0:0:0:
140,192,56858,1,0,0:0:0:0:
348,44,57011,2,0,P|296:24|180:64,1,179.999994506836,8|0,0:0|0:0,0:0:0:0:
256,192,57316,21,8,0:0:0:0:
276,228,57391,1,8,0:0:0:0:
308,252,57467,1,8,0:0:0:0:
348,252,57544,1,8,0:0:0:0:
372,208,57621,5,8,0:0:0:0:
416,196,57696,1,8,0:0:0:0:
440,228,57773,1,8,0:0:0:0:
452,268,57850,1,8,0:0:0:0:
128,184,57926,54,0,P|176:284|132:372,1,179.999994506836,4|0,3:2|0:0,0:0:0:0:
128,184,58231,2,0,P|96:60|128:5,1,179.999994506836,8|0,0:0|0:0,0:0:0:0:
44,252,58535,5,0,3:0:0:0:
228,176,58687,1,0,0:0:0:0:
240,344,58840,2,0,P|176:368|72:336,1,179.999994506836,8|0,0:0|0:0,0:0:0:0:
84,40,59145,5,0,0:0:0:0:
256,200,59298,1,0,0:0:0:0:
0,216,59450,1,0,0:0:0:0:
200,108,59603,5,0,0:0:0:0:
0,48,59755,1,0,0:0:0:0:
124,292,59907,1,0,0:0:0:0:
40,248,60060,5,0,0:0:0:0:
292,64,60212,1,0,0:0:0:0:
120,48,60365,6,0,P|72:96|52:212,1,179.999994506836
152,336,60670,1,0,0:0:0:0:
412,180,60822,2,0,P|288:208|232:228,1,179.999994506836
252,56,61127,5,0,0:0:0:0:
408,280,61279,1,0,0:0:0:0:
132,316,61432,2,0,P|104:256|156:156,1,179.999994506836
376,36,61737,2,0,P|408:124|376:240,1,179.999994506836
256,288,62042,5,0,0:0:0:0:
232,292,62118,1,0,0:0:0:0:
208,296,62194,1,0,0:0:0:0:
