osu file format v14

[General]
AudioFilename: audio.mp3
AudioLeadIn: 0
PreviewTime: 48204
Countdown: 0
SampleSet: Soft
StackLeniency: 0.2
Mode: 0
LetterboxInBreaks: 0
WidescreenStoryboard: 1

[Editor]
Bookmarks: 735,12442,24149,35856,49027,60734,72442,84149,95856
DistanceSpacing: 1
BeatDivisor: 4
GridSize: 32
TimelineZoom: 2.1

[Metadata]
Title:MONSTER
TitleUnicode:MONSTER
Artist:Reol
ArtistUnicode:れをる
Creator:Sotarks
Version:PKHG'S INSANE
Source:
Tags:極彩色 梅とら umetora reworu gokusaishoku haruto haruto_aizawa akitoshi corinn kin irohas mugiwarasekai pkhg davided linada sharu sharuresu chromoxx
BeatmapID:1411464
BeatmapSetID:661483

[Difficulty]
HPDrainRate:6
CircleSize:3
OverallDifficulty:8
ApproachRate:8.7
SliderMultiplier:0.799999999999999
SliderTickRate:1

[Events]
//Background and Video events
0,0,"BG.jpg",0,0
//Break Periods
//Storyboard Layer 0 (Background)
//Storyboard Layer 1 (Fail)
//Storyboard Layer 2 (Pass)
//Storyboard Layer 3 (Foreground)
//Storyboard Sound Samples

[TimingPoints]
735,365.853658536585,4,2,1,40,1,0
735,-125,4,2,1,40,0,0
11344,-62.5,4,2,1,50,0,0
11710,-153.846153846154,4,2,1,40,0,0
12350,-144.927536231884,4,2,1,5,0,0
12442,-50,4,2,1,60,0,0
24149,-71.4285714285714,4,2,1,40,0,0
31741,-71.4285714285714,4,2,1,5,0,0
31832,-71.4285714285714,4,2,1,40,0,0
32289,-71.4285714285714,4,2,1,5,0,0
32380,-71.4285714285714,4,2,1,40,0,0
32930,-50,4,2,1,40,0,0
34393,-55.5555555555556,4,2,1,50,0,0
34576,-55.5555555555556,4,2,1,5,0,0
34667,-55.5555555555556,4,2,1,50,0,0
35399,-55.5555555555556,4,2,1,5,0,0
35490,-55.5555555555556,4,2,1,40,0,0
35582,-55.5555555555556,4,2,1,5,0,0
35673,-55.5555555555556,4,2,1,40,0,0
35856,-62.5,4,2,1,60,0,0
36131,-62.5,4,2,1,5,0,0
36222,-62.5,4,2,1,50,0,0
37228,-62.5,4,2,1,5,0,0
37319,-62.5,4,2,1,50,0,0
37594,-62.5,4,2,1,5,0,0
37686,-62.5,4,2,1,50,0,0
41984,-62.5,4,2,1,5,0,0
42075,-62.5,4,2,1,50,0,0
43082,-62.5,4,2,1,5,0,0
43173,-62.5,4,2,1,50,0,0
43448,-62.5,4,2,1,5,0,0
43539,-62.5,4,2,1,50,0,0
48295,-100,4,2,1,60,0,0
49027,-50,4,2,1,70,0,1
55887,-50,4,2,1,5,0,1
55978,-50,4,2,1,70,0,1
69881,-50,4,2,1,80,0,1
72350,-50,4,2,1,80,0,0
72442,-50,4,2,1,70,0,1
72533,-50,4,2,1,70,0,0
73082,-50,4,2,1,5,0,0
73173,-50,4,2,1,70,0,0
73814,-50,4,2,1,5,0,0
73905,-50,4,2,1,70,0,0
74545,-50,4,2,1,5,0,0
74636,-50,4,2,1,70,0,0
76009,-50,4,2,1,5,0,0
76100,-50,4,2,1,70,0,0
76741,-50,4,2,1,5,0,0
76832,-50,4,2,1,70,0,0
78936,-50,4,2,1,5,0,0
79027,-50,4,2,1,70,0,0
80399,-50,4,2,1,5,0,0
80490,-50,4,2,1,70,0,0
81863,-50,4,2,1,5,0,0
81954,-50,4,2,1,70,0,0
82594,-50,4,2,1,5,0,0
82685,-50,4,2,1,70,0,0
95856,-50,4,2,1,60,0,0

[Colours]
Combo1 : 119,129,176
Combo2 : 255,234,159
Combo3 : 32,104,191
Combo4 : 215,92,2
SliderBorder : 255,255,255
SliderTrackOverride : 0,0,0

[HitObjects]
80,354,735,6,0,L|175:350,1,95.9999999999999,2|2,0:0|0:0,0:0:0:0:
176,351,1832,1,2,0:0:0:0:
272,346,2015,2,0,L|335:343,1,63.9999999999999,2|2,0:0|0:0,0:0:0:0:
335,343,2930,2,0,L|398:340,1,63.9999999999999,2|2,0:0|0:0,0:0:0:0:
398,340,3661,2,0,L|394:244,1,95.9999999999999,2|2,0:0|0:0,0:0:0:0:
394,244,4942,1,2,0:0:0:0:
394,244,6588,6,0,L|298:240,1,95.9999999999999,2|2,0:0|0:0,0:0:0:0:
298,241,7685,1,2,0:0:0:0:
202,236,7868,2,0,L|138:233,1,63.9999999999999,2|2,0:0|0:0,0:0:0:0:
139,233,8783,2,0,L|75:230,1,63.9999999999999,2|2,0:0|0:0,0:0:0:0:
76,230,9515,2,0,L|79:134,1,95.9999999999999,2|2,0:0|0:0,0:0:0:0:
80,134,10795,1,2,0:0:0:0:
79,134,11344,6,0,L|75:229,1,95.9999999999999,8|8,0:1|0:1,0:0:0:0:
76,230,11710,6,2,L|72:320,1,90.9999958343507,2|0,0:0|0:0,0:0:0:0:
72,320,12442,6,0,P|108:335|148:334,1,79.9999999999999,12|0,0:0|0:0,0:0:0:0:
319,267,12808,2,0,P|279:266|242:281,2,79.9999999999999,8|0|8,0:1|0:0|0:0,0:0:0:0:
425,323,13356,1,0,0:0:0:0:
486,153,13539,2,0,P|501:190|501:230,1,79.9999999999999,8|0,0:1|0:0,0:0:0:0:
319,106,13905,6,0,P|355:90|395:91,2,79.9999999999999,8|0|8,0:0|0:0|0:1,0:0:0:0:
241,198,14454,1,0,0:0:0:0:
172,34,14637,2,0,P|157:71|158:111,1,79.9999999999999,8|0,0:0|0:0,0:0:0:0:
255,274,15003,2,0,P|256:234|241:198,1,79.9999999999999,8|0,0:1|0:0,0:0:0:0:
171,353,15369,6,0,P|131:354|95:339,2,79.9999999999999,8|0|8,0:0|0:0|0:1,0:0:0:0:
255,274,15917,1,0,0:0:0:0:
179,181,16100,2,0,P|178:141|193:104,3,79.9999999999999,8|0|8|0,0:0|0:0|0:1|0:0,0:0:0:0:
289,42,16832,2,0,P|328:41|365:56,2,79.9999999999999,8|0|8,0:0|0:0|0:1,0:0:0:0:
193,104,17381,6,0,P|173:104|154:96,1,40,0|8,0:0|0:1,0:0:0:0:
154,96,17564,2,0,P|114:95|77:110,1,79.9999999999999,8|0,0:0|0:0,0:0:0:0:
134,196,17930,1,8,0:0:0:0:
98,10,18113,1,8,0:1:0:0:
138,226,18295,6,0,P|101:211|61:210,1,79.9999999999999,12|0,0:0|0:0,0:0:0:0:
303,278,18661,2,0,P|266:293|227:292,2,79.9999999999999,8|0|8,0:1|0:0|0:0,0:0:0:0:
407,216,19210,1,0,0:0:0:0:
339,52,19393,2,0,P|324:88|323:128,1,79.9999999999999,8|0,0:1|0:0,0:0:0:0:
422,292,19759,6,0,P|421:252|406:215,2,79.9999999999999,8|0|8,0:0|0:0|0:1,0:0:0:0:
329,369,20308,1,0,0:0:0:0:
250,279,20491,2,0,P|213:264|173:262,1,79.9999999999999,8|0,0:0|0:0,0:0:0:0:
13,345,20856,2,0,P|52:343|89:328,1,79.9999999999999,8|0,0:1|0:0,0:0:0:0:
257,233,21222,6,0,P|217:234|180:249,2,79.9999999999999,8|0|8,0:0|0:0|0:1,0:0:0:0:
366,285,21771,1,0,0:0:0:0:
442,192,21954,2,0,P|443:152|428:115,3,79.9999999999999,8|0|8|0,0:0|0:0|0:1|0:0,0:0:0:0:
332,53,22686,2,0,P|293:52|256:67,2,79.9999999999999,8|0|8,0:0|0:0|0:1,0:0:0:0:
428,115,23234,6,0,P|447:114|466:122,2,40,0|8|8,0:0|0:1|0:0,0:0:0:0:
314,186,23600,2,0,P|332:178|352:178,1,40,8|8,0:1|0:1,0:0:0:0:
385,197,23783,6,0,P|403:204|423:204,4,40,8|8|8|8|8,0:0|0:1|0:1|0:1|0:0,0:0:0:0:
385,197,24515,5,10,0:0:0:0:
294,163,24698,1,0,0:0:0:0:
261,253,24881,1,10,0:0:0:0:
351,287,25064,1,0,0:0:0:0:
276,347,25247,1,10,0:0:0:0:
186,313,25430,1,2,0:0:0:0:
258,231,25613,5,10,0:0:0:0:
258,231,25978,5,10,0:0:0:0:
276,347,26161,1,0,0:0:0:0:
258,231,26344,1,10,0:0:0:0:
276,347,26527,1,0,0:0:0:0:
258,231,26710,1,10,0:0:0:0:
276,347,26893,1,2,0:0:0:0:
276,347,27442,5,10,0:0:0:0:
185,381,27625,1,0,0:0:0:0:
152,291,27808,1,10,0:0:0:0:
242,257,27991,1,2,0:0:0:0:
167,197,28174,1,10,0:0:0:0:
77,231,28357,1,0,0:0:0:0:
149,313,28540,5,10,0:0:0:0:
149,313,28905,5,8,0:0:0:0:
167,197,29088,1,2,0:0:0:0:
149,313,29271,1,8,0:0:0:0:
167,197,29454,1,2,0:0:0:0:
149,313,29637,1,8,0:0:0:0:
167,197,29820,1,2,0:0:0:0:
167,197,30369,5,8,0:0:0:0:
258,270,30552,1,2,0:0:0:0:
221,175,30734,1,8,0:0:0:0:
203,291,30917,1,2,0:0:0:0:
266,212,31100,1,10,0:0:0:0:
158,254,31283,1,2,0:0:0:0:
212,113,31466,6,0,L|128:105,1,83.9999974365234,10|0,0:0|0:0,0:0:0:0:
109,105,31832,1,2,0:0:0:0:
273,193,32015,2,0,L|190:206,1,83.9999974365234,10|0,0:0|0:0,0:0:0:0:
172,212,32381,1,2,0:0:0:0:
353,255,32564,1,8,0:0:0:0:
260,298,32747,1,2,0:0:0:0:
416,336,32930,6,0,L|260:298,1,160,10|10,0:0|0:0,0:0:0:0:
260,299,34027,1,8,0:0:0:0:
353,255,34210,1,2,0:0:0:0:
175,249,34393,6,0,L|103:241,1,71.9999978027344,12|0,0:0|0:0,0:0:0:0:
85,239,34667,1,8,0:0:0:0:
45,220,34759,6,0,L|117:212,1,71.9999978027344,8|0,0:1|0:0,0:0:0:0:
145,196,35033,1,8,0:0:0:0:
162,197,35124,1,8,0:0:0:0:
180,199,35215,1,8,0:0:0:0:
212,191,35308,6,0,L|248:187,1,35.9999989013672,8|0,0:1|0:0,0:0:0:0:
332,177,35491,2,0,L|368:173,1,35.9999989013672,8|0,0:1|0:0,0:0:0:0:
414,192,35674,5,8,0:0:0:0:
416,174,35765,1,8,0:0:0:0:
417,157,35856,2,0,L|429:46,1,95.9999999999999,12|0,0:0|0:0,0:0:0:0:
429,43,36222,1,8,0:1:0:0:
429,43,36588,5,8,0:0:0:0:
510,116,36771,1,8,0:0:0:0:
336,97,36954,2,0,P|288:96|244:114,1,95.9999999999999,8|0,0:1|0:0,0:0:0:0:
233,126,37320,6,0,L|137:115,1,95.9999999999999,8|0,0:0|0:0,0:0:0:0:
119,113,37686,1,8,0:1:0:0:
119,113,38052,5,8,0:0:0:0:
63,202,38234,1,8,0:0:0:0:
35,52,38417,1,8,0:1:0:0:
63,202,38600,5,0,0:0:0:0:
67,221,38691,1,0,0:0:0:0:
71,240,38782,1,8,0:0:0:0:
4,316,38966,1,0,0:0:0:0:
157,286,39149,1,8,0:1:0:0:
156,286,39515,5,8,0:0:0:0:
92,381,39699,1,8,0:0:0:0:
67,220,39881,1,8,0:1:0:0:
3,316,40065,1,8,0:0:0:0:
92,381,40247,5,8,0:0:0:0:
156,286,40430,1,0,0:0:0:0:
3,316,40613,1,8,0:1:0:0:
156,286,40795,2,0,L|218:273,1,63.9999999999999,0|8,0:0|0:0,0:0:0:0:
318,253,41161,5,8,0:0:0:0:
478,221,41344,1,8,0:1:0:0:
379,139,41527,5,8,0:1:0:0:
382,155,41618,1,8,0:1:0:0:
385,171,41710,2,0,L|403:265,1,95.9999999999999,8|0,0:0|0:0,0:0:0:0:
406,281,42076,1,8,0:1:0:0:
406,281,42442,5,8,0:0:0:0:
487,354,42625,1,8,0:0:0:0:
313,335,42808,2,0,P|265:334|221:352,1,95.9999999999999,8|0,0:1|0:0,0:0:0:0:
210,364,43174,6,0,L|114:353,1,95.9999999999999,8|0,0:0|0:0,0:0:0:0:
96,351,43540,1,8,0:1:0:0:
96,351,43905,5,8,0:0:0:0:
168,266,44088,1,8,0:0:0:0:
10,283,44271,1,8,0:1:0:0:
70,167,44454,5,0,0:0:0:0:
73,183,44545,1,0,0:0:0:0:
76,199,44637,1,8,0:0:0:0:
96,351,44820,1,8,0:1:0:0:
171,250,45003,1,8,0:1:0:0:
168,266,45095,1,8,0:1:0:0:
275,384,45277,1,8,0:1:0:0:
272,368,45369,1,8,0:1:0:0:
174,234,45552,5,8,0:1:0:0:
177,218,45644,1,8,0:1:0:0:
180,202,45735,1,12,0:0:0:0:
306,71,45917,1,8,0:1:0:0:
309,87,46008,1,8,0:1:0:0:
312,103,46100,1,4,0:3:0:0:
312,103,46466,5,4,0:3:0:0:
180,202,46649,1,4,0:3:0:0:
309,87,46832,1,8,0:1:0:0:
177,218,47015,1,4,0:3:0:0:
306,71,47198,1,4,0:3:0:0:
174,234,47381,1,2,3:2:0:0:
312,103,48295,6,0,P|307:122|303:142,1,40,2|0,0:0|0:0,0:0:0:0:
174,234,48661,2,0,P|178:253|182:273,1,40,2|0,0:0|0:0,0:0:0:0:
320,241,49027,5,12,0:0:0:0:
462,157,49210,1,2,0:0:0:0:
350,127,49393,1,8,0:1:0:0:
431,270,49576,1,2,0:0:0:0:
306,230,49759,5,8,0:0:0:0:
476,168,49942,1,2,0:0:0:0:
360,114,50125,1,8,0:1:0:0:
421,284,50308,1,2,0:0:0:0:
293,216,50491,5,8,0:0:0:0:
488,182,50674,1,2,0:0:0:0:
374,101,50857,1,8,0:1:0:0:
406,297,51040,1,2,0:0:0:0:
371,91,51222,6,0,L|328:14,1,79.9999999999999,8|2,0:0|0:0,0:0:0:0:
407,306,51588,2,0,L|391:384,1,79.9999999999999,8|2,0:1|0:0,0:0:0:0:
191,241,51954,5,8,0:0:0:0:
49,157,52137,1,2,0:0:0:0:
161,127,52320,1,8,0:1:0:0:
80,270,52503,1,2,0:0:0:0:
205,230,52686,5,8,0:0:0:0:
35,168,52869,1,2,0:0:0:0:
151,114,53052,1,8,0:1:0:0:
90,284,53235,1,2,0:0:0:0:
218,216,53418,5,8,0:0:0:0:
23,182,53601,1,2,0:0:0:0:
137,101,53784,1,8,0:1:0:0:
105,297,53967,1,2,0:0:0:0:
140,91,54149,6,0,L|183:14,1,79.9999999999999,8|2,0:0|0:0,0:0:0:0:
104,306,54515,2,0,L|120:384,1,79.9999999999999,8|2,0:1|0:0,0:0:0:0:
316,234,54881,5,12,0:0:0:0:
316,234,55247,1,8,0:1:0:0:
218,216,55430,1,2,0:0:0:0:
370,303,55613,6,0,P|368:243|389:187,1,120,8|0,0:0|0:0,0:0:0:0:
401,176,55978,1,8,0:1:0:0:
282,51,56161,6,0,P|304:84|315:123,1,79.9999999999999,2|8,0:0|0:0,0:0:0:0:
365,285,56527,2,0,P|325:287|286:277,1,79.9999999999999,2|8,0:0|0:1,0:0:0:0:
120,239,56893,2,0,P|138:204|166:175,1,79.9999999999999,2|8,0:0|0:0,0:0:0:0:
255,192,57259,5,2,0:0:0:0:
256,352,57442,1,8,0:1:0:0:
353,285,57625,2,0,P|392:287|428:304,1,79.9999999999999,2|8,0:0|0:0,0:0:0:0:
256,352,57991,1,2,0:0:0:0:
83,304,58174,2,0,P|119:287|159:285,1,79.9999999999999,8|2,0:1|0:0,0:0:0:0:
406,198,58539,6,0,P|377:226|358:260,1,79.9999999999999,8|2,0:0|0:0,0:0:0:0:
105,198,58905,2,0,P|134:226|153:260,1,79.9999999999999,8|2,0:1|0:0,0:0:0:0:
317,60,59271,2,0,P|324:100|327:140,1,79.9999999999999,8|2,0:0|0:0,0:0:0:0:
195,60,59637,2,0,P|188:100|185:140,1,79.9999999999999,8|2,0:1|0:0,0:0:0:0:
320,352,60003,5,8,0:1:0:0:
192,352,60186,1,8,0:0:0:0:
320,256,60369,1,8,0:1:0:0:
292,280,60460,1,8,0:1:0:0:
256,288,60552,1,8,0:1:0:0:
220,280,60643,1,8,0:1:0:0:
192,256,60734,5,12,0:0:0:0:
169,149,60917,1,2,0:0:0:0:
320,256,61100,1,8,0:1:0:0:
343,149,61283,1,2,0:0:0:0:
192,256,61466,5,8,0:0:0:0:
152,129,61649,1,2,0:0:0:0:
320,256,61832,1,8,0:1:0:0:
360,129,62015,1,2,0:0:0:0:
141,122,62198,5,8,0:0:0:0:
370,122,62381,1,2,0:0:0:0:
185,262,62564,1,8,0:1:0:0:
326,262,62747,1,2,0:0:0:0:
141,122,62930,6,0,L|66:92,1,79.9999999999999,8|2,0:0|0:0,0:0:0:0:
370,122,63295,2,0,L|444:92,1,79.9999999999999,8|2,0:1|0:0,0:0:0:0:
255,362,63661,5,8,0:0:0:0:
157,263,63844,1,2,0:0:0:0:
355,263,64027,1,8,0:1:0:0:
255,164,64210,1,2,0:0:0:0:
255,333,64393,5,8,0:0:0:0:
157,234,64576,1,2,0:0:0:0:
255,135,64759,1,8,0:1:0:0:
355,234,64942,1,2,0:0:0:0:
256,35,65125,5,8,0:0:0:0:
157,206,65308,1,2,0:0:0:0:
355,205,65491,1,8,0:1:0:0:
256,156,65674,1,2,0:0:0:0:
333,305,65856,5,8,0:1:0:0:
372,307,65947,1,8,0:1:0:0:
409,293,66038,1,8,0:1:0:0:
439,267,66130,1,8,0:1:0:0:
455,230,66221,1,8,0:1:0:0:
301,117,66405,5,8,0:1:0:0:
328,161,66497,1,8,0:1:0:0:
355,205,66588,1,4,1:2:0:0:
355,205,66954,5,8,0:1:0:0:
280,77,67137,1,0,0:0:0:0:
193,222,67320,5,8,0:1:0:0:
342,221,67503,1,0,0:0:0:0:
259,73,67686,5,8,0:1:0:0:
186,203,67869,1,0,0:0:0:0:
368,108,68052,5,8,0:0:0:0:
242,176,68234,1,8,0:0:0:0:
214,189,68326,1,8,0:0:0:0:
186,203,68417,1,8,0:1:0:0:
396,95,68600,1,0,0:0:0:0:
425,83,68692,1,8,0:1:0:0:
453,69,68783,1,8,0:0:0:0:
271,164,68966,5,0,0:0:0:0:
396,95,69149,1,8,0:1:0:0:
435,75,69241,1,8,0:1:0:0:
474,58,69332,1,8,0:1:0:0:
468,100,69424,1,8,0:1:0:0:
466,144,69515,1,12,0:0:0:0:
466,144,69881,5,8,0:1:0:0:
353,228,70064,1,0,0:0:0:0:
396,95,70247,1,8,0:1:0:0:
331,256,70430,1,0,0:0:0:0:
466,144,70613,1,8,0:1:0:0:
309,284,70795,1,0,0:0:0:0:
266,78,70978,5,4,1:2:0:0:
466,144,71161,1,0,0:0:0:0:
309,284,71344,1,4,1:2:0:0:
492,139,71527,1,0,0:0:0:0:
266,78,71710,5,4,1:2:0:0:
225,80,71801,1,8,0:1:0:0:
189,97,71892,1,8,0:1:0:0:
164,128,71984,1,8,0:1:0:0:
154,166,72075,1,8,0:1:0:0:
129,198,72167,1,8,0:1:0:0:
95,218,72258,1,8,0:1:0:0:
55,221,72350,1,8,0:1:0:0:
14,206,72442,6,0,P|14:166|0:129,1,79.9999999999999,12|0,0:0|0:0,0:0:0:0:
101,357,72808,2,0,P|103:297|127:242,1,120,4|0,1:2|0:0,0:0:0:0:
219,192,73174,6,0,L|298:186,1,79.9999999999999,8|0,0:0|0:0,0:0:0:0:
492,139,73539,2,0,L|373:132,1,120,4|0,1:2|0:0,0:0:0:0:
298,185,73905,6,0,B|289:225|289:225|293:264,1,79.9999999999999,8|0,0:0|0:0,0:0:0:0:
153,384,74271,2,0,B|166:324|166:324|161:265,1,120,4|0,1:2|0:0,0:0:0:0:
147,175,74637,5,8,0:0:0:0:
147,175,75003,1,4,1:2:0:0:
77,313,75186,1,0,0:0:0:0:
237,282,75369,6,0,P|200:267|161:265,1,79.9999999999999,8|0,0:0|0:0,0:0:0:0:
347,227,75734,2,0,P|371:172|373:113,1,120,4|0,1:2|0:0,0:0:0:0:
290,83,76100,6,0,B|281:42|281:42|285:4,1,79.9999999999999,8|0,0:0|0:0,0:0:0:0:
492,120,76466,2,0,L|373:113,1,120,4|0,1:2|0:0,0:0:0:0:
290,83,76832,6,0,L|211:89,1,79.9999999999999,8|0,0:0|0:0,0:0:0:0:
45,101,77198,2,0,L|124:95,1,79.9999999999999,4|8,1:2|0:0,0:0:0:0:
167,91,77472,1,8,0:1:0:0:
210,89,77564,1,8,0:0:0:0:
210,89,77930,5,4,0:3:0:0:
45,101,78113,1,8,0:1:0:0:
253,87,78295,6,0,L|332:82,1,79.9999999999999,12|0,0:0|0:0,0:0:0:0:
512,30,78661,2,0,L|393:23,1,120,4|0,1:2|0:0,0:0:0:0:
332,82,79027,5,8,0:0:0:0:
332,82,79393,1,4,1:2:0:0:
374,224,79576,1,0,0:0:0:0:
332,82,79759,6,0,P|317:118|315:158,1,79.9999999999999,8|0,0:0|0:0,0:0:0:0:
309,352,80124,2,0,P|306:292|283:237,1,120,4|0,1:2|0:0,0:0:0:0:
230,170,80491,5,8,0:0:0:0:
230,170,80856,1,4,1:2:0:0:
126,242,81039,1,0,0:0:0:0:
43,119,81222,6,0,P|44:79|59:42,1,79.9999999999999,8|0,0:0|0:0,0:0:0:0:
251,74,81588,2,0,P|191:76|137:100,1,120,4|0,1:2|0:0,0:0:0:0:
107,188,81954,6,0,L|102:267,1,79.9999999999999,8|0,0:0|0:0,0:0:0:0:
288,335,82320,2,0,L|169:342,1,120,4|0,1:2|0:0,0:0:0:0:
150,343,82686,5,8,0:0:0:0:
307,334,82869,1,8,0:1:0:0:
131,344,83052,2,0,L|52:349,1,79.9999999999999,8|0,0:1|0:0,0:0:0:0:
32,350,83326,1,8,0:1:0:0:
13,351,83417,1,8,0:0:0:0:
168,342,83600,5,8,0:1:0:0:
187,341,83692,1,8,0:1:0:0:
206,340,83783,1,8,0:1:0:0:
225,339,83875,1,8,0:1:0:0:
244,338,83966,1,8,0:1:0:0:
263,337,84058,1,8,0:1:0:0:
282,336,84149,5,4,1:2:0:0:
386,305,84515,1,8,0:1:0:0:
287,161,84881,1,8,0:1:0:0:
221,247,85247,1,8,0:1:0:0:
386,305,85613,5,8,0:1:0:0:
390,198,85978,1,8,0:1:0:0:
287,161,86344,1,8,0:1:0:0:
287,161,86710,1,8,0:1:0:0:
390,198,86893,1,0,0:0:0:0:
386,305,87076,5,8,0:1:0:0:
282,336,87442,1,8,0:1:0:0:
287,161,87808,1,8,0:1:0:0:
221,247,88174,1,8,0:1:0:0:
390,198,88539,5,8,0:1:0:0:
480,135,88905,1,8,0:1:0:0:
390,198,89088,5,8,0:0:0:0:
355,221,89179,1,8,0:1:0:0:
320,244,89271,1,8,0:0:0:0:
320,244,89637,5,8,0:1:0:0:
355,221,89729,1,8,0:1:0:0:
390,198,89820,1,8,0:1:0:0:
425,175,89911,1,8,0:1:0:0:
460,152,90003,5,4,1:2:0:0:
320,244,90369,1,8,0:1:0:0:
310,76,90734,1,8,0:1:0:0:
460,152,91100,5,8,0:1:0:0:
390,198,91283,1,0,0:0:0:0:
320,244,91466,1,8,0:1:0:0:
310,76,91832,1,8,0:1:0:0:
460,152,92198,1,8,0:1:0:0:
320,244,92564,1,8,0:1:0:0:
52,152,92930,5,8,0:1:0:0:
192,244,93296,1,8,0:1:0:0:
202,76,93661,1,8,0:1:0:0:
52,152,94027,5,8,0:1:0:0:
122,198,94210,1,0,0:0:0:0:
192,244,94393,1,8,0:1:0:0:
202,76,94759,1,8,0:1:0:0:
52,152,94942,5,8,0:0:0:0:
87,175,95033,1,8,0:1:0:0:
122,198,95125,1,8,0:0:0:0:
122,198,95308,5,8,0:1:0:0:
157,221,95399,1,8,0:1:0:0:
192,244,95491,1,8,0:1:0:0:
227,267,95582,1,8,0:1:0:0:
262,290,95674,1,8,0:1:0:0:
297,313,95765,1,8,0:1:0:0:
332,336,95856,6,0,L|349:347,2,20,2|0|0,0:0|0:0|0:0,0:0:0:0:
