osu file format v14

[General]
AudioFilename: audio.mp3
AudioLeadIn: 0
PreviewTime: 48204
Countdown: 0
SampleSet: Soft
StackLeniency: 0.7
Mode: 0
LetterboxInBreaks: 0
WidescreenStoryboard: 0

[Editor]
Bookmarks: 735,12442,24149,35856,49027,72442,84149,95856
DistanceSpacing: 0.8
BeatDivisor: 8
GridSize: 4
TimelineZoom: 1.5

[Metadata]
Title:MONSTER
TitleUnicode:MONSTER
Artist:Reol
ArtistUnicode:れをる
Creator:Sotarks
Version:INSANE
Source:
Tags:極彩色 梅とら umetora reworu gokusaishoku haruto haruto_aizawa akitoshi corinn kin irohas mugiwarasekai pkhg davided linada sharu sharuresu chromoxx
BeatmapID:1400686
BeatmapSetID:661483

[Difficulty]
HPDrainRate:5.5
CircleSize:3.8
OverallDifficulty:8.2
ApproachRate:9
SliderMultiplier:1.62
SliderTickRate:1

[Events]
//Background and Video events
0,0,"BG.jpg",0,0
//Break Periods
//Storyboard Layer 0 (Background)
//Storyboard Layer 1 (Fail)
//Storyboard Layer 2 (Pass)
//Storyboard Layer 3 (Foreground)
//Storyboard Sound Samples

[TimingPoints]
735,365.853658536585,4,2,22,42,1,0
735,-161.290322580645,4,2,22,42,0,0
11344,-161.290322580645,4,2,22,52,0,0
12350,-161.290322580645,4,2,22,5,0,0
12442,-81.9672131147541,4,2,22,72,0,0
24149,-98.0392156862745,4,2,22,62,0,0
49027,-65.7894736842105,4,2,22,82,0,1
66588,-75.7575757575758,4,2,22,82,0,0
69515,-75.7575757575758,4,2,22,92,0,1
72442,-75.7575757575758,4,2,22,82,0,0

[Colours]
Combo1 : 119,129,176
Combo2 : 255,234,159
Combo3 : 32,104,191
Combo4 : 215,92,2
SliderBorder : 255,255,255
SliderTrackOverride : 0,0,0

[HitObjects]
96,183,735,6,0,L|212:182,1,100.439996015259,2|0,1:0|1:0,0:0:0:0:
341,104,1283,2,0,L|276:104,1,50.2199980076295,2|0,0:0|1:0,0:0:0:0:
169,105,1649,1,0,0:0:0:0:
291,183,1832,1,2,1:0:0:0:
342,183,2015,2,0,L|275:183,1,50.2199980076295,2|0,0:0|1:0,0:0:0:0:
182,265,2381,2,0,L|248:265,1,50.2199980076295,2|0,0:0|1:0,0:0:0:0:
191,351,2747,1,0,0:0:0:0:
91,353,2930,2,0,L|205:351,1,100.439996015259,2|2,1:0|1:0,0:0:0:0:
231,265,3478,1,0,0:0:0:0:
131,267,3661,6,0,L|245:265,1,100.439996015259,2|0,1:0|1:0,0:0:0:0:
146,186,4210,2,0,L|212:184,1,50.2199980076295,2|0,0:0|1:0,0:0:0:0:
282,182,4576,1,0,0:0:0:0:
226,105,4759,1,0,1:0:0:0:
361,19,4942,2,0,L|309:19,1,50.2199980076295,2|0,0:0|1:0,0:0:0:0:
227,22,5308,1,0,0:0:0:0:
316,105,5491,1,0,1:0:0:0:
175,106,5674,2,0,L|225:104,1,50.2199980076295,0|0,0:0|1:0,0:0:0:0:
316,105,6039,1,0,0:0:0:0:
229,188,6222,1,0,1:0:0:0:
318,191,6405,1,0,0:0:0:0:
128,186,6588,6,0,L|251:187,1,100.439996015259,2|0,1:0|1:0,0:0:0:0:
343,274,7137,2,0,L|292:272,1,50.2199980076295,2|0,0:0|1:0,0:0:0:0:
166,274,7503,1,0,0:0:0:0:
294,360,7686,1,2,1:0:0:0:
345,362,7869,2,0,L|294:360,1,50.2199980076295,2|0,0:0|1:0,0:0:0:0:
157,358,8234,2,0,L|206:358,1,50.2199980076295,2|0,0:0|1:0,0:0:0:0:
294,360,8600,1,0,0:0:0:0:
106,271,8783,2,0,L|229:272,1,100.439996015259,2|2,1:0|1:0,0:0:0:0:
293,273,9332,1,0,0:0:0:0:
394,274,9515,6,0,L|292:272,1,100.439996015259,2|0,1:0|1:0,0:0:0:0:
158,188,10064,2,0,L|207:188,1,50.2199980076295,2|0,0:0|1:0,0:0:0:0:
369,189,10430,2,0,L|318:187,1,50.2199980076295,0|0,0:0|1:0,0:0:0:0:
183,105,10795,1,2,0:0:0:0:
380,106,10978,2,0,L|278:104,1,100.439996015259,0|8,1:0|0:0,0:0:0:0:
137,188,11619,1,8,0:0:0:0:
137,188,11710,2,2,B|200:189|200:189|243:213|243:213|320:213,1,175.769993026703,2|2,0:0|0:0,0:0:0:0:
354,214,12442,5,0,1:0:0:0:
261,339,12625,1,0,3:0:0:0:
430,259,12808,2,0,P|440:195|416:156,1,98.8199959287416,8|0,0:0|0:0,0:0:0:0:
278,165,13174,2,0,P|261:210|273:257,1,98.8199959287416,0|0,1:0|0:0,0:0:0:0:
354,85,13539,1,8,0:0:0:0:
354,214,13722,1,0,0:0:0:0:
265,79,13905,2,0,L|160:66,1,98.8199959287416,0|0,1:0|0:0,0:0:0:0:
71,182,14271,1,8,0:0:0:0:
180,155,14454,1,0,0:0:0:0:
7,134,14637,2,0,P|-8:203|18:244,1,98.8199959287416,0|0,1:0|0:0,0:0:0:0:
187,253,15003,2,0,L|178:135,1,98.8199959287416,8|0,0:0|0:0,0:0:0:0:
104,302,15369,5,0,1:0:0:0:
267,318,15552,1,0,0:0:0:0:
179,133,15734,1,8,0:0:0:0:
187,267,15917,1,0,0:0:0:0:
243,83,16100,2,0,P|181:51|137:68,1,98.8199959287416,0|0,1:0|0:0,0:0:0:0:
261,223,16466,2,0,P|309:225|348:196,1,98.8199959287416,8|0,0:0|0:0,0:0:0:0:
466,32,16832,2,0,L|449:146,1,98.8199959287416,0|0,1:0|0:0,0:0:0:0:
362,294,17198,2,0,L|347:196,1,98.8199959287416,8|0,0:0|0:0,0:0:0:0:
285,117,17472,1,8,0:0:0:0:
285,117,17564,2,0,P|214:135|166:103,1,98.8199959287416,0|0,1:0|0:0,0:0:0:0:
232,42,17930,1,0,1:0:0:0:
256,288,18113,1,8,0:0:0:0:
111,132,18295,6,0,P|131:67|167:52,1,98.8199959287416,4|0,1:0|0:0,0:0:0:0:
149,267,18661,1,8,0:0:0:0:
192,126,18844,1,0,0:0:0:0:
256,288,19027,2,0,L|368:272,1,98.8199959287416,0|0,1:0|0:0,0:0:0:0:
294,81,19393,1,8,0:0:0:0:
283,202,19576,1,0,0:0:0:0:
458,132,19759,1,0,1:0:0:0:
276,74,19942,1,0,0:0:0:0:
391,218,20125,2,0,L|381:352,1,98.8199959287416,8|0,0:0|0:0,0:0:0:0:
220,137,20491,2,0,P|189:81|206:36,1,98.8199959287416,0|0,1:0|0:0,0:0:0:0:
299,206,20856,2,0,P|304:254|275:292,1,98.8199959287416,8|0,0:0|0:0,0:0:0:0:
97,187,21222,5,0,1:0:0:0:
222,232,21405,1,0,0:0:0:0:
37,314,21588,2,0,L|6:207,1,98.8199959287416,8|0,0:0|0:0,0:0:0:0:
114,96,21954,1,0,1:0:0:0:
117,269,22137,1,0,0:0:0:0:
213,97,22320,2,0,L|324:83,1,98.8199959287416,8|0,0:0|0:0,0:0:0:0:
314,298,22686,2,0,P|276:240|273:192,1,98.8199959287416,0|0,1:0|0:0,0:0:0:0:
398,33,23052,2,0,L|386:154,1,98.8199959287416,8|0,0:0|0:0,0:0:0:0:
457,211,23326,1,8,0:0:0:0:
457,211,23417,2,0,L|466:309,1,98.8199959287416,0|8,1:0|0:0,0:0:0:0:
388,363,23692,1,8,0:0:0:0:
388,363,23783,2,0,L|322:357,1,49.4099979643708,0|8,1:0|0:0,0:0:0:0:
260,305,23966,2,0,L|210:309,1,49.4099979643708,8|8,0:0|0:0,0:0:0:0:
119,342,24149,6,0,B|94:268|156:278|125:166,1,165.240001008545,0|2,1:0|1:0,0:0:0:0:
47,53,24698,1,2,0:0:0:0:
173,106,24881,2,0,L|279:91,1,82.6200005042725,2|2,1:0|0:0,0:0:0:0:
339,249,25247,2,0,L|233:234,1,82.6200005042725,2|0,1:0|0:0,0:0:0:0:
440,136,25613,2,0,B|423:198|423:198|445:235|445:235|427:290,1,165.240001008545,2|2,1:0|1:0,0:0:0:0:
342,140,26161,1,2,0:0:0:0:
257,237,26344,2,0,P|195:248|142:226,1,82.6200005042725,2|2,1:0|0:0,0:0:0:0:
85,104,26710,2,0,P|147:93|200:115,1,82.6200005042725,2|2,1:0|0:0,0:0:0:0:
134,315,27076,6,0,P|94:245|152:168,1,165.240001008545,0|2,1:0|1:0,0:0:0:0:
229,312,27625,1,2,0:0:0:0:
279,199,27808,2,0,L|372:178,1,82.6200005042725,2|2,1:0|0:0,0:0:0:0:
414,324,28174,2,0,L|321:303,1,82.6200005042725,2|2,1:0|0:0,0:0:0:0:
431,84,28539,2,0,L|441:286,1,165.240001008545,2|2,1:0|1:0,0:0:0:0:
342,97,29088,1,2,0:0:0:0:
303,226,29271,1,2,1:0:0:0:
244,143,29454,2,0,L|143:126,1,82.6200005042725,2|0,0:0|1:0,0:0:0:0:
84,200,29820,1,2,0:0:0:0:
158,42,30003,6,0,L|169:241,1,165.240001008545,0|2,1:0|1:0,0:0:0:0:
243,324,30552,1,2,0:0:0:0:
260,161,30734,1,2,1:0:0:0:
260,161,30917,1,2,0:0:0:0:
338,298,31100,1,2,1:0:0:0:
338,298,31283,1,2,0:0:0:0:
167,206,31466,2,0,L|58:226,1,82.6200005042725,2|0,1:0|0:0,0:0:0:0:
188,114,31832,1,2,1:0:0:0:
255,247,32015,2,0,L|364:267,1,82.6200005042725,2|0,0:0|1:0,0:0:0:0:
260,164,32381,1,2,0:0:0:0:
165,289,32564,1,2,1:0:0:0:
255,247,32747,1,2,0:0:0:0:
108,139,32930,6,0,P|114:71|219:44,2,165.240001008545,2|2|0,1:0|1:0|1:0,0:0:0:0:
174,265,33844,1,0,0:0:0:0:
309,138,34027,1,2,1:0:0:0:
181,111,34210,1,2,0:0:0:0:
281,216,34393,2,0,P|350:210|371:182,1,82.6200005042725,6|0,1:0|0:0,0:0:0:0:
305,55,34667,1,0,1:0:0:0:
305,55,34759,2,0,L|309:147,1,82.6200005042725,10|2,0:0|0:0,0:0:0:0:
371,223,35033,5,0,1:0:0:0:
371,223,35125,2,0,L|434:223,1,41.3100002521362,0|0,1:0|1:0,0:0:0:0:
323,297,35308,2,0,L|260:297,1,41.3100002521362,10|8,0:0|3:0,0:0:0:0:
239,216,35491,2,0,L|302:216,1,41.3100002521362,8|8,0:0|3:0,0:0:0:0:
182,288,35674,1,8,3:0:0:0:
182,288,35765,1,4,3:0:0:0:
182,288,35856,6,0,P|153:249|193:142,1,165.240001008545,2|8,1:0|0:0,0:0:0:0:
339,62,36405,2,0,L|325:168,2,82.6200005042725,0|2|0,3:0|1:0|1:0,0:0:0:0:
86,103,36954,2,0,B|147:160|147:160|208:137,1,123.930000756409,8|0,0:0|0:0,0:0:0:0:
218,136,37320,1,2,1:0:0:0:
345,226,37503,2,0,P|293:223|260:178,2,82.6200005042725,0|8|0,3:0|0:0|3:0,0:0:0:0:
440,116,38052,1,2,1:0:0:0:
440,116,38234,1,0,1:0:0:0:
407,291,38417,1,10,0:0:0:0:
328,143,38600,1,10,0:0:0:0:
264,319,38783,6,0,L|75:301,1,165.240001008545,2|8,1:0|0:0,0:0:0:0:
201,125,39332,2,0,L|210:241,2,82.6200005042725,0|0|2,3:0|1:0|1:0,0:0:0:0:
80,217,39881,1,10,0:0:0:0:
287,203,40064,1,0,1:0:0:0:
176,52,40247,2,0,P|130:87|121:121,1,82.6200005042725,2|2,1:0|0:0,0:0:0:0:
207,207,40613,1,10,0:0:0:0:
282,112,40795,2,0,L|182:127,2,82.6200005042725,2|0|2,0:0|1:0|1:0,0:0:0:0:
122,108,41344,1,8,0:0:0:0:
340,39,41527,1,8,0:0:0:0:
352,73,41619,1,8,0:0:0:0:
363,105,41710,6,0,L|350:290,1,165.240001008545,6|8,1:0|0:0,0:0:0:0:
440,174,42259,1,0,3:0:0:0:
392,343,42442,1,2,1:0:0:0:
392,343,42625,1,0,1:0:0:0:
277,200,42808,2,0,L|157:187,1,82.6200005042725,8|0,0:0|0:0,0:0:0:0:
72,315,43174,1,2,1:0:0:0:
220,275,43356,1,0,3:0:0:0:
124,143,43539,2,0,P|109:200|123:243,1,82.6200005042725,8|0,0:0|3:0,0:0:0:0:
304,306,43905,2,0,P|307:265|293:226,1,82.6200005042725,2|0,1:0|1:0,0:0:0:0:
180,75,44271,1,10,0:0:0:0:
220,275,44454,1,2,3:0:0:0:
292,91,44637,5,0,1:0:0:0:
370,249,44820,2,0,P|308:237|278:210,1,82.6200005042725,10|10,0:0|0:0,0:0:0:0:
437,180,45094,2,0,P|463:229|462:273,1,82.6200005042725,8|0,0:0|1:0,0:0:0:0:
342,324,45369,2,0,P|347:283|369:248,1,82.6200005042725,8|10,0:0|0:0,0:0:0:0:
369,248,45643,1,8,0:0:0:0:
369,248,45734,1,0,1:0:0:0:
309,109,45917,1,10,0:0:0:0:
309,109,46009,1,8,0:0:0:0:
309,109,46100,6,0,P|248:145|148:99,1,165.240001008545,6|0,1:0|1:0,0:0:0:0:
230,43,46649,1,2,1:0:0:0:
282,219,46832,2,0,L|265:314,1,82.6200005042725,8|0,0:0|1:0,0:0:0:0:
152,103,47198,1,2,1:0:0:0:
361,175,47381,1,4,1:0:0:0:
139,260,49027,5,2,1:0:0:0:
180,177,49210,1,2,3:0:0:0:
249,240,49393,1,10,0:0:0:0:
285,156,49576,1,2,3:0:0:0:
328,312,49759,5,2,1:0:0:0:
424,218,49942,1,2,3:0:0:0:
354,95,50125,1,10,0:0:0:0:
338,229,50308,1,2,3:0:0:0:
465,96,50491,5,2,1:0:0:0:
266,85,50674,1,2,3:0:0:0:
424,218,50856,1,10,0:0:0:0:
405,27,51039,1,2,3:0:0:0:
246,180,51222,6,0,P|161:172|123:152,1,123.11999849707,2|0,1:0|0:0,0:0:0:0:
392,311,51588,2,0,P|477:303|515:283,1,123.11999849707,10|0,0:0|0:0,0:0:0:0:
216,272,51954,5,2,1:0:0:0:
312,243,52137,1,2,3:0:0:0:
246,180,52320,1,10,0:0:0:0:
342,151,52503,1,2,3:0:0:0:
203,103,52686,5,2,1:0:0:0:
128,218,52869,1,2,3:0:0:0:
246,180,53052,1,10,0:0:0:0:
119,131,53234,1,2,3:0:0:0:
210,284,53417,5,2,1:0:0:0:
203,103,53600,1,2,3:0:0:0:
309,264,53783,1,10,0:0:0:0:
286,75,53966,1,2,3:0:0:0:
387,278,54149,6,0,P|349:341|291:342,1,123.11999849707,2|0,1:0|0:0,0:0:0:0:
358,135,54515,2,0,P|396:72|454:71,1,123.11999849707,10|0,0:0|0:0,0:0:0:0:
238,215,54881,6,0,B|122:257|121:159|-8:205,1,246.239996994141,4|10,1:0|0:0,0:0:0:0:
180,141,55430,1,2,3:0:0:0:
226,312,55613,2,0,L|358:288,1,123.11999849707,2|0,1:0|3:0,0:0:0:0:
264,134,55978,1,10,0:0:0:0:
120,224,56161,2,0,L|-12:200,1,123.11999849707,2|0,3:0|1:0,0:0:0:0:
186,65,56527,2,0,L|318:41,1,123.11999849707,2|8,3:0|0:0,0:0:0:0:
438,227,56893,2,0,L|306:203,1,123.11999849707,2|0,3:0|1:0,0:0:0:0:
439,118,57259,1,2,3:0:0:0:
442,313,57442,1,10,0:0:0:0:
336,123,57625,6,0,P|260:138|232:192,1,123.11999849707,2|0,3:0|1:0,0:0:0:0:
273,336,57991,1,2,3:0:0:0:
188,97,58174,2,0,P|142:159|158:218,1,123.11999849707,10|0,0:0|0:0,0:0:0:0:
345,266,58539,2,0,L|217:246,1,123.11999849707,2|0,1:0|3:0,0:0:0:0:
27,220,58905,2,0,L|155:200,1,123.11999849707,10|0,0:0|0:0,0:0:0:0:
285,46,59271,2,0,P|297:135|301:212,1,123.11999849707,2|0,1:0|3:0,0:0:0:0:
146,286,59637,1,10,0:0:0:0:
157,121,59820,1,0,1:0:0:0:
232,304,60003,1,2,1:0:0:0:
46,266,60186,1,8,0:0:0:0:
213,215,60369,2,0,L|283:200,1,61.5599992485352,10|8,0:0|0:0,0:0:0:0:
92,180,60552,2,0,L|22:165,1,61.5599992485352,8|8,0:0|0:0,0:0:0:0:
167,101,60734,5,4,1:0:0:0:
206,196,60917,1,0,3:0:0:0:
272,118,61100,1,8,0:0:0:0:
311,213,61283,1,0,3:0:0:0:
331,42,61466,6,0,P|247:24|202:53,1,123.11999849707,0|0,1:0|3:0,0:0:0:0:
91,192,61832,2,0,P|175:210|220:181,1,123.11999849707,8|0,0:0|3:0,0:0:0:0:
380,106,62198,5,0,1:0:0:0:
149,129,62381,1,0,3:0:0:0:
266,279,62564,1,8,0:0:0:0:
272,118,62747,1,0,3:0:0:0:
343,317,62930,6,0,P|286:367|217:352,1,123.11999849707,0|0,1:0|0:0,0:0:0:0:
67,260,63295,2,0,P|124:210|193:225,1,123.11999849707,8|0,0:0|0:0,0:0:0:0:
343,317,63661,5,0,1:0:0:0:
144,288,63844,1,0,3:0:0:0:
262,129,64027,1,8,0:0:0:0:
287,254,64210,5,0,3:0:0:0:
111,171,64393,1,0,1:0:0:0:
239,37,64576,1,0,3:0:0:0:
222,159,64759,1,8,0:0:0:0:
49,80,64942,5,0,3:0:0:0:
71,288,65125,2,0,L|199:266,1,123.11999849707,0|0,1:0|3:0,0:0:0:0:
150,74,65491,1,8,0:0:0:0:
109,195,65674,1,0,3:0:0:0:
247,62,65856,6,0,L|337:52,1,61.5599992485352,8|8,0:0|0:0,0:0:0:0:
268,185,66039,2,0,L|178:175,1,61.5599992485352,8|8,0:0|0:0,0:0:0:0:
150,74,66222,1,8,0:0:0:0:
342,131,66405,1,8,0:0:0:0:
349,171,66497,1,8,0:0:0:0:
358,208,66588,6,0,L|342:335,1,106.919999673706,8|0,0:0|0:0,0:0:0:0:
474,193,66954,2,0,L|452:86,1,106.919999673706,10|2,0:0|0:0,0:0:0:0:
428,270,67320,1,10,0:0:0:0:
342,131,67503,1,2,0:0:0:0:
250,267,67686,1,10,0:0:0:0:
348,218,67869,1,2,0:0:0:0:
171,165,68052,2,0,L|52:186,1,106.919999673706,0|2,1:0|0:0,0:0:0:0:
47,208,68326,1,0,3:0:0:0:
47,208,68417,1,8,0:0:0:0:
176,76,68600,1,0,0:0:0:0:
176,76,68692,1,0,3:0:0:0:
176,76,68783,2,0,P|248:123|249:173,1,106.919999673706,0|0,1:0|0:0,0:0:0:0:
225,231,69058,1,8,3:0:0:0:
225,231,69149,2,0,P|219:295|224:311,3,53.459999836853,4|8|4|0,3:0|3:0|3:0|1:0,0:0:0:0:
308,200,69515,5,12,0:0:0:0:
288,105,69698,1,0,0:0:0:0:
225,231,69881,5,14,0:0:0:0:
222,60,70064,1,2,0:0:0:0:
294,281,70247,5,14,0:0:0:0:
341,46,70430,1,2,0:0:0:0:
372,255,70613,5,12,0:0:0:0:
162,184,70795,1,2,0:0:0:0:
444,222,70978,5,12,0:0:0:0:
218,310,71160,1,2,0:0:0:0:
512,297,71344,5,14,0:0:0:0:
106,253,71526,1,2,0:0:0:0:
348,86,71710,5,14,0:0:0:0:
349,118,71801,1,8,0:0:0:0:
351,150,71892,1,10,0:0:0:0:
353,182,71984,1,8,0:0:0:0:
355,214,72075,1,10,0:0:0:0:
357,246,72167,1,8,0:0:0:0:
359,278,72258,1,10,0:0:0:0:
361,310,72350,1,8,0:0:0:0:
363,342,72442,6,0,P|296:325|246:327,1,106.919999673706,2|0,1:0|0:0,0:0:0:0:
394,247,72808,2,0,P|461:230|511:232,1,106.919999673706,14|0,0:0|0:0,0:0:0:0:
326,147,73174,2,0,P|274:131|221:130,1,106.919999673706,6|0,1:0|0:0,0:0:0:0:
384,50,73539,2,0,P|435:34|488:33,1,106.919999673706,14|2,0:0|0:0,0:0:0:0:
162,72,73905,2,0,P|142:138|263:204,2,213.839999347412,6|14|6,1:0|0:0|1:0,0:0:0:0:
99,239,74820,1,0,0:0:0:0:
221,130,75003,1,14,0:2:0:0:
59,161,75186,1,0,0:2:0:0:
202,300,75369,6,0,L|343:281,1,106.919999673706,6|0,1:0|3:0,0:0:0:0:
326,144,75734,2,0,L|185:125,1,106.919999673706,14|0,0:0|3:0,0:0:0:0:
372,223,76100,2,0,L|513:204,1,106.919999673706,6|0,1:0|3:0,0:0:0:0:
496,67,76465,2,0,L|355:48,1,106.919999673706,14|0,0:0|3:0,0:0:0:0:
266,216,76832,2,0,P|285:137|274:74,1,106.919999673706,6|0,1:0|0:0,0:0:0:0:
96,239,77198,2,0,P|96:292|113:342,1,106.919999673706,12|0,0:0|0:0,0:0:0:0:
221,354,77472,1,8,0:0:0:0:
221,354,77564,2,0,L|352:336,1,106.919999673706,4|0,1:0|0:0,0:0:0:0:
176,279,77930,1,0,1:0:0:0:
402,240,78113,1,8,0:0:0:0:
226,96,78295,6,0,B|211:161|211:161|240:226,1,106.919999673706,6|0,1:0|0:0,0:0:0:0:
400,341,78661,2,0,B|416:304|416:304|401:239,1,106.919999673706,14|0,0:0|0:0,0:0:0:0:
351,50,79027,2,0,B|336:115|336:115|365:180,1,106.919999673706,6|0,1:0|0:0,0:0:0:0:
496,233,79393,1,14,0:0:0:0:
432,102,79576,1,2,0:0:0:0:
324,273,79759,2,0,L|171:254,1,106.919999673706,6|0,1:0|0:0,0:0:0:0:
149,88,80125,2,0,L|42:101,1,106.919999673706,12|0,0:0|0:0,0:0:0:0:
127,329,80491,2,0,L|139:186,1,106.919999673706,6|0,1:0|0:0,0:0:0:0:
237,64,80856,1,14,0:0:0:0:
275,184,81039,1,0,0:0:0:0:
450,38,81222,6,0,B|395:151|513:140|439:285,2,213.839999347412,2|14|6,1:0|0:0|1:0,0:0:0:0:
378,196,82137,1,0,3:0:0:0:
261,54,82320,2,0,L|152:40,1,106.919999673706,14|0,0:0|3:0,0:0:0:0:
214,280,82686,1,6,1:0:0:0:
314,126,82869,1,8,0:0:0:0:
265,346,83052,2,0,P|196:361|150:324,1,106.919999673706,10|0,0:0|0:0,0:0:0:0:
131,267,83326,1,8,0:0:0:0:
131,267,83417,2,0,L|124:148,1,106.919999673706,2|8,1:0|0:0,0:0:0:0:
157,79,83692,1,8,0:0:0:0:
157,79,83783,2,0,P|212:94|238:93,1,53.459999836853,8|8,0:0|0:0,0:0:0:0:
281,45,83966,2,0,P|307:49|332:59,1,53.459999836853,8|8,0:0|0:0,0:0:0:0:
397,130,84149,6,0,P|383:181|385:234,1,106.919999673706,14|0,0:0|0:0,0:0:0:0:
208,93,84515,2,0,P|222:144|220:197,1,106.919999673706,14|0,0:0|0:0,0:0:0:0:
280,357,84881,2,0,P|277:303|292:252,1,106.919999673706,14|0,0:0|0:0,0:0:0:0:
292,32,85247,2,0,P|306:83|304:136,1,106.919999673706,14|0,0:0|0:0,0:0:0:0:
131,241,85613,2,0,P|215:196|249:209,1,106.919999673706,14|0,0:0|0:0,0:0:0:0:
474,278,85978,2,0,P|390:233|356:246,1,106.919999673706,14|0,0:0|0:0,0:0:0:0:
157,351,86344,2,0,B|208:318|208:318|204:255,1,106.919999673706,14|0,0:0|0:0,0:0:0:0:
402,315,86710,1,14,0:0:0:0:
302,216,86893,1,2,0:0:0:0:
74,277,87076,6,0,B|59:192|59:192|81:159|81:159|66:60,2,213.839999347412,14|14|14,0:0|0:0|0:0,0:0:0:0:
159,149,87991,1,0,0:0:0:0:
253,244,88174,2,0,L|103:224,1,106.919999673706,14|0,0:0|0:0,0:0:0:0:
295,169,88539,2,0,P|335:231|238:329,1,213.839999347412,14|14,0:0|0:0,0:0:0:0:
416,287,89088,1,0,0:0:0:0:
416,287,89180,1,8,0:0:0:0:
416,287,89271,2,0,L|425:171,1,106.919999673706,2|0,1:0|0:0,0:0:0:0:
273,92,89637,2,0,P|346:85|356:80,1,53.459999836853,0|8,1:0|0:0,0:0:0:0:
445,37,89820,2,0,P|372:30|362:25,1,53.459999836853,8|8,0:0|0:0,0:0:0:0:
190,31,90003,6,0,P|248:94|249:216,2,213.839999347412,14|14|14,0:0|0:0|0:0,0:0:0:0:
87,98,90917,1,0,0:0:0:0:
148,266,91100,1,14,0:0:0:0:
174,142,91283,1,0,0:0:0:0:
76,323,91466,2,0,L|194:306,1,106.919999673706,14|0,0:0|0:0,0:0:0:0:
273,141,91832,2,0,L|378:156,1,106.919999673706,14|0,0:0|0:0,0:0:0:0:
481,322,92198,2,0,L|462:215,1,106.919999673706,14|0,0:0|0:0,0:0:0:0:
401,38,92564,2,0,L|382:143,1,106.919999673706,14|0,0:0|0:0,0:0:0:0:
348,338,92930,6,0,P|316:280|254:252,1,106.919999673706,14|0,0:0|0:0,0:0:0:0:
286,39,93295,2,0,P|263:86|220:118,1,106.919999673706,14|0,0:0|0:0,0:0:0:0:
186,312,93661,2,0,P|143:280|120:232,1,106.919999673706,14|0,0:0|0:0,0:0:0:0:
88,46,94027,1,14,0:0:0:0:
28,210,94210,1,2,0:0:0:0:
220,118,94393,2,0,L|397:139,1,160.379999510559,14|0,0:0|0:0,0:0:0:0:
420,169,94759,2,0,P|431:232|429:296,1,106.919999673706,14|0,0:0|0:0,0:0:0:0:
377,345,95033,1,8,0:0:0:0:
377,345,95125,2,0,L|251:328,1,106.919999673706,2|0,1:0|1:0,0:0:0:0:
186,283,95399,1,8,0:0:0:0:
186,283,95491,2,0,L|189:352,1,53.459999836853,8|8,0:0|0:0,0:0:0:0:
102,247,95674,2,0,L|99:316,1,53.459999836853,8|8,0:0|0:0,0:0:0:0:
30,348,95856,6,0,L|-10:355,2,26.7299999184265,2|2|2,0:0|0:0|0:0,0:0:0:0:
