osu file format v14

[General]
AudioFilename: audio.mp3
AudioLeadIn: 0
PreviewTime: 48204
Countdown: 0
SampleSet: Soft
StackLeniency: 0.7
Mode: 0
LetterboxInBreaks: 0
WidescreenStoryboard: 1

[Editor]
Bookmarks: 735,12442,24149,35856,49027,72442,84149,95856
DistanceSpacing: 0.8
BeatDivisor: 4
GridSize: 4
TimelineZoom: 1.5

[Metadata]
Title:MONSTER
TitleUnicode:MONSTER
Artist:Reol
ArtistUnicode:れをる
Creator:Sotarks
Version:EXPERT
Source:
Tags:極彩色 梅とら umetora reworu gokusaishoku haruto haruto_aizawa akitoshi corinn kin irohas mugiwarasekai pkhg davided linada sharu sharuresu chromoxx
BeatmapID:1400686
BeatmapSetID:661483

[Difficulty]
HPDrainRate:6
CircleSize:3
OverallDifficulty:8.7
ApproachRate:9
SliderMultiplier:1.62
SliderTickRate:1

[Events]
//Background and Video events
0,0,"BG.jpg",0,0
//Break Periods
//Storyboard Layer 0 (Background)
//Storyboard Layer 1 (Fail)
//Storyboard Layer 2 (Pass)
//Storyboard Layer 3 (Foreground)
//Storyboard Sound Samples

[TimingPoints]
735,365.853658536585,4,2,22,42,1,0
735,-161.290322580645,4,2,22,42,0,0
11344,-161.290322580645,4,2,22,52,0,0
12350,-161.290322580645,4,2,22,5,0,0
12442,-81.9672131147541,4,2,22,72,0,0
24149,-98.0392156862745,4,2,22,62,0,0
49027,-65.7894736842105,4,2,22,82,0,1
66588,-75.7575757575758,4,2,22,82,0,0
69515,-75.7575757575758,4,2,22,92,0,1
72442,-75.7575757575758,4,2,22,82,0,0

[Colours]
Combo1 : 250,114,48
Combo2 : 202,193,166
Combo3 : 145,155,193
Combo4 : 216,208,122
Combo5 : 189,123,83
Combo6 : 255,242,91
SliderBorder : 255,255,255
SliderTrackOverride : 0,0,0

[HitObjects]
140,116,735,6,0,L|256:104,1,100.439996015259,2|0,1:0|1:0,0:0:0:0:
264,208,1283,2,0,L|192:192,2,50.2199980076295,2|0|0,0:0|1:0|0:0,0:0:0:0:
336,132,1832,1,2,1:0:0:0:
372,220,2015,2,0,L|364:280,1,50.2199980076295,2|0,0:0|1:0,0:0:0:0:
464,316,2381,2,0,L|457:266,2,50.2199980076295,2|0|0,0:0|1:0|0:0,0:0:0:0:
365,269,2930,2,0,L|253:285,1,100.439996015259,2|2,1:0|1:0,0:0:0:0:
120,80,3661,6,0,L|132:196,1,100.439996015259,2|0,1:0|1:0,0:0:0:0:
256,112,4210,2,0,L|196:100,2,50.2199980076295,2|0|0,0:0|1:0|0:0,0:0:0:0:
352,136,4759,1,0,1:0:0:0:
280,203,4942,2,0,P|328:231|328:39,1,401.759984061036,2|0,0:0|0:0,0:0:0:0:
252,84,6588,6,0,L|133:71,1,100.439996015259,2|0,1:0|1:0,0:0:0:0:
55,149,7137,2,0,L|118:140,2,50.2199980076295,2|0|0,0:0|1:0|0:0,0:0:0:0:
192,176,7686,1,2,1:0:0:0:
96,227,7869,2,0,L|86:291,1,50.2199980076295,2|0,0:0|1:0,0:0:0:0:
231,237,8234,2,0,L|223:187,2,50.2199980076295,2|0|0,0:0|1:0|0:0,0:0:0:0:
339,340,8783,2,0,L|326:218,1,100.439996015259,2|2,1:0|1:0,0:0:0:0:
472,50,9515,6,0,L|354:38,1,100.439996015259,2|0,1:0|1:0,0:0:0:0:
282,85,10064,2,0,L|223:79,2,50.2199980076295,2|0|0,0:0|1:0|0:0,0:0:0:0:
370,134,10613,1,0,1:0:0:0:
200,276,10795,1,2,0:0:0:0:
366,333,10978,5,0,1:0:0:0:
232,79,11344,2,0,P|184:71|144:89,1,75.3299970114442,8|8,0:0|0:0,0:0:0:0:
108,149,11710,2,0,B|138:239|79:235|110:331,1,175.769993026703,2|2,0:0|0:0,0:0:0:0:
107,321,12442,5,0,1:0:0:0:
192,267,12625,1,0,3:0:0:0:
31,197,12808,1,8,0:0:0:0:
119,50,12991,2,0,L|106:165,1,98.8199959287416,0|0,0:0|1:0,0:0:0:0:
112,229,13356,1,0,3:3:0:0:
226,101,13539,2,0,L|335:91,1,98.8199959287416,8|0,0:0|0:0,0:0:0:0:
440,201,13905,5,0,1:0:0:0:
337,177,14088,1,0,3:0:0:0:
415,14,14271,2,0,L|428:128,1,98.8199959287416,8|0,0:0|3:0,0:0:0:0:
317,268,14637,2,0,P|266:242|245:188,1,98.8199959287416,0|0,1:0|0:0,0:0:0:0:
156,39,15003,2,0,P|207:65|228:119,1,98.8199959287416,8|0,0:0|0:0,0:0:0:0:
160,230,15369,5,0,1:0:0:0:
140,125,15552,1,0,3:0:0:0:
337,177,15734,1,8,0:0:0:0:
247,206,15917,1,0,3:0:0:0:
327,80,16100,1,0,1:0:0:0:
423,150,16283,1,0,3:0:0:0:
317,278,16466,1,8,0:0:0:0:
337,177,16649,1,0,3:0:0:0:
395,323,16832,6,0,P|350:368|295:367,1,98.8199959287416,0|0,1:0|3:0,0:0:0:0:
235,234,17198,2,0,P|280:189|335:190,1,98.8199959287416,8|0,0:0|0:0,0:0:0:0:
397,223,17472,1,8,0:0:0:0:
397,223,17564,2,0,B|443:195|443:195|466:146,1,98.8199959287416,0|0,1:0|0:0,0:0:0:0:
372,104,17930,1,0,1:0:0:0:
416,320,18113,1,8,0:0:0:0:
313,185,18295,5,4,1:0:0:0:
397,223,18478,1,0,3:0:0:0:
227,259,18661,1,8,0:0:0:0:
291,88,18844,2,0,L|316:200,1,98.8199959287416,0|0,3:0|1:0,0:0:0:0:
205,154,19210,1,0,3:0:0:0:
383,111,19393,2,0,L|488:112,1,98.8199959287416,8|0,0:0|0:0,0:0:0:0:
291,88,19759,5,0,1:0:0:0:
333,268,19942,1,0,3:0:0:0:
205,154,20125,2,0,L|100:155,1,98.8199959287416,8|0,0:0|3:0,0:0:0:0:
272,329,20491,2,0,P|310:360|359:357,1,98.8199959287416,0|0,1:0|0:0,0:0:0:0:
400,209,20856,2,0,P|362:178|313:181,1,98.8199959287416,8|0,0:0|0:0,0:0:0:0:
186,310,21222,5,0,1:0:0:0:
333,268,21405,1,0,3:0:0:0:
166,221,21588,1,8,0:0:0:0:
314,180,21771,1,0,3:0:0:0:
142,136,21954,1,0,1:0:0:0:
292,91,22137,1,0,3:0:0:0:
115,48,22320,1,8,0:0:0:0:
53,166,22503,1,0,3:0:0:0:
166,221,22686,6,0,L|193:327,1,98.8199959287416,0|0,1:0|3:0,0:0:0:0:
28,261,23052,2,0,L|52:165,1,98.8199959287416,8|0,0:0|0:0,0:0:0:0:
142,136,23326,1,8,0:0:0:0:
142,136,23417,2,0,B|197:134|197:134|250:178,1,98.8199959287416,0|8,1:0|0:0,0:0:0:0:
299,233,23692,1,8,0:0:0:0:
299,233,23783,2,0,L|296:311,3,49.4099979643708,0|8|8|8,1:0|0:0|0:0|0:0,0:0:0:0:
331,143,24149,6,0,P|373:127|481:206,1,165.240001008545,0|2,1:0|1:0,0:0:0:0:
472,279,24698,1,2,0:0:0:0:
333,361,24881,2,0,P|280:367|235:330,1,82.6200005042725,2|2,1:0|0:0,0:0:0:0:
221,226,25247,2,0,P|274:220|319:257,1,82.6200005042725,2|0,1:0|0:0,0:0:0:0:
133,303,25613,2,0,P|105:244|143:149,1,165.240001008545,2|2,1:0|1:0,0:0:0:0:
209,77,26161,1,2,0:0:0:0:
66,26,26344,2,0,P|50:91|63:128,1,82.6200005042725,2|2,1:0|0:0,0:0:0:0:
137,154,26710,1,2,1:0:0:0:
209,77,26893,1,2,0:0:0:0:
254,234,27076,6,0,P|314:250|402:181,1,165.240001008545,0|2,1:0|1:0,0:0:0:0:
412,106,27625,1,2,0:0:0:0:
474,239,27808,2,0,P|485:300|460:344,1,82.6200005042725,2|2,1:0|0:0,0:0:0:0:
311,164,28174,2,0,P|300:103|325:59,1,82.6200005042725,2|2,1:0|0:0,0:0:0:0:
165,179,28539,2,0,P|101:174|64:71,1,165.240001008545,2|2,1:0|1:0,0:0:0:0:
149,89,29088,1,2,0:0:0:0:
244,238,29271,2,0,P|247:292|222:334,1,82.6200005042725,2|2,1:0|0:0,0:0:0:0:
145,355,29637,1,0,1:0:0:0:
157,267,29820,1,2,0:0:0:0:
310,366,30003,6,0,P|376:372|420:281,1,165.240001008545,0|2,1:0|1:0,0:0:0:0:
375,207,30552,1,2,0:0:0:0:
451,65,30734,2,0,P|391:51|355:56,1,82.6200005042725,2|2,1:0|0:0,0:0:0:0:
262,172,31100,1,2,1:0:0:0:
218,81,31283,1,2,0:0:0:0:
178,249,31466,2,0,P|117:253|50:337,1,165.240001008545,2|2,1:0|1:0,0:0:0:0:
97,171,32015,2,0,P|104:113|135:72,1,82.6200005042725,2|0,0:0|1:0,0:0:0:0:
207,46,32381,1,2,0:0:0:0:
266,199,32564,1,2,1:0:0:0:
305,109,32747,1,2,0:0:0:0:
278,290,32930,6,0,P|204:272|180:186,1,165.240001008545,2|2,1:0|1:0,0:0:0:0:
368,265,33478,2,0,P|385:313|378:367,1,82.6200005042725,0|0,0:0|1:0,0:0:0:0:
449,193,33844,2,0,P|449:151|465:113,1,82.6200005042725,0|2,0:0|1:0,0:0:0:0:
506,274,34210,1,2,0:0:0:0:
368,130,34393,6,0,B|283:114|283:114|230:138,1,123.930000756409,6|0,1:0|1:0,0:0:0:0:
174,191,34759,2,0,B|114:193|114:193|77:172,1,82.6200005042725,10|2,0:0|0:0,0:0:0:0:
0,142,35033,1,0,1:0:0:0:
0,142,35125,2,0,L|7:210,1,41.3100002521362,0|0,1:0|1:0,0:0:0:0:
67,266,35308,2,0,L|60:334,1,41.3100002521362,10|8,0:0|3:0,0:0:0:0:
170,347,35491,2,0,L|165:305,1,41.3100002521362,8|8,0:0|3:0,0:0:0:0:
269,264,35674,2,0,L|264:305,1,41.3100002521362,8|4,3:0|3:0,0:0:0:0:
377,338,35856,6,0,B|363:266|363:266|395:173,1,165.240001008545,2|8,1:0|0:0,0:0:0:0:
449,45,36405,1,0,3:0:0:0:
305,164,36588,1,2,1:0:0:0:
477,192,36771,1,0,1:0:0:0:
296,67,36954,2,0,B|240:80|240:80|217:126,1,82.6200005042725,8|0,0:0|0:0,0:0:0:0:
258,267,37320,5,2,1:0:0:0:
162,176,37503,1,0,3:0:0:0:
191,332,37686,2,0,B|231:360|231:360|292:348,1,82.6200005042725,8|0,0:0|3:0,0:0:0:0:
335,204,38052,1,2,1:0:0:0:
406,350,38234,1,0,1:0:0:0:
444,145,38417,1,10,0:0:0:0:
469,250,38600,1,10,0:0:0:0:
469,250,38692,1,8,0:0:0:0:
469,250,38783,6,0,B|353:259|353:259|298:230,1,165.240001008545,2|8,1:0|0:0,0:0:0:0:
234,106,39332,1,0,3:0:0:0:
249,305,39515,1,0,1:0:0:0:
370,171,39698,1,2,1:0:0:0:
176,244,39881,2,0,B|126:234|126:234|94:198,1,82.6200005042725,10|0,0:0|1:0,0:0:0:0:
231,61,40247,5,2,1:0:0:0:
274,209,40430,1,2,0:0:0:0:
376,76,40613,1,10,0:0:0:0:
459,131,40795,1,2,0:0:0:0:
295,123,40978,1,0,1:0:0:0:
382,254,41161,1,2,1:0:0:0:
449,29,41344,1,8,0:0:0:0:
470,218,41527,1,8,0:0:0:0:
470,218,41619,1,8,0:0:0:0:
470,218,41710,6,0,B|458:315|458:315|388:353,1,165.240001008545,6|8,1:0|0:0,0:0:0:0:
237,318,42259,1,0,3:0:0:0:
270,144,42442,1,2,1:0:0:0:
330,262,42625,1,0,1:0:0:0:
135,305,42808,2,0,B|80:296|80:296|42:247,1,82.6200005042725,8|0,0:0|0:0,0:0:0:0:
103,82,43174,5,2,1:0:0:0:
131,214,43356,1,0,3:0:0:0:
193,49,43539,1,8,0:0:0:0:
253,140,43722,1,0,3:0:0:0:
48,170,43905,1,2,1:0:0:0:
215,261,44088,1,0,1:0:0:0:
350,125,44271,1,10,0:0:0:0:
436,260,44454,1,2,3:0:0:0:
501,106,44637,5,0,1:0:0:0:
321,265,44820,2,0,L|206:260,1,82.6200005042725,10|10,0:0|0:0,0:0:0:0:
161,176,45094,2,0,L|276:171,1,82.6200005042725,8|0,0:0|1:0,0:0:0:0:
307,86,45369,2,0,L|224:82,1,82.6200005042725,8|10,0:0|0:0,0:0:0:0:
181,66,45643,1,8,0:0:0:0:
181,66,45734,1,0,1:0:0:0:
69,187,45917,1,10,0:0:0:0:
69,187,46009,1,8,0:0:0:0:
69,187,46100,5,6,1:0:0:0:
105,276,46283,1,0,0:0:0:0:
207,272,46466,1,0,1:0:0:0:
317,140,46649,1,2,1:0:0:0:
394,354,46832,5,8,0:0:0:0:
181,174,47015,1,0,1:0:0:0:
429,26,47198,1,2,1:0:0:0:
366,263,47381,1,4,1:0:0:0:
157,218,49027,5,2,1:0:0:0:
257,86,49210,1,2,3:0:0:0:
291,283,49393,1,10,0:0:0:0:
128,124,49576,1,2,3:0:0:0:
364,57,49759,5,2,1:0:0:0:
281,307,49942,1,2,3:0:0:0:
236,64,50125,1,10,0:0:0:0:
488,201,50308,1,2,3:0:0:0:
189,309,50491,5,2,1:0:0:0:
217,46,50674,1,2,3:0:0:0:
371,309,50856,1,10,0:0:0:0:
66,224,51039,1,2,3:0:0:0:
342,130,51222,6,0,B|477:114|477:114|436:201,1,184.679997745605,2|0,1:0|0:0,0:0:0:0:
381,215,51588,2,0,B|283:245|291:170|168:224,1,184.679997745605,10|0,0:0|0:0,0:0:0:0:
127,270,51954,5,2,1:0:0:0:
296,303,52137,1,2,3:0:0:0:
207,121,52320,1,10,0:0:0:0:
39,243,52503,1,2,3:0:0:0:
230,33,52686,5,2,1:0:0:0:
383,257,52869,1,2,3:0:0:0:
121,179,53052,1,10,0:0:0:0:
331,27,53234,1,2,3:0:0:0:
316,323,53417,5,2,1:0:0:0:
236,49,53600,1,2,3:0:0:0:
226,332,53783,1,10,0:0:0:0:
323,48,53966,1,2,3:0:0:0:
135,310,54149,6,0,P|72:286|139:217,1,184.679997745605,2|0,1:0|0:0,0:0:0:0:
205,245,54515,2,0,L|397:214,1,184.679997745605,10|0,0:0|0:0,0:0:0:0:
473,178,54881,6,0,P|396:191|287:108,1,184.679997745605,4|0,1:0|0:0,0:0:0:0:
256,74,55247,1,10,0:0:0:0:
111,164,55430,1,2,3:0:0:0:
168,42,55613,2,0,L|186:258,1,184.679997745605,2|0,1:0|0:0,0:0:0:0:
171,311,55978,1,10,0:0:0:0:
281,189,56161,6,0,L|409:174,1,123.11999849707,2|0,3:0|1:0,0:0:0:0:
482,307,56527,1,2,3:0:0:0:
447,95,56710,1,8,0:0:0:0:
390,275,56893,1,2,3:0:0:0:
354,89,57076,1,0,1:0:0:0:
493,217,57259,1,2,3:0:0:0:
272,268,57442,1,10,0:0:0:0:
403,174,57625,1,2,3:0:0:0:
168,241,57808,6,0,L|26:214,1,123.11999849707,0|2,1:0|3:0,0:0:0:0:
318,94,58174,2,0,L|438:71,1,123.11999849707,10|0,0:0|0:0,0:0:0:0:
215,25,58539,2,0,L|249:215,1,184.679997745605,2|0,1:0|0:0,0:0:0:0:
270,292,58905,2,0,L|302:110,1,184.679997745605,10|0,0:0|0:0,0:0:0:0:
381,61,59271,6,0,L|147:40,1,184.679997745605,2|0,1:0|0:0,0:0:0:0:
130,96,59637,1,10,0:0:0:0:
171,278,59820,1,0,1:0:0:0:
216,132,60003,1,2,1:0:0:0:
264,317,60186,1,8,0:0:0:0:
139,187,60369,6,0,L|63:181,1,61.5599992485352,10|8,0:0|0:0,0:0:0:0:
297,99,60552,2,0,L|373:93,1,61.5599992485352,8|8,0:0|0:0,0:0:0:0:
438,163,60734,5,4,1:0:0:0:
237,224,60917,1,0,3:0:0:0:
407,335,61100,1,8,0:0:0:0:
336,195,61283,1,0,3:0:0:0:
136,348,61466,6,0,L|8:314,1,123.11999849707,0|0,1:0|3:0,0:0:0:0:
91,84,61832,1,8,0:0:0:0:
112,243,62015,1,0,3:0:0:0:
285,101,62198,5,0,1:0:0:0:
29,168,62381,1,0,3:0:0:0:
343,199,62564,1,8,0:0:0:0:
143,6,62747,1,0,3:0:0:0:
216,316,62930,2,0,B|225:361|225:361|259:195,1,184.679997745605,0|0,1:0|0:0,0:0:0:0:
193,150,63295,2,0,B|184:105|184:105|156:240,1,184.679997745605,8|0,0:0|0:0,0:0:0:0:
131,332,63661,5,0,1:0:0:0:
326,294,63844,1,0,3:0:0:0:
100,174,64027,1,8,0:0:0:0:
315,64,64210,1,0,3:0:0:0:
205,277,64393,5,0,1:0:0:0:
400,239,64576,1,0,3:0:0:0:
174,119,64759,1,8,0:0:0:0:
389,9,64942,1,0,3:0:0:0:
304,255,65125,2,0,L|316:382,1,123.11999849707,0|0,1:0|3:0,0:0:0:0:
266,134,65491,1,8,0:0:0:0:
232,362,65674,1,0,3:0:0:0:
363,164,65856,6,0,L|439:160,1,61.5599992485352,8|8,0:0|0:0,0:0:0:0:
173,154,66039,2,0,L|97:150,1,61.5599992485352,8|8,0:0|0:0,0:0:0:0:
270,107,66222,1,8,0:0:0:0:
234,336,66405,2,0,L|227:270,1,61.5599992485352,8|8,0:0|0:0,0:0:0:0:
280,94,66588,6,0,L|277:242,1,106.919999673706,8|0,0:0|0:0,0:0:0:0:
351,334,66954,1,10,0:0:0:0:
370,231,67137,1,2,0:0:0:0:
190,164,67320,1,10,0:0:0:0:
209,267,67503,1,2,0:0:0:0:
391,146,67686,1,10,0:0:0:0:
410,43,67869,1,2,0:0:0:0:
168,74,68052,6,0,P|114:110|98:166,1,106.919999673706,0|2,1:0|0:0,0:0:0:0:
140,340,68417,2,0,P|194:304|210:248,1,106.919999673706,8|0,0:0|0:0,0:0:0:0:
292,80,68783,2,0,B|270:147|270:147|281:197,1,106.919999673706,0|0,1:0|0:0,0:0:0:0:
383,322,69149,2,0,B|390:286|390:286|368:219,1,106.919999673706,4|4,3:0|3:0,0:0:0:0:
189,175,69515,5,12,0:0:0:0:
361,139,69698,1,0,0:0:0:0:
122,92,69881,5,14,0:0:0:0:
102,284,70064,1,2,0:0:0:0:
377,235,70247,5,14,0:0:0:0:
214,47,70430,1,2,0:0:0:0:
50,173,70613,5,12,0:0:0:0:
324,57,70795,1,2,0:0:0:0:
294,307,70978,5,12,0:0:0:0:
104,93,71161,1,2,0:0:0:0:
399,142,71344,5,14,0:0:0:0:
62,268,71527,1,2,0:0:0:0:
174,32,71710,5,14,0:0:0:0:
193,81,71801,1,8,0:0:0:0:
187,134,71892,1,10,0:0:0:0:
164,182,71984,1,8,0:0:0:0:
146,232,72075,1,10,0:0:0:0:
145,285,72167,1,8,0:0:0:0:
158,337,72259,2,0,P|226:340|238:332,1,53.459999836853,10|8,0:0|0:0,0:0:0:0:
294,272,72442,6,0,P|368:256|411:268,1,106.919999673706,2|0,1:0|0:0,0:0:0:0:
290,143,72808,2,0,P|216:127|173:139,1,106.919999673706,14|0,0:0|0:0,0:0:0:0:
42,258,73174,2,0,L|155:229,1,106.919999673706,6|0,1:0|0:0,0:0:0:0:
79,30,73539,2,0,L|65:176,1,106.919999673706,14|2,0:0|0:0,0:0:0:0:
213,298,73905,2,0,B|233:244|233:244|219:188,1,106.919999673706,6|0,1:0|0:0,0:0:0:0:
312,46,74271,2,0,B|300:93|300:93|320:147,1,106.919999673706,14|0,0:0|0:0,0:0:0:0:
440,307,74637,2,0,P|368:295|337:255,1,106.919999673706,6|0,1:0|0:0,0:0:0:0:
431,48,75003,1,14,0:2:0:0:
428,210,75186,1,0,0:2:0:0:
234,66,75369,6,0,L|111:74,1,106.919999673706,6|0,1:0|3:0,0:0:0:0:
19,230,75734,2,0,L|125:236,1,106.919999673706,14|0,0:0|3:0,0:0:0:0:
313,135,76100,2,0,P|241:171|210:205,1,106.919999673706,6|0,1:0|3:0,0:0:0:0:
119,356,76466,2,0,P|191:320|222:286,1,106.919999673706,14|0,0:0|3:0,0:0:0:0:
116,130,76832,2,0,L|127:263,1,106.919999673706,6|0,1:0|0:0,0:0:0:0:
313,135,77198,2,0,L|302:268,1,106.919999673706,12|0,0:0|0:0,0:0:0:0:
342,321,77472,1,8,0:0:0:0:
342,321,77564,2,0,P|430:319|452:301,1,106.919999673706,4|0,1:0|0:0,0:0:0:0:
482,173,77930,1,0,1:0:0:0:
223,269,78113,1,8,0:0:0:0:
269,54,78295,6,0,P|336:46|383:79,1,106.919999673706,6|0,1:0|0:0,0:0:0:0:
149,150,78661,2,0,P|216:158|263:125,1,106.919999673706,14|0,0:0|0:0,0:0:0:0:
51,77,79027,2,0,P|99:56|150:67,1,106.919999673706,6|0,1:0|0:0,0:0:0:0:
120,272,79393,1,14,0:0:0:0:
113,149,79576,1,2,0:0:0:0:
248,302,79759,2,0,L|142:290,1,106.919999673706,6|0,1:0|0:0,0:0:0:0:
331,192,80125,2,0,L|225:204,1,106.919999673706,12|0,0:0|0:0,0:0:0:0:
444,290,80491,2,0,L|338:278,1,106.919999673706,6|0,1:0|0:0,0:0:0:0:
367,80,80856,1,14,0:0:0:0:
420,196,81039,1,0,0:0:0:0:
261,83,81222,6,0,B|185:67|185:67|123:81,1,106.919999673706,2|0,1:0|3:0,0:0:0:0:
48,172,81588,2,0,B|124:156|124:156|152:162,1,106.919999673706,14|0,0:0|3:0,0:0:0:0:
261,260,81954,2,0,B|185:244|185:244|156:250,1,106.919999673706,6|0,1:0|3:0,0:0:0:0:
51,349,82320,2,0,B|127:333|127:333|155:339,1,106.919999673706,14|0,0:0|3:0,0:0:0:0:
355,334,82686,1,6,1:0:0:0:
156,250,82869,1,8,0:0:0:0:
372,235,83052,2,0,L|499:187,1,106.919999673706,10|0,0:0|0:0,0:0:0:0:
426,112,83326,1,8,0:0:0:0:
426,112,83417,2,0,L|325:149,1,106.919999673706,2|8,1:0|0:0,0:0:0:0:
281,72,83692,1,8,0:0:0:0:
281,72,83783,2,0,L|360:41,3,53.459999836853,8|8|8|8,0:0|0:0|0:0|0:0,0:0:0:0:
214,146,84149,6,0,B|109:125|122:235|-20:181,2,213.839999347412,14|14|14,0:0|0:0|0:0,0:0:0:0:
396,326,85247,1,14,0:0:0:0:
291,97,85613,2,0,B|351:198|240:202|278:303,2,213.839999347412,14|14|14,0:0|0:0|0:0,0:0:0:0:
191,330,86710,1,14,0:0:0:0:
360,261,86893,1,2,0:0:0:0:
218,152,87076,6,0,B|149:144|149:144|97:177|97:177|-4:162,2,213.839999347412,14|14|14,0:0|0:0|0:0,0:0:0:0:
475,41,88174,1,14,0:0:0:0:
379,246,88539,2,0,P|364:185|366:136,1,106.919999673706,14|0,0:0|0:0,0:0:0:0:
474,250,88905,2,0,P|474:303|460:354,1,106.919999673706,14|0,0:0|0:0,0:0:0:0:
376,337,89180,1,8,0:0:0:0:
376,337,89271,2,0,L|194:320,1,160.379999510559,2|0,1:0|0:0,0:0:0:0:
137,347,89637,2,0,L|76:349,3,53.459999836853,0|8|8|8,1:0|0:0|0:0|0:0,0:0:0:0:
157,248,90003,6,0,B|120:151|167:78|167:78|185:131,2,213.839999347412,14|14|14,0:0|0:0|0:0,0:0:0:0:
425,47,91100,1,14,0:0:0:0:
395,144,91283,1,0,0:0:0:0:
178,112,91466,2,0,B|262:51|344:77|344:77|298:108,2,213.839999347412,14|14|14,0:0|0:0|0:0,0:0:0:0:
430,266,92563,1,14,0:0:0:0:
153,218,92930,6,0,B|74:190|74:190|62:98|62:98|97:122,2,213.839999347412,14|14|14,0:0|0:0|0:0,0:0:0:0:
380,352,94027,1,14,0:0:0:0:
331,261,94210,1,2,0:0:0:0:
459,76,94393,2,0,B|477:157|477:157|405:216|405:216|407:179,2,213.839999347412,14|14|2,0:0|0:0|1:0,0:0:0:0:
360,41,95308,1,0,1:0:0:0:
265,125,95491,6,0,P|209:121|195:115,1,53.459999836853,8|8,0:0|0:0,0:0:0:0:
150,55,95674,2,0,P|94:59|80:65,1,53.459999836853,8|8,0:0|0:0,0:0:0:0:
41,130,95856,6,0,L|42:164,2,26.7299999184265,2|2|2,0:0|0:0|0:0,0:0:0:0:
