osu file format v14

[General]
AudioFilename: audio.mp3
AudioLeadIn: 0
PreviewTime: 48204
Countdown: 0
SampleSet: Normal
StackLeniency: 0.7
Mode: 1
LetterboxInBreaks: 0
WidescreenStoryboard: 1

[Editor]
Bookmarks: 735,12442,24149,35856,49027,72442,84149,95856
DistanceSpacing: 0.8
BeatDivisor: 4
GridSize: 4
TimelineZoom: 1.5

[Metadata]
Title:MONSTER
TitleUnicode:MONSTER
Artist:Reol
ArtistUnicode:れをる
Creator:Sotarks
Version:CHROMOXX' ONI
Source:
Tags:極彩色 梅とら umetora reworu gokusaishoku haruto haruto_aizawa akitoshi corinn kin irohas mugiwarasekai pkhg davided linada sharu sharuresu chromoxx
BeatmapID:1414455
BeatmapSetID:661483

[Difficulty]
HPDrainRate:6
CircleSize:3.7
OverallDifficulty:6
ApproachRate:9
SliderMultiplier:1.4
SliderTickRate:1

[Events]
//Background and Video events
0,0,"BG.jpg",0,110
//Break Periods
//Storyboard Layer 0 (Background)
//Storyboard Layer 1 (Fail)
//Storyboard Layer 2 (Pass)
//Storyboard Layer 3 (Foreground)
//Storyboard Sound Samples

[TimingPoints]
735,365.853658536585,4,1,0,60,1,0
11344,-100,4,1,0,70,0,0
12442,-100,4,1,0,80,0,0
48295,-133.333333333333,4,1,0,70,0,0
49027,-100,4,1,0,90,0,1
72442,-100,4,1,0,90,0,0
72625,-100,4,1,0,80,0,0

[Colours]
Combo1 : 250,114,48
Combo2 : 202,193,166
Combo3 : 145,155,193
Combo4 : 216,208,122
Combo5 : 189,123,83
Combo6 : 255,242,91
SliderBorder : 255,255,255
SliderTrackOverride : 0,0,0

[HitObjects]
291,202,735,5,0,0:0:0:0:
300,272,1100,1,8,0:0:0:0:
300,272,1283,1,0,0:0:0:0:
300,272,1466,1,0,0:0:0:0:
308,263,1832,1,8,0:0:0:0:
133,223,2015,1,0,0:0:0:0:
308,263,2198,1,0,0:0:0:0:
308,263,2381,1,8,0:0:0:0:
308,263,2564,1,0,0:0:0:0:
230,257,2930,1,8,0:0:0:0:
230,257,3295,1,0,0:0:0:0:
139,222,3661,1,8,0:0:0:0:
139,222,4027,1,0,0:0:0:0:
139,222,4210,1,8,0:0:0:0:
144,142,4393,1,0,0:0:0:0:
334,282,4759,1,8,0:0:0:0:
334,282,4942,1,8,0:0:0:0:
324,272,5125,1,0,0:0:0:0:
321,270,5491,1,8,0:0:0:0:
214,205,5856,1,0,0:0:0:0:
194,187,6222,1,8,0:0:0:0:
270,326,6588,1,0,0:0:0:0:
270,326,6954,1,8,0:0:0:0:
270,326,7137,1,0,0:0:0:0:
270,326,7320,1,0,0:0:0:0:
210,244,7686,1,8,0:0:0:0:
210,244,7869,1,8,0:0:0:0:
226,218,8052,1,0,0:0:0:0:
226,218,8234,1,8,0:0:0:0:
226,218,8417,1,0,0:0:0:0:
133,223,8783,1,8,0:0:0:0:
247,248,9149,1,0,0:0:0:0:
259,245,9515,1,8,0:0:0:0:
230,184,9881,1,0,0:0:0:0:
230,184,10064,1,8,0:0:0:0:
230,184,10247,1,8,0:0:0:0:
230,184,10613,1,0,0:0:0:0:
208,204,10795,1,8,0:0:0:0:
208,204,10978,1,0,0:0:0:0:
248,166,11344,1,8,0:0:0:0:
246,161,11619,1,0,0:0:0:0:
242,158,11710,1,8,0:0:0:0:
285,215,12442,1,4,0:0:0:0:
305,245,12625,1,0,0:0:0:0:
150,177,12808,1,8,0:0:0:0:
95,213,12899,1,8,0:0:0:0:
153,256,12991,1,0,0:0:0:0:
285,215,13174,1,8,0:0:0:0:
285,215,13356,1,8,0:0:0:0:
293,231,13539,1,0,0:0:0:0:
293,231,13631,1,0,0:0:0:0:
215,190,13722,1,8,0:0:0:0:
188,299,13905,1,0,0:0:0:0:
159,309,14088,1,8,0:0:0:0:
153,305,14180,1,8,0:0:0:0:
159,309,14271,1,8,0:0:0:0:
213,287,14454,1,8,0:0:0:0:
196,282,14637,1,0,0:0:0:0:
204,260,14728,1,0,0:0:0:0:
204,260,14820,1,0,0:0:0:0:
204,260,15003,1,8,0:0:0:0:
193,253,15094,1,8,0:0:0:0:
158,238,15186,1,0,0:0:0:0:
173,230,15369,1,8,0:0:0:0:
173,230,15552,1,8,0:0:0:0:
226,215,15734,1,0,0:0:0:0:
226,215,15826,1,0,0:0:0:0:
220,209,15917,1,8,0:0:0:0:
220,209,16100,1,0,0:0:0:0:
220,209,16283,1,0,0:0:0:0:
326,176,16466,1,8,0:0:0:0:
315,189,16558,1,8,0:0:0:0:
258,246,16649,1,0,0:0:0:0:
262,253,16832,1,8,0:0:0:0:
258,246,17015,1,0,0:0:0:0:
258,246,17106,1,0,0:0:0:0:
258,246,17198,1,0,0:0:0:0:
258,246,17381,1,8,0:0:0:0:
258,246,17472,1,0,0:0:0:0:
261,241,17564,1,8,0:0:0:0:
261,242,17747,1,0,0:0:0:0:
261,241,17930,1,0,0:0:0:0:
261,241,18021,1,0,0:0:0:0:
261,241,18113,1,8,0:0:0:0:
261,241,18295,1,4,0:0:0:0:
210,305,18478,1,0,0:0:0:0:
214,279,18661,1,8,0:0:0:0:
187,152,18753,1,8,0:0:0:0:
187,152,18844,1,0,0:0:0:0:
187,152,18936,1,0,0:0:0:0:
187,152,19027,1,8,0:0:0:0:
187,152,19210,1,8,0:0:0:0:
328,285,19393,1,0,0:0:0:0:
280,299,19484,1,0,0:0:0:0:
222,283,19576,1,8,0:0:0:0:
222,283,19667,1,8,0:0:0:0:
216,275,19759,1,0,0:0:0:0:
222,283,19942,1,8,0:0:0:0:
222,283,20033,1,8,0:0:0:0:
222,283,20125,1,8,0:0:0:0:
205,261,20308,1,8,0:0:0:0:
220,317,20491,1,0,0:0:0:0:
214,305,20582,1,0,0:0:0:0:
212,303,20674,1,8,0:0:0:0:
212,303,20765,1,0,0:0:0:0:
212,302,20856,1,8,0:0:0:0:
170,271,20948,1,8,0:0:0:0:
163,266,21039,1,0,0:0:0:0:
198,287,21222,1,8,0:0:0:0:
159,259,21405,1,8,0:0:0:0:
159,259,21588,1,0,0:0:0:0:
159,257,21680,1,0,0:0:0:0:
159,257,21771,1,8,0:0:0:0:
134,241,21863,1,8,0:0:0:0:
134,241,21954,1,0,0:0:0:0:
134,241,22137,1,0,0:0:0:0:
230,261,22320,1,8,0:0:0:0:
235,257,22411,1,8,0:0:0:0:
217,240,22503,1,0,0:0:0:0:
218,241,22594,1,0,0:0:0:0:
217,240,22686,1,8,0:0:0:0:
217,239,22869,1,0,0:0:0:0:
217,239,22960,1,0,0:0:0:0:
217,238,23052,1,0,0:0:0:0:
218,236,23234,1,8,0:0:0:0:
221,236,23326,1,0,0:0:0:0:
215,233,23417,1,8,0:0:0:0:
224,255,23600,1,0,0:0:0:0:
224,255,23692,1,0,0:0:0:0:
224,255,23783,1,8,0:0:0:0:
224,255,23875,1,8,0:0:0:0:
224,255,23966,1,8,0:0:0:0:
224,255,24058,1,8,0:0:0:0:
223,253,24149,1,0,0:0:0:0:
421,248,24515,1,0,0:0:0:0:
421,248,24881,1,0,0:0:0:0:
421,248,25247,1,0,0:0:0:0:
421,248,25613,1,0,0:0:0:0:
421,248,25978,1,0,0:0:0:0:
421,248,26344,1,0,0:0:0:0:
421,248,26527,1,8,0:0:0:0:
421,248,26710,1,0,0:0:0:0:
306,280,26893,1,8,0:0:0:0:
306,280,27076,1,0,0:0:0:0:
239,326,27442,1,8,0:0:0:0:
239,326,27808,1,8,0:0:0:0:
239,326,28174,1,8,0:0:0:0:
239,326,28539,1,8,0:0:0:0:
239,326,28905,1,8,0:0:0:0:
239,326,29271,1,8,0:0:0:0:
239,326,29454,1,0,0:0:0:0:
238,134,29637,1,8,0:0:0:0:
238,134,29820,1,0,0:0:0:0:
238,134,30003,1,8,0:0:0:0:
330,327,30369,1,0,0:0:0:0:
330,327,30734,1,0,0:0:0:0:
330,327,31100,1,0,0:0:0:0:
330,327,31466,1,0,0:0:0:0:
330,327,31832,1,0,0:0:0:0:
330,327,32198,1,0,0:0:0:0:
330,327,32381,1,8,0:0:0:0:
330,327,32564,1,0,0:0:0:0:
284,302,32747,1,8,0:0:0:0:
284,302,32930,1,0,0:0:0:0:
222,270,33295,1,8,0:0:0:0:
222,270,33661,1,8,0:0:0:0:
222,270,34027,1,8,0:0:0:0:
222,270,34393,1,4,0:0:0:0:
222,270,34576,1,0,0:0:0:0:
222,270,34667,1,0,0:0:0:0:
220,263,34759,1,8,0:0:0:0:
220,263,34942,1,0,0:0:0:0:
220,263,35033,1,8,0:0:0:0:
220,263,35125,1,0,0:0:0:0:
220,263,35216,1,0,0:0:0:0:
220,263,35308,1,8,0:0:0:0:
220,263,35399,1,0,0:0:0:0:
220,263,35491,1,8,0:0:0:0:
220,263,35582,1,8,0:0:0:0:
220,263,35674,1,8,0:0:0:0:
206,258,35765,1,8,0:0:0:0:
206,258,35856,1,0,0:0:0:0:
341,211,36222,1,8,0:0:0:0:
261,311,36405,1,0,0:0:0:0:
197,278,36497,1,0,0:0:0:0:
261,311,36588,1,0,0:0:0:0:
257,223,36771,1,0,0:0:0:0:
222,248,36954,1,8,0:0:0:0:
196,233,37137,1,0,0:0:0:0:
196,233,37228,1,0,0:0:0:0:
196,233,37320,1,8,0:0:0:0:
170,308,37503,1,0,0:0:0:0:
170,308,37686,1,8,0:0:0:0:
179,312,37869,1,8,0:0:0:0:
255,239,37960,1,8,0:0:0:0:
145,214,38052,1,0,0:0:0:0:
255,213,38234,1,0,0:0:0:0:
275,207,38417,1,8,0:0:0:0:
271,204,38509,1,8,0:0:0:0:
237,194,38600,1,0,0:0:0:0:
237,194,38692,1,0,0:0:0:0:
237,194,38783,1,8,0:0:0:0:
237,194,38966,1,0,0:0:0:0:
237,194,39149,1,8,0:0:0:0:
237,194,39332,1,0,0:0:0:0:
237,194,39424,1,8,0:0:0:0:
237,194,39515,1,0,0:0:0:0:
183,251,39698,1,0,0:0:0:0:
187,243,39881,1,8,0:0:0:0:
187,243,39972,1,8,0:0:0:0:
187,243,40064,1,0,0:0:0:0:
187,243,40247,1,8,0:0:0:0:
187,243,40430,1,0,0:0:0:0:
153,243,40613,1,8,0:0:0:0:
161,261,40795,1,0,0:0:0:0:
187,264,40887,1,0,0:0:0:0:
189,258,40978,1,0,0:0:0:0:
189,258,41161,1,0,0:0:0:0:
199,257,41344,1,8,0:0:0:0:
171,266,41436,1,0,0:0:0:0:
126,221,41527,1,8,0:0:0:0:
121,215,41619,1,8,0:0:0:0:
121,215,41710,1,0,0:0:0:0:
321,330,42076,1,8,0:0:0:0:
321,330,42259,1,0,0:0:0:0:
321,330,42350,1,0,0:0:0:0:
311,324,42442,1,0,0:0:0:0:
311,324,42625,1,0,0:0:0:0:
312,324,42808,1,8,0:0:0:0:
268,302,42991,1,0,0:0:0:0:
268,302,43082,1,0,0:0:0:0:
212,217,43174,1,8,0:0:0:0:
212,217,43356,1,0,0:0:0:0:
212,217,43539,1,8,0:0:0:0:
212,217,43722,1,8,0:0:0:0:
212,217,43814,1,8,0:0:0:0:
212,217,43905,1,8,0:0:0:0:
204,212,44088,1,0,0:0:0:0:
204,212,44271,1,8,0:0:0:0:
149,229,44363,1,0,0:0:0:0:
204,212,44454,1,8,0:0:0:0:
204,212,44545,1,8,0:0:0:0:
204,212,44637,1,0,0:0:0:0:
149,229,44820,1,0,0:0:0:0:
149,229,45003,1,8,0:0:0:0:
149,229,45094,1,0,0:0:0:0:
149,229,45277,1,0,0:0:0:0:
149,229,45369,1,8,0:0:0:0:
157,256,45552,1,0,0:0:0:0:
157,254,45643,1,8,0:0:0:0:
157,254,45734,1,8,0:0:0:0:
157,254,45917,1,8,0:0:0:0:
157,254,46009,1,8,0:0:0:0:
153,251,46100,1,0,0:0:0:0:
155,250,46283,1,0,0:0:0:0:
157,256,46466,1,0,0:0:0:0:
157,254,46649,1,0,0:0:0:0:
179,231,46832,1,8,0:0:0:0:
179,231,47015,1,0,0:0:0:0:
179,231,47198,1,0,0:0:0:0:
233,258,47381,1,12,0:0:0:0:
233,237,48295,1,8,0:0:0:0:
233,237,48661,1,8,0:0:0:0:
218,316,49027,1,4,0:0:0:0:
321,189,49210,1,0,0:0:0:0:
272,225,49393,1,8,0:0:0:0:
199,269,49484,1,8,0:0:0:0:
161,236,49576,1,0,0:0:0:0:
161,236,49759,1,8,0:0:0:0:
161,236,49942,1,8,0:0:0:0:
151,219,50125,1,0,0:0:0:0:
148,218,50216,1,0,0:0:0:0:
148,218,50308,1,8,0:0:0:0:
148,218,50491,1,0,0:0:0:0:
170,214,50674,1,0,0:0:0:0:
170,214,50765,1,0,0:0:0:0:
166,208,50856,1,8,0:0:0:0:
166,208,51039,1,8,0:0:0:0:
165,204,51131,1,8,0:0:0:0:
211,300,51222,1,0,0:0:0:0:
218,290,51405,1,8,0:0:0:0:
211,300,51588,1,0,0:0:0:0:
227,234,51954,1,8,0:0:0:0:
126,292,52137,1,8,0:0:0:0:
126,292,52320,1,0,0:0:0:0:
101,258,52411,1,0,0:0:0:0:
101,258,52503,1,8,0:0:0:0:
101,258,52686,1,0,0:0:0:0:
101,258,52869,1,0,0:0:0:0:
101,258,53052,1,8,0:0:0:0:
101,258,53143,1,8,0:0:0:0:
96,253,53234,1,0,0:0:0:0:
233,271,53417,1,8,0:0:0:0:
205,259,53600,1,8,0:0:0:0:
205,259,53692,1,8,0:0:0:0:
205,259,53783,1,0,0:0:0:0:
205,259,53966,1,0,0:0:0:0:
205,259,54058,1,0,0:0:0:0:
205,259,54149,1,8,0:0:0:0:
205,259,54332,1,0,0:0:0:0:
205,259,54515,1,8,0:0:0:0:
205,259,54881,1,4,0:0:0:0:
187,338,55247,1,8,0:0:0:0:
181,293,55430,1,0,0:0:0:0:
181,293,55521,1,0,0:0:0:0:
181,293,55613,1,8,0:0:0:0:
181,293,55795,1,0,0:0:0:0:
181,293,55978,1,8,0:0:0:0:
181,293,56161,1,0,0:0:0:0:
181,293,56253,1,0,0:0:0:0:
181,293,56344,1,0,0:0:0:0:
181,293,56527,1,8,0:0:0:0:
261,186,56710,1,0,0:0:0:0:
253,183,56802,1,0,0:0:0:0:
217,227,56893,1,8,0:0:0:0:
248,269,56984,1,8,0:0:0:0:
235,259,57076,1,0,0:0:0:0:
235,259,57259,1,0,0:0:0:0:
233,259,57442,1,8,0:0:0:0:
233,259,57625,1,8,0:0:0:0:
233,259,57716,1,8,0:0:0:0:
233,259,57808,1,0,0:0:0:0:
233,259,57991,1,0,0:0:0:0:
235,259,58174,1,8,0:0:0:0:
164,301,58356,1,0,0:0:0:0:
153,314,58448,1,8,0:0:0:0:
145,307,58539,1,0,0:0:0:0:
145,307,58722,1,0,0:0:0:0:
146,307,58814,1,0,0:0:0:0:
144,305,58905,1,8,0:0:0:0:
144,305,59088,1,8,0:0:0:0:
144,305,59180,1,8,0:0:0:0:
144,294,59271,1,0,0:0:0:0:
144,294,59454,1,0,0:0:0:0:
264,275,59545,1,0,0:0:0:0:
249,262,59637,1,8,0:0:0:0:
249,262,59820,1,0,0:0:0:0:
232,286,60003,1,8,0:0:0:0:
232,286,60094,1,0,0:0:0:0:
210,275,60186,1,8,0:0:0:0:
210,276,60277,1,8,0:0:0:0:
186,278,60369,1,0,0:0:0:0:
186,278,60460,1,8,0:0:0:0:
186,278,60552,1,8,0:0:0:0:
186,278,60734,1,4,0:0:0:0:
281,284,60917,1,0,0:0:0:0:
285,291,61100,1,8,0:0:0:0:
285,291,61192,1,8,0:0:0:0:
253,308,61283,1,0,0:0:0:0:
248,304,61375,1,0,0:0:0:0:
246,302,61466,1,8,0:0:0:0:
183,304,61649,1,0,0:0:0:0:
183,304,61832,1,8,0:0:0:0:
113,171,61924,1,0,0:0:0:0:
113,171,62015,1,8,0:0:0:0:
118,173,62106,1,8,0:0:0:0:
118,173,62198,1,0,0:0:0:0:
296,286,62381,1,0,0:0:0:0:
292,281,62472,1,0,0:0:0:0:
257,259,62564,1,8,0:0:0:0:
186,251,62747,1,8,0:0:0:0:
212,280,62838,1,8,0:0:0:0:
186,251,62930,1,0,0:0:0:0:
227,123,63021,1,0,0:0:0:0:
227,123,63113,1,8,0:0:0:0:
227,123,63204,1,0,0:0:0:0:
227,123,63295,1,8,0:0:0:0:
227,123,63387,1,8,0:0:0:0:
227,123,63478,1,0,0:0:0:0:
212,280,63661,1,8,0:0:0:0:
212,280,63844,1,8,0:0:0:0:
212,280,64027,1,0,0:0:0:0:
212,280,64119,1,0,0:0:0:0:
212,280,64210,1,8,0:0:0:0:
181,268,64302,1,8,0:0:0:0:
181,268,64393,1,0,0:0:0:0:
181,268,64576,1,0,0:0:0:0:
181,268,64759,1,8,0:0:0:0:
183,304,64850,1,8,0:0:0:0:
183,304,64942,1,0,0:0:0:0:
183,304,65033,1,0,0:0:0:0:
183,304,65125,1,8,0:0:0:0:
183,304,65308,1,8,0:0:0:0:
183,304,65399,1,8,0:0:0:0:
183,304,65491,1,0,0:0:0:0:
183,304,65674,1,8,0:0:0:0:
183,304,65765,1,0,0:0:0:0:
183,304,65856,1,8,0:0:0:0:
183,304,65948,1,8,0:0:0:0:
183,304,66039,1,0,0:0:0:0:
183,304,66131,1,8,0:0:0:0:
183,304,66222,1,0,0:0:0:0:
170,300,66314,1,8,0:0:0:0:
183,304,66405,1,8,0:0:0:0:
183,304,66497,1,8,0:0:0:0:
183,304,66588,1,0,0:0:0:0:
229,319,66954,1,8,0:0:0:0:
343,307,67137,1,0,0:0:0:0:
343,307,67228,1,0,0:0:0:0:
333,301,67320,1,8,0:0:0:0:
333,301,67503,1,0,0:0:0:0:
108,171,67686,1,8,0:0:0:0:
333,301,67869,1,8,0:0:0:0:
331,300,67960,1,8,0:0:0:0:
259,288,68052,1,0,0:0:0:0:
210,309,68234,1,0,0:0:0:0:
250,301,68417,1,8,0:0:0:0:
197,271,68600,1,0,0:0:0:0:
217,282,68692,1,8,0:0:0:0:
216,282,68783,1,0,0:0:0:0:
216,153,68966,1,0,0:0:0:0:
216,153,69058,1,0,0:0:0:0:
216,153,69149,1,8,0:0:0:0:
216,153,69241,1,0,0:0:0:0:
216,153,69332,1,8,0:0:0:0:
216,153,69424,1,8,0:0:0:0:
216,153,69515,1,0,0:0:0:0:
223,268,69881,1,8,0:0:0:0:
223,268,69972,1,8,0:0:0:0:
214,261,70064,1,0,0:0:0:0:
215,261,70247,1,8,0:0:0:0:
215,261,70338,1,8,0:0:0:0:
214,261,70430,1,0,0:0:0:0:
214,261,70613,1,8,0:0:0:0:
214,261,70704,1,0,0:0:0:0:
214,261,70795,1,8,0:0:0:0:
214,261,70887,1,8,0:0:0:0:
214,261,70978,1,0,0:0:0:0:
215,261,71161,1,0,0:0:0:0:
215,261,71253,1,0,0:0:0:0:
215,261,71344,1,8,0:0:0:0:
229,269,71527,1,0,0:0:0:0:
157,152,71710,1,8,0:0:0:0:
141,196,71802,1,8,0:0:0:0:
141,196,71893,1,8,0:0:0:0:
141,196,71984,1,8,0:0:0:0:
141,196,72076,1,8,0:0:0:0:
141,196,72167,1,8,0:0:0:0:
141,196,72259,1,8,0:0:0:0:
141,196,72350,1,8,0:0:0:0:
167,278,72442,1,0,0:0:0:0:
251,205,72808,1,8,0:0:0:0:
206,226,72991,1,0,0:0:0:0:
229,297,73082,1,0,0:0:0:0:
206,226,73174,1,0,0:0:0:0:
229,297,73356,1,0,0:0:0:0:
229,297,73539,1,8,0:0:0:0:
313,250,73905,1,0,0:0:0:0:
313,250,74088,1,0,0:0:0:0:
375,309,74271,1,8,0:0:0:0:
263,251,74454,1,0,0:0:0:0:
257,244,74545,1,8,0:0:0:0:
175,206,74637,1,0,0:0:0:0:
175,206,74820,1,0,0:0:0:0:
169,203,74911,1,0,0:0:0:0:
170,200,75003,1,8,0:0:0:0:
163,196,75186,1,0,0:0:0:0:
163,195,75369,1,8,0:0:0:0:
163,195,75734,1,0,0:0:0:0:
170,195,75917,1,8,0:0:0:0:
170,200,76009,1,8,0:0:0:0:
218,171,76100,1,8,0:0:0:0:
259,211,76283,1,8,0:0:0:0:
259,211,76466,1,0,0:0:0:0:
259,211,76832,1,8,0:0:0:0:
259,211,77015,1,8,0:0:0:0:
259,211,77198,1,0,0:0:0:0:
259,211,77381,1,8,0:0:0:0:
259,211,77472,1,0,0:0:0:0:
259,211,77564,1,8,0:0:0:0:
259,211,77747,1,8,0:0:0:0:
227,249,77838,1,8,0:0:0:0:
158,269,77930,1,0,0:0:0:0:
158,269,78113,1,8,0:0:0:0:
158,269,78295,1,0,0:0:0:0:
313,308,78661,1,8,0:0:0:0:
313,308,78844,1,0,0:0:0:0:
313,308,78936,1,0,0:0:0:0:
313,308,79027,1,0,0:0:0:0:
313,308,79210,1,0,0:0:0:0:
313,308,79393,1,8,0:0:0:0:
233,184,79576,1,8,0:0:0:0:
233,184,79667,1,8,0:0:0:0:
215,175,79759,1,0,0:0:0:0:
215,175,79942,1,0,0:0:0:0:
203,188,80125,1,8,0:0:0:0:
203,188,80308,1,0,0:0:0:0:
203,188,80399,1,0,0:0:0:0:
202,188,80491,1,8,0:0:0:0:
202,188,80674,1,0,0:0:0:0:
202,188,80856,1,8,0:0:0:0:
182,305,80948,1,8,0:0:0:0:
182,305,81039,1,0,0:0:0:0:
182,305,81222,1,8,0:0:0:0:
182,305,81588,1,0,0:0:0:0:
251,293,81771,1,8,0:0:0:0:
281,313,81863,1,8,0:0:0:0:
251,293,81954,1,8,0:0:0:0:
256,168,82137,1,8,0:0:0:0:
256,168,82320,1,0,0:0:0:0:
271,208,82503,1,0,0:0:0:0:
262,220,82594,1,0,0:0:0:0:
271,208,82686,1,8,0:0:0:0:
286,218,82869,1,8,0:0:0:0:
286,218,83052,1,8,0:0:0:0:
286,218,83234,1,0,0:0:0:0:
136,149,83326,1,8,0:0:0:0:
177,232,83417,1,0,0:0:0:0:
330,256,83600,1,0,0:0:0:0:
330,256,83692,1,0,0:0:0:0:
271,295,83783,1,8,0:0:0:0:
263,291,83875,1,8,0:0:0:0:
271,295,83966,1,8,0:0:0:0:
271,295,84058,1,8,0:0:0:0:
263,291,84149,1,0,0:0:0:0:
206,302,84515,1,8,0:0:0:0:
196,281,84698,1,0,0:0:0:0:
214,289,84789,1,0,0:0:0:0:
124,145,84881,1,8,0:0:0:0:
124,145,85064,1,0,0:0:0:0:
160,122,85247,1,8,0:0:0:0:
160,122,85338,1,8,0:0:0:0:
160,122,85430,1,0,0:0:0:0:
160,122,85613,1,8,0:0:0:0:
160,122,85795,1,0,0:0:0:0:
160,122,85887,1,0,0:0:0:0:
160,122,85978,1,8,0:0:0:0:
160,122,86161,1,8,0:0:0:0:
160,122,86253,1,8,0:0:0:0:
160,122,86344,1,0,0:0:0:0:
254,295,86527,1,0,0:0:0:0:
254,295,86619,1,0,0:0:0:0:
254,295,86710,1,8,0:0:0:0:
191,280,86893,1,0,0:0:0:0:
191,280,87076,1,8,0:0:0:0:
254,295,87442,1,0,0:0:0:0:
247,305,87625,1,8,0:0:0:0:
247,305,87716,1,8,0:0:0:0:
216,279,87808,1,0,0:0:0:0:
216,279,87991,1,8,0:0:0:0:
216,279,88174,1,0,0:0:0:0:
216,279,88265,1,0,0:0:0:0:
216,279,88356,1,8,0:0:0:0:
216,279,88539,1,0,0:0:0:0:
311,291,88722,1,8,0:0:0:0:
311,291,88814,1,8,0:0:0:0:
231,306,88905,1,0,0:0:0:0:
231,306,89088,1,0,0:0:0:0:
229,298,89180,1,0,0:0:0:0:
223,291,89271,1,8,0:0:0:0:
221,284,89454,1,0,0:0:0:0:
216,279,89545,1,0,0:0:0:0:
167,121,89637,1,8,0:0:0:0:
167,121,89728,1,8,0:0:0:0:
167,121,89820,1,8,0:0:0:0:
167,121,89911,1,8,0:0:0:0:
167,121,90003,1,0,0:0:0:0:
308,288,90186,1,8,0:0:0:0:
308,288,90369,1,0,0:0:0:0:
282,283,90460,1,0,0:0:0:0:
264,273,90552,1,8,0:0:0:0:
264,273,90734,1,0,0:0:0:0:
264,272,90917,1,8,0:0:0:0:
224,267,91009,1,8,0:0:0:0:
224,267,91100,1,0,0:0:0:0:
213,263,91192,1,0,0:0:0:0:
212,262,91283,1,8,0:0:0:0:
212,262,91466,1,0,0:0:0:0:
210,261,91649,1,8,0:0:0:0:
208,260,91741,1,8,0:0:0:0:
207,260,91832,1,0,0:0:0:0:
208,259,92015,1,0,0:0:0:0:
145,128,92106,1,0,0:0:0:0:
145,128,92198,1,8,0:0:0:0:
145,128,92381,1,8,0:0:0:0:
145,128,92472,1,8,0:0:0:0:
145,128,92564,1,0,0:0:0:0:
171,283,92655,1,0,0:0:0:0:
261,297,92747,1,0,0:0:0:0:
261,297,92930,1,8,0:0:0:0:
303,330,93113,1,0,0:0:0:0:
303,330,93295,1,8,0:0:0:0:
215,251,93387,1,8,0:0:0:0:
215,251,93478,1,0,0:0:0:0:
215,251,93661,1,8,0:0:0:0:
215,251,93844,1,0,0:0:0:0:
215,251,93936,1,0,0:0:0:0:
215,251,94027,1,8,0:0:0:0:
162,185,94119,1,8,0:0:0:0:
215,251,94210,1,0,0:0:0:0:
215,251,94393,1,8,0:0:0:0:
215,251,94576,1,0,0:0:0:0:
215,251,94667,1,0,0:0:0:0:
215,251,94759,1,8,0:0:0:0:
215,251,94942,1,8,0:0:0:0:
265,158,95033,1,8,0:0:0:0:
271,160,95125,1,0,0:0:0:0:
271,160,95308,1,0,0:0:0:0:
271,160,95399,1,0,0:0:0:0:
256,153,95491,1,8,0:0:0:0:
257,153,95582,1,8,0:0:0:0:
256,153,95674,1,8,0:0:0:0:
249,150,95765,1,0,0:0:0:0:
249,150,95856,1,8,0:0:0:0:
