osu file format v14

[General]
AudioFilename: audio.mp3
AudioLeadIn: 0
PreviewTime: 48204
Countdown: 0
SampleSet: Normal
StackLeniency: 0.7
Mode: 1
LetterboxInBreaks: 0
WidescreenStoryboard: 1

[Editor]
Bookmarks: 735,12442,24149,35856,49027,72442,84149,95856
DistanceSpacing: 0.8
BeatDivisor: 4
GridSize: 4
TimelineZoom: 1.5

[Metadata]
Title:MONSTER
TitleUnicode:MONSTER
Artist:Reol
ArtistUnicode:れをる
Creator:Sotarks
Version:CHROMOXX' MUZUKASHII
Source:
Tags:極彩色 梅とら umetora reworu gokusaishoku haruto haruto_aizawa akitoshi corinn kin irohas mugiwarasekai pkhg davided linada sharu sharuresu chromoxx
BeatmapID:1414454
BeatmapSetID:661483

[Difficulty]
HPDrainRate:6
CircleSize:3.7
OverallDifficulty:5
ApproachRate:9
SliderMultiplier:1.4
SliderTickRate:1

[Events]
//Background and Video events
0,0,"BG.jpg",0,110
//Break Periods
//Storyboard Layer 0 (Background)
//Storyboard Layer 1 (Fail)
//Storyboard Layer 2 (Pass)
//Storyboard Layer 3 (Foreground)
//Storyboard Sound Samples

[TimingPoints]
735,365.853658536585,4,1,0,60,1,0
11344,-100,4,1,0,70,0,0
12442,-100,4,1,0,80,0,0
49027,-100,4,1,0,90,0,1
72442,-100,4,1,0,90,0,0
72625,-100,4,1,0,80,0,0

[Colours]
Combo1 : 250,114,48
Combo2 : 202,193,166
Combo3 : 145,155,193
Combo4 : 216,208,122
Combo5 : 189,123,83
Combo6 : 255,242,91
SliderBorder : 255,255,255
SliderTrackOverride : 0,0,0

[HitObjects]
361,237,735,5,0,0:0:0:0:
361,237,1283,1,8,0:0:0:0:
361,237,1832,1,8,0:0:0:0:
361,237,2015,1,8,0:0:0:0:
188,196,2381,1,0,0:0:0:0:
361,237,2930,1,8,0:0:0:0:
361,237,3295,1,0,0:0:0:0:
361,237,3661,1,0,0:0:0:0:
361,237,4210,1,8,0:0:0:0:
361,237,4942,1,8,0:0:0:0:
170,263,6588,1,0,0:0:0:0:
170,263,7137,1,8,0:0:0:0:
170,263,7686,1,8,0:0:0:0:
170,263,7869,1,8,0:0:0:0:
170,263,8234,1,8,0:0:0:0:
170,263,8783,1,8,0:0:0:0:
170,263,9149,1,0,0:0:0:0:
170,263,9515,1,8,0:0:0:0:
170,263,10064,1,8,0:0:0:0:
170,263,10795,1,8,0:0:0:0:
191,258,11344,1,0,0:0:0:0:
258,311,11619,1,8,0:0:0:0:
258,311,11710,1,8,0:0:0:0:
316,236,12442,1,0,0:0:0:0:
316,236,12625,1,0,0:0:0:0:
316,236,12808,1,8,0:0:0:0:
167,305,12991,1,0,0:0:0:0:
167,305,13174,1,8,0:0:0:0:
284,235,13539,1,8,0:0:0:0:
143,229,13722,1,8,0:0:0:0:
284,235,13905,1,0,0:0:0:0:
244,219,14088,1,8,0:0:0:0:
143,229,14271,1,0,0:0:0:0:
178,317,14454,1,0,0:0:0:0:
170,207,14637,1,8,0:0:0:0:
217,325,15003,1,8,0:0:0:0:
217,325,15369,1,0,0:0:0:0:
222,304,15552,1,0,0:0:0:0:
167,305,15734,1,8,0:0:0:0:
167,305,15917,1,8,0:0:0:0:
192,237,16100,1,0,0:0:0:0:
192,237,16466,1,8,0:0:0:0:
192,237,16649,1,0,0:0:0:0:
192,237,16832,1,0,0:0:0:0:
192,237,17015,1,0,0:0:0:0:
192,237,17198,1,8,0:0:0:0:
192,237,17381,1,0,0:0:0:0:
192,237,17472,1,0,0:0:0:0:
192,237,17564,1,0,0:0:0:0:
192,237,17747,1,0,0:0:0:0:
192,237,17930,1,8,0:0:0:0:
231,238,18295,1,0,0:0:0:0:
167,162,18478,1,8,0:0:0:0:
296,242,18661,1,8,0:0:0:0:
231,238,18844,1,0,0:0:0:0:
231,238,19027,1,8,0:0:0:0:
231,238,19393,1,8,0:0:0:0:
231,238,19576,1,8,0:0:0:0:
167,162,19759,1,0,0:0:0:0:
167,162,19942,1,8,0:0:0:0:
167,162,20125,1,8,0:0:0:0:
185,223,20308,1,0,0:0:0:0:
185,223,20491,1,8,0:0:0:0:
248,234,20856,1,8,0:0:0:0:
235,242,21222,1,0,0:0:0:0:
210,243,21405,1,8,0:0:0:0:
210,243,21588,1,8,0:0:0:0:
210,243,21771,1,8,0:0:0:0:
210,243,21954,1,0,0:0:0:0:
272,233,22320,1,8,0:0:0:0:
272,233,22503,1,8,0:0:0:0:
267,225,22686,1,0,0:0:0:0:
267,225,22869,1,0,0:0:0:0:
232,237,23052,1,8,0:0:0:0:
267,224,23234,1,0,0:0:0:0:
232,237,23326,1,0,0:0:0:0:
220,225,23417,1,0,0:0:0:0:
220,225,23600,1,8,0:0:0:0:
212,220,23692,1,8,0:0:0:0:
212,220,23783,1,8,0:0:0:0:
220,225,23966,1,8,0:0:0:0:
203,208,24149,1,0,0:0:0:0:
327,170,24515,1,0,0:0:0:0:
327,170,24881,1,8,0:0:0:0:
327,170,25247,1,0,0:0:0:0:
327,170,25613,1,8,0:0:0:0:
284,200,27076,1,0,0:0:0:0:
284,200,27442,1,8,0:0:0:0:
284,200,27808,1,8,0:0:0:0:
284,200,28174,1,0,0:0:0:0:
284,200,28539,1,8,0:0:0:0:
208,292,30003,1,0,0:0:0:0:
208,292,30369,1,0,0:0:0:0:
208,292,30734,1,8,0:0:0:0:
208,292,31100,1,8,0:0:0:0:
208,292,31466,1,0,0:0:0:0:
208,292,32930,1,8,0:0:0:0:
233,174,33295,1,8,0:0:0:0:
233,174,33661,1,0,0:0:0:0:
233,174,34027,1,0,0:0:0:0:
247,165,34393,1,8,0:0:0:0:
262,240,34576,1,0,0:0:0:0:
241,214,34667,1,0,0:0:0:0:
262,240,34759,1,0,0:0:0:0:
241,214,34942,1,8,0:0:0:0:
241,214,35033,1,8,0:0:0:0:
241,214,35125,1,8,0:0:0:0:
241,214,35308,1,8,0:0:0:0:
239,204,35491,1,0,0:0:0:0:
233,196,35582,1,0,0:0:0:0:
239,204,35674,1,0,0:0:0:0:
233,196,35856,1,12,0:0:0:0:
250,219,36222,1,0,0:0:0:0:
250,219,36405,1,8,0:0:0:0:
250,219,36588,1,0,0:0:0:0:
250,219,36771,1,0,0:0:0:0:
242,213,36954,1,8,0:0:0:0:
242,213,37320,1,0,0:0:0:0:
266,203,37686,1,8,0:0:0:0:
266,203,37869,1,0,0:0:0:0:
266,203,38052,1,0,0:0:0:0:
238,227,38417,1,8,0:0:0:0:
238,227,38600,1,8,0:0:0:0:
238,227,38783,1,0,0:0:0:0:
238,227,38966,1,8,0:0:0:0:
238,227,39149,1,8,0:0:0:0:
230,244,39515,1,0,0:0:0:0:
230,244,39698,1,0,0:0:0:0:
230,244,39881,1,8,0:0:0:0:
188,292,40247,1,0,0:0:0:0:
287,307,40430,1,0,0:0:0:0:
287,307,40613,1,8,0:0:0:0:
193,276,40795,1,8,0:0:0:0:
193,276,40978,1,0,0:0:0:0:
193,276,41161,1,8,0:0:0:0:
193,276,41344,1,8,0:0:0:0:
139,185,41527,1,0,0:0:0:0:
255,251,41619,1,0,0:0:0:0:
139,185,41710,1,0,0:0:0:0:
248,185,42076,1,8,0:0:0:0:
248,185,42259,1,0,0:0:0:0:
248,185,42442,1,8,0:0:0:0:
248,185,42625,1,8,0:0:0:0:
367,222,42808,1,0,0:0:0:0:
367,222,43174,1,8,0:0:0:0:
369,272,43539,1,0,0:0:0:0:
369,272,43722,1,8,0:0:0:0:
369,272,43905,1,8,0:0:0:0:
299,280,44271,1,0,0:0:0:0:
237,255,44454,1,0,0:0:0:0:
299,280,44637,1,8,0:0:0:0:
204,245,44820,1,0,0:0:0:0:
237,255,45003,1,0,0:0:0:0:
266,185,45369,1,8,0:0:0:0:
266,185,45552,1,8,0:0:0:0:
266,185,45643,1,8,0:0:0:0:
266,185,45734,1,8,0:0:0:0:
266,185,45917,1,0,0:0:0:0:
266,185,46009,1,0,0:0:0:0:
260,181,46100,1,0,0:0:0:0:
271,162,46466,1,0,0:0:0:0:
271,162,46649,1,0,0:0:0:0:
271,162,46832,1,8,0:0:0:0:
271,162,47015,1,0,0:0:0:0:
271,162,47198,1,0,0:0:0:0:
271,162,47381,1,8,0:0:0:0:
254,248,49027,1,0,0:0:0:0:
254,248,49210,1,0,0:0:0:0:
272,276,49393,1,8,0:0:0:0:
272,276,49576,1,0,0:0:0:0:
272,276,49759,1,8,0:0:0:0:
272,276,49942,1,8,0:0:0:0:
238,265,50125,1,0,0:0:0:0:
238,265,50308,1,8,0:0:0:0:
238,265,50491,1,0,0:0:0:0:
238,265,50674,1,0,0:0:0:0:
249,259,50856,1,8,0:0:0:0:
249,259,51039,1,0,0:0:0:0:
239,246,51222,1,12,0:0:0:0:
239,246,51588,1,12,0:0:0:0:
217,239,51954,1,0,0:0:0:0:
156,235,52137,1,8,0:0:0:0:
156,235,52320,1,8,0:0:0:0:
156,235,52503,1,0,0:0:0:0:
156,235,52686,1,8,0:0:0:0:
156,235,52869,1,0,0:0:0:0:
156,235,53052,1,0,0:0:0:0:
156,235,53234,1,8,0:0:0:0:
156,235,53417,1,8,0:0:0:0:
272,212,53600,1,0,0:0:0:0:
272,212,53783,1,8,0:0:0:0:
272,212,53966,1,8,0:0:0:0:
272,212,54149,1,4,0:0:0:0:
272,212,54515,1,4,0:0:0:0:
211,206,54881,1,8,0:0:0:0:
260,299,55247,1,0,0:0:0:0:
260,299,55430,1,8,0:0:0:0:
260,299,55613,1,0,0:0:0:0:
238,288,55978,1,8,0:0:0:0:
296,268,56161,1,8,0:0:0:0:
237,281,56344,1,0,0:0:0:0:
237,281,56527,1,8,0:0:0:0:
296,268,56710,1,0,0:0:0:0:
182,200,57076,1,8,0:0:0:0:
182,200,57259,1,0,0:0:0:0:
182,200,57442,1,8,0:0:0:0:
185,185,57625,1,8,0:0:0:0:
185,185,57808,1,0,0:0:0:0:
181,177,58174,1,8,0:0:0:0:
180,177,58539,1,0,0:0:0:0:
180,178,58722,1,0,0:0:0:0:
181,177,58905,1,8,0:0:0:0:
180,177,59271,1,0,0:0:0:0:
234,186,59637,1,8,0:0:0:0:
234,186,59820,1,0,0:0:0:0:
234,186,60003,1,0,0:0:0:0:
234,186,60186,1,8,0:0:0:0:
234,186,60277,1,8,0:0:0:0:
58,148,60369,1,8,0:0:0:0:
280,229,60734,1,0,0:0:0:0:
283,224,60917,1,0,0:0:0:0:
283,224,61100,1,8,0:0:0:0:
256,280,61283,1,0,0:0:0:0:
256,280,61466,1,8,0:0:0:0:
251,255,61649,1,0,0:0:0:0:
229,225,61832,1,8,0:0:0:0:
229,225,62015,1,8,0:0:0:0:
210,219,62198,1,0,0:0:0:0:
210,219,62381,1,8,0:0:0:0:
210,219,62564,1,8,0:0:0:0:
181,203,62747,1,0,0:0:0:0:
177,194,62930,1,12,0:0:0:0:
177,194,63295,1,12,0:0:0:0:
177,194,63661,1,0,0:0:0:0:
181,190,63844,1,0,0:0:0:0:
181,190,64027,1,8,0:0:0:0:
181,190,64210,1,0,0:0:0:0:
181,190,64393,1,8,0:0:0:0:
181,190,64576,1,8,0:0:0:0:
181,190,64759,1,0,0:0:0:0:
181,190,64942,1,8,0:0:0:0:
181,190,65125,1,8,0:0:0:0:
183,184,65308,1,0,0:0:0:0:
183,184,65491,1,0,0:0:0:0:
183,184,65674,1,8,0:0:0:0:
183,184,65856,1,0,0:0:0:0:
211,150,66039,1,0,0:0:0:0:
183,184,66131,1,0,0:0:0:0:
183,184,66222,1,0,0:0:0:0:
211,150,66405,1,0,0:0:0:0:
211,150,66497,1,0,0:0:0:0:
211,150,66588,1,0,0:0:0:0:
383,282,66954,1,0,0:0:0:0:
383,282,67320,1,0,0:0:0:0:
383,282,67686,1,0,0:0:0:0:
372,250,67869,1,8,0:0:0:0:
372,250,68052,1,0,0:0:0:0:
164,222,68417,1,0,0:0:0:0:
164,222,68783,1,0,0:0:0:0:
191,234,69149,1,0,0:0:0:0:
191,234,69241,1,0,0:0:0:0:
191,234,69332,1,0,0:0:0:0:
327,232,69515,1,8,0:0:0:0:
164,222,69881,1,8,0:0:0:0:
164,222,70247,1,8,0:0:0:0:
198,273,70613,1,8,0:0:0:0:
198,273,70795,1,0,0:0:0:0:
198,273,70978,1,8,0:0:0:0:
198,273,71344,1,8,0:0:0:0:
198,273,71710,1,8,0:0:0:0:
198,273,71893,1,8,0:0:0:0:
198,273,71984,1,8,0:0:0:0:
198,273,72076,1,8,0:0:0:0:
198,273,72259,1,0,0:0:0:0:
198,273,72350,1,0,0:0:0:0:
198,273,72442,1,0,0:0:0:0:
225,309,72808,1,0,0:0:0:0:
225,309,73174,1,8,0:0:0:0:
294,251,73356,1,8,0:0:0:0:
225,309,73539,1,0,0:0:0:0:
294,251,73905,1,8,0:0:0:0:
275,249,74271,1,8,0:0:0:0:
294,251,74637,1,0,0:0:0:0:
332,273,74820,1,0,0:0:0:0:
332,273,75003,1,8,0:0:0:0:
220,251,75186,1,8,0:0:0:0:
332,273,75369,1,0,0:0:0:0:
336,230,75734,1,0,0:0:0:0:
336,230,76100,1,8,0:0:0:0:
310,217,76283,1,8,0:0:0:0:
310,217,76466,1,0,0:0:0:0:
310,217,76832,1,8,0:0:0:0:
310,217,77198,1,8,0:0:0:0:
267,231,77381,1,0,0:0:0:0:
255,225,77472,1,0,0:0:0:0:
267,231,77564,1,0,0:0:0:0:
255,225,77747,1,0,0:0:0:0:
255,225,77930,1,8,0:0:0:0:
255,225,78113,1,0,0:0:0:0:
255,225,78295,1,8,0:0:0:0:
255,225,78661,1,8,0:0:0:0:
248,225,79027,1,0,0:0:0:0:
248,225,79210,1,0,0:0:0:0:
244,225,79393,1,8,0:0:0:0:
244,225,79576,1,8,0:0:0:0:
248,225,79759,1,0,0:0:0:0:
334,248,80125,1,0,0:0:0:0:
334,248,80491,1,8,0:0:0:0:
334,248,80674,1,0,0:0:0:0:
334,248,80856,1,8,0:0:0:0:
334,248,81039,1,8,0:0:0:0:
184,230,81222,1,0,0:0:0:0:
184,230,81588,1,0,0:0:0:0:
177,287,81954,1,8,0:0:0:0:
177,287,82137,1,8,0:0:0:0:
177,287,82320,1,0,0:0:0:0:
177,287,82686,1,8,0:0:0:0:
177,287,82869,1,8,0:0:0:0:
177,287,83052,1,8,0:0:0:0:
177,287,83234,1,0,0:0:0:0:
177,287,83326,1,0,0:0:0:0:
177,287,83417,1,0,0:0:0:0:
177,287,83600,1,8,0:0:0:0:
177,287,83692,1,8,0:0:0:0:
177,287,83783,1,8,0:0:0:0:
177,287,83875,1,8,0:0:0:0:
125,235,83966,1,8,0:0:0:0:
280,316,84149,1,0,0:0:0:0:
172,238,84515,1,0,0:0:0:0:
259,261,84881,1,8,0:0:0:0:
259,261,85064,1,0,0:0:0:0:
245,252,85247,1,8,0:0:0:0:
245,252,85430,1,0,0:0:0:0:
221,234,85613,1,8,0:0:0:0:
174,260,85978,1,8,0:0:0:0:
281,166,86344,1,0,0:0:0:0:
281,166,86527,1,8,0:0:0:0:
266,176,86710,1,0,0:0:0:0:
266,176,86893,1,8,0:0:0:0:
266,176,87076,1,0,0:0:0:0:
337,268,87442,1,0,0:0:0:0:
337,268,87808,1,8,0:0:0:0:
337,268,87991,1,0,0:0:0:0:
337,268,88174,1,8,0:0:0:0:
276,259,88356,1,0,0:0:0:0:
276,259,88539,1,8,0:0:0:0:
276,259,88905,1,8,0:0:0:0:
256,247,89088,1,0,0:0:0:0:
232,232,89180,1,0,0:0:0:0:
256,247,89271,1,0,0:0:0:0:
232,232,89454,1,0,0:0:0:0:
232,232,89637,1,8,0:0:0:0:
234,226,89728,1,8,0:0:0:0:
234,226,89820,1,8,0:0:0:0:
140,251,90003,1,0,0:0:0:0:
140,251,90369,1,0,0:0:0:0:
140,251,90734,1,8,0:0:0:0:
140,251,90917,1,0,0:0:0:0:
140,251,91100,1,8,0:0:0:0:
140,251,91283,1,0,0:0:0:0:
140,251,91466,1,8,0:0:0:0:
286,216,91832,1,8,0:0:0:0:
286,216,92198,1,0,0:0:0:0:
286,216,92381,1,8,0:0:0:0:
286,216,92564,1,0,0:0:0:0:
286,216,92747,1,8,0:0:0:0:
286,216,92930,1,0,0:0:0:0:
291,229,93295,1,0,0:0:0:0:
291,229,93661,1,8,0:0:0:0:
291,229,93844,1,0,0:0:0:0:
291,229,94027,1,8,0:0:0:0:
284,225,94210,1,0,0:0:0:0:
276,219,94393,1,8,0:0:0:0:
276,219,94759,1,8,0:0:0:0:
276,219,94942,1,0,0:0:0:0:
276,219,95033,1,0,0:0:0:0:
276,219,95125,1,0,0:0:0:0:
276,219,95308,1,8,0:0:0:0:
276,219,95399,1,8,0:0:0:0:
276,219,95491,1,8,0:0:0:0:
276,219,95582,1,8,0:0:0:0:
276,219,95674,1,8,0:0:0:0:
112,98,95856,1,8,0:0:0:0:
