osu file format v14

[General]
AudioFilename: audio.mp3
AudioLeadIn: 0
PreviewTime: 48204
Countdown: 0
SampleSet: Soft
StackLeniency: 0.3
Mode: 0
LetterboxInBreaks: 0
WidescreenStoryboard: 1

[Editor]
Bookmarks: 49027,49759,50491,51222,51954,52686,53417,54149,54881,60734,61466,62198,62930,63661,64393,65125,65856,66588,69515,69881,70247,70613,70978,71344,71710,72076,72442,84149,90003,95856
DistanceSpacing: 1
BeatDivisor: 4
GridSize: 4
TimelineZoom: 1.5

[Metadata]
Title:MONSTER
TitleUnicode:MONSTER
Artist:Reol
ArtistUnicode:れをる
Creator:Sotarks
Version:AKITOSHI'S EXPERT
Source:
Tags:極彩色 梅とら umetora reworu gokusaishoku haruto haruto_aizawa akitoshi corinn kin irohas mugiwarasekai pkhg davided linada sharu sharuresu chromoxx
BeatmapID:1404466
BeatmapSetID:661483

[Difficulty]
HPDrainRate:6
CircleSize:3.8
OverallDifficulty:8.3
ApproachRate:9
SliderMultiplier:1.55
SliderTickRate:1

[Events]
//Background and Video events
0,0,"BG.jpg",0,0
//Break Periods
//Storyboard Layer 0 (Background)
//Storyboard Layer 1 (Fail)
//Storyboard Layer 2 (Pass)
//Storyboard Layer 3 (Foreground)
//Storyboard Sound Samples

[TimingPoints]
735,365.853658536585,4,2,22,42,1,0
735,-133.333333333333,4,2,22,42,0,0
11344,-100,4,2,22,52,0,0
11710,-200,4,2,22,52,0,0
12350,-200,4,2,22,5,0,0
12442,-100,4,2,22,72,0,0
24149,-142.857142857143,4,2,22,62,0,0
34393,-100,4,2,22,62,0,0
47930,-200,4,2,22,62,0,0
49027,-83.3333333333333,4,2,22,82,0,1
66588,-83.3333333333333,4,2,22,82,0,0
69515,-83.3333333333333,4,2,22,92,0,1
72442,-90.9090909090909,4,2,22,82,0,0
84149,-83.3333333333333,4,2,22,82,0,0

[Colours]
Combo1 : 119,129,176
Combo2 : 255,234,159
Combo3 : 32,104,191
Combo4 : 215,92,2
SliderBorder : 255,255,255
SliderTrackOverride : 0,0,0

[HitObjects]
464,184,735,6,0,P|392:200|340:184,3,116.250004434586,2|0|0|2,1:0|1:0|1:0|1:0,0:0:0:0:
238,90,2198,2,0,P|166:106|114:90,3,116.250004434586,0|0|2|2,1:0|1:0|1:0|1:0,0:0:0:0:
22,206,3661,6,0,L|34:333,3,116.250004434586,2|0|0|0,1:0|1:0|1:0|1:0,0:0:0:0:
178,363,5125,2,0,L|190:236,3,116.250004434586,0|0|0|0,1:0|1:0|1:0|1:0,0:0:0:0:
314,162,6588,6,0,P|374:145|437:159,1,116.250004434586,2|0,1:0|1:0,0:0:0:0:
438,305,7320,2,0,P|378:322|315:308,1,116.250004434586,0|2,1:0|1:0,0:0:0:0:
189,247,8052,2,0,L|56:254,1,116.250004434586,0|0,1:0|1:0,0:0:0:0:
20,111,8783,2,0,L|153:104,1,116.250004434586,2|2,1:0|1:0,0:0:0:0:
287,93,9515,5,2,1:0:0:0:
339,234,9881,1,0,1:0:0:0:
189,247,10247,1,0,1:0:0:0:
136,104,10613,1,0,1:0:0:0:
287,93,10978,1,0,1:0:0:0:
189,247,11344,2,0,B|124:264|132:222|52:241,1,116.25,8|8,0:0|0:0,0:0:0:0:
64,220,11710,6,0,B|139:202|131:243|196:226,1,135.625,2|2,0:0|0:0,0:0:0:0:
223,197,12442,6,0,L|210:87,1,77.5,0|0,1:0|3:0,0:0:0:0:
355,242,12808,1,8,0:0:0:0:
244,299,12991,1,0,0:0:0:0:
317,145,13174,1,0,1:0:0:0:
472,213,13356,1,0,3:3:0:0:
351,344,13539,6,0,L|337:255,1,77.5,8|0,0:0|0:0,0:0:0:0:
151,212,13905,1,0,1:0:0:0:
234,324,14088,1,0,3:0:0:0:
317,145,14271,1,8,0:0:0:0:
174,223,14454,1,0,3:0:0:0:
335,242,14637,2,0,L|448:230,1,77.5,0|0,1:0|0:0,0:0:0:0:
500,77,15003,2,0,L|387:65,1,77.5,8|0,0:0|0:0,0:0:0:0:
271,31,15369,6,0,P|202:17|116:71,1,155,0|8,1:0|0:0,0:0:0:0:
202,207,15917,2,0,P|216:171|215:133,1,77.5,0|0,3:0|1:0,0:0:0:0:
103,153,16283,1,0,3:0:0:0:
167,310,16466,2,0,L|270:299,1,77.5,8|0,0:0|3:0,0:0:0:0:
383,202,16832,6,0,L|280:191,1,77.5,0|0,1:0|3:0,0:0:0:0:
452,309,17198,1,8,0:0:0:0:
493,127,17381,1,0,0:0:0:0:
493,127,17472,1,8,0:0:0:0:
493,127,17564,2,0,P|499:80|487:34,1,77.5,0|0,1:0|0:0,0:0:0:0:
347,24,17930,1,0,1:0:0:0:
392,220,18113,1,8,0:0:0:0:
183,138,18295,6,0,L|190:44,1,77.5,4|0,1:0|3:0,0:0:0:0:
303,198,18661,1,8,0:0:0:0:
168,235,18844,1,0,3:0:0:0:
272,110,19027,1,0,1:0:0:0:
392,220,19210,1,0,3:0:0:0:
263,354,19393,6,0,L|250:264,1,77.5,8|0,0:0|0:0,0:0:0:0:
183,138,19759,1,0,1:0:0:0:
126,256,19942,1,0,3:0:0:0:
303,198,20125,1,8,0:0:0:0:
158,123,20308,1,0,3:0:0:0:
297,39,20491,2,0,L|402:47,1,77.5,0|0,1:0|0:0,0:0:0:0:
486,202,20856,2,0,L|381:210,1,77.5,8|0,0:0|0:0,0:0:0:0:
274,287,21222,6,0,P|199:313|107:265,1,155,0|8,1:0|0:0,0:0:0:0:
194,119,21771,2,0,L|201:197,1,77.5,0|0,3:0|1:0,0:0:0:0:
265,29,22137,1,0,3:0:0:0:
86,103,22320,2,0,L|92:180,1,77.5,8|0,0:0|3:0,0:0:0:0:
194,307,22686,6,0,L|200:229,1,77.5,0|0,1:0|3:0,0:0:0:0:
335,100,23052,1,8,0:0:0:0:
331,261,23234,1,0,0:0:0:0:
331,261,23326,1,8,0:0:0:0:
331,261,23417,1,0,1:0:0:0:
238,126,23600,1,8,0:0:0:0:
105,220,23783,1,0,1:0:0:0:
73,217,23875,1,8,0:0:0:0:
43,209,23966,1,8,0:0:0:0:
12,202,24058,1,8,0:0:0:0:
30,191,24149,5,0,1:0:0:0:
191,172,24515,1,2,1:0:0:0:
169,10,24881,1,2,1:0:0:0:
7,28,25247,1,2,1:0:0:0:
191,172,25612,5,2,1:0:0:0:
353,154,25979,1,2,1:0:0:0:
375,316,26345,1,2,1:0:0:0:
214,335,26710,1,2,1:0:0:0:
442,227,27076,5,0,1:0:0:0:
420,65,27443,1,2,1:0:0:0:
258,83,27809,1,2,1:0:0:0:
281,246,28174,1,2,1:0:0:0:
120,265,28539,5,2,1:0:0:0:
97,102,28906,1,2,1:0:0:0:
258,83,29272,1,2,1:0:0:0:
281,246,29637,1,0,1:0:0:0:
97,102,30003,6,0,L|81:218,2,108.499996688843,0|2|2,1:0|1:0|1:0,0:0:0:0:
227,4,31100,1,2,1:0:0:0:
363,92,31466,6,0,L|476:82,2,108.499996688843,2|2|0,1:0|1:0|1:0,0:0:0:0:
223,176,32564,1,2,1:0:0:0:
308,314,32930,6,0,B|362:327|362:327|430:311,1,108.499996688843,2|2,1:0|1:0,0:0:0:0:
328,177,33661,2,0,B|274:164|274:164|206:180,1,108.499996688843,0|2,1:0|1:0,0:0:0:0:
50,249,34393,6,0,L|39:110,1,116.25,6|0,1:0|1:0,0:0:0:0:
40,133,34759,1,10,0:0:0:0:
230,184,34942,1,2,0:0:0:0:
230,184,35033,1,0,1:0:0:0:
230,184,35125,2,0,L|304:171,1,38.75,0|0,1:0|1:0,0:0:0:0:
319,94,35308,2,0,L|393:107,1,38.75,10|8,0:0|3:0,0:0:0:0:
427,168,35491,1,8,0:0:0:0:
443,202,35582,1,8,3:0:0:0:
443,240,35674,1,8,3:0:0:0:
436,277,35765,1,4,3:0:0:0:
416,310,35856,6,0,B|362:288|362:288|249:305,1,155,2|8,1:0|0:0,0:0:0:0:
152,329,36405,1,0,3:0:0:0:
215,187,36588,1,2,1:0:0:0:
279,327,36771,1,0,1:0:0:0:
107,235,36954,2,0,L|11:247,1,77.5,8|0,0:0|0:0,0:0:0:0:
141,114,37320,6,0,P|208:83|302:130,1,155,2|8,1:0|0:0,0:0:0:0:
215,187,37869,1,0,3:0:0:0:
113,116,38052,1,2,1:0:0:0:
155,265,38234,1,0,1:0:0:0:
281,107,38417,1,10,0:0:0:0:
102,30,38600,1,10,0:0:0:0:
102,30,38692,1,8,0:0:0:0:
102,30,38783,6,0,L|14:39,1,77.5,2|2,1:0|3:0,0:0:0:0:
180,184,39149,2,0,L|268:193,1,77.5,8|0,0:0|3:0,0:0:0:0:
411,213,39515,1,0,1:0:0:0:
352,69,39698,1,2,1:0:0:0:
323,276,39881,1,10,0:0:0:0:
426,121,40064,1,0,1:0:0:0:
218,93,40247,6,0,L|114:98,1,77.5,2|2,1:0|0:0,0:0:0:0:
5,225,40613,2,0,L|109:230,1,77.5,10|2,0:0|0:0,0:0:0:0:
237,239,40978,1,0,1:0:0:0:
111,329,41161,1,2,1:0:0:0:
175,121,41344,1,8,0:0:0:0:
371,212,41527,1,8,0:0:0:0:
371,212,41619,1,8,0:0:0:0:
371,212,41710,6,0,L|356:370,1,155,6|8,1:0|0:0,0:0:0:0:
259,264,42259,1,0,3:0:0:0:
376,119,42442,1,2,1:0:0:0:
469,280,42625,1,0,1:0:0:0:
286,162,42808,2,0,L|181:167,1,77.5,8|0,0:0|0:0,0:0:0:0:
68,42,43174,6,0,B|125:47|125:47|168:33|168:33|244:38,1,155,2|8,1:0|0:0,0:0:0:0:
188,148,43722,1,0,3:0:0:0:
42,19,43905,1,2,1:0:0:0:
65,211,44088,1,0,1:0:0:0:
220,36,44271,1,10,0:0:0:0:
34,117,44454,1,2,3:0:0:0:
268,219,44637,5,0,1:0:0:0:
407,4,44820,1,10,0:0:0:0:
477,249,45003,1,10,0:0:0:0:
477,249,45094,2,0,L|462:339,1,77.5,8|0,0:0|1:0,0:0:0:0:
393,376,45369,1,8,0:0:0:0:
173,244,45552,1,10,0:0:0:0:
173,244,45643,1,8,0:0:0:0:
173,244,45734,1,0,1:0:0:0:
414,160,45917,1,10,0:0:0:0:
414,160,46009,1,8,0:0:0:0:
414,160,46100,6,0,B|435:112|435:112|420:5,1,155,6|0,1:0|1:0,0:0:0:0:
331,97,46649,1,2,1:0:0:0:
505,211,46832,1,8,0:0:0:0:
258,242,47015,1,0,1:0:0:0:
420,11,47198,1,2,1:0:0:0:
382,326,47381,1,4,1:0:0:0:
382,326,47930,6,0,B|418:319|440:348|440:348|376:374|346:325|286:356,1,213.125
262,377,49027,5,2,1:0:0:0:
201,137,49210,1,2,3:0:0:0:
438,208,49393,1,10,0:0:0:0:
300,241,49576,1,2,3:0:0:0:
239,1,49759,5,2,1:0:0:0:
163,273,49942,1,2,3:0:0:0:
338,104,50125,1,10,0:0:0:0:
201,137,50308,1,2,3:0:0:0:
438,208,50491,5,2,1:0:0:0:
262,377,50674,1,2,3:0:0:0:
201,137,50857,1,10,0:0:0:0:
300,241,51040,1,2,3:0:0:0:
64,170,51222,6,0,L|76:43,1,92.9999971618653,2|0,1:0|0:0,0:0:0:0:
330,12,51588,2,0,L|341:128,1,92.9999971618653,10|0,0:0|0:0,0:0:0:0:
363,383,51954,5,2,1:0:0:0:
222,184,52137,1,2,3:0:0:0:
465,166,52320,1,10,0:0:0:0:
350,244,52503,1,2,3:0:0:0:
208,44,52686,5,2,1:0:0:0:
235,322,52869,1,2,3:0:0:0:
336,104,53052,1,10,0:0:0:0:
222,184,53235,1,2,3:0:0:0:
465,166,53418,5,2,1:0:0:0:
363,383,53601,1,2,3:0:0:0:
222,184,53784,1,10,0:0:0:0:
350,244,53967,1,2,3:0:0:0:
107,262,54149,6,0,L|5:268,1,92.9999971618653,2|0,1:0|0:0,0:0:0:0:
116,38,54515,2,0,L|210:44,1,92.9999971618653,10|0,0:0|0:0,0:0:0:0:
465,166,54881,5,4,1:0:0:0:
482,178,55247,2,0,L|486:72,1,92.9999971618653,10|2,0:0|3:0,0:0:0:0:
271,181,55613,2,0,L|275:287,1,92.9999971618653,2|0,1:0|3:0,0:0:0:0:
360,78,55978,1,10,0:0:0:0:
100,61,56161,6,0,P|37:74|-19:66,1,92.9999971618653,2|0,3:0|1:0,0:0:0:0:
112,224,56527,2,0,P|91:285|56:329,1,92.9999971618653,2|8,3:0|0:0,0:0:0:0:
275,274,56893,2,0,P|317:322|338:374,1,92.9999971618653,2|0,3:0|1:0,0:0:0:0:
204,382,57259,1,2,3:0:0:0:
225,169,57442,1,10,0:0:0:0:
414,269,57625,6,0,L|516:259,1,92.9999971618653,2|0,3:0|1:0,0:0:0:0:
423,102,57991,1,2,3:0:0:0:
275,274,58174,2,0,P|270:328|286:374,1,92.9999971618653,10|0,0:0|0:0,0:0:0:0:
335,167,58539,2,0,L|324:55,1,92.9999971618653,2|0,1:0|3:0,0:0:0:0:
170,8,58905,2,0,L|159:120,1,92.9999971618653,10|0,0:0|0:0,0:0:0:0:
103,258,59271,6,0,P|50:261|7:245,1,92.9999971618653,2|0,1:0|3:0,0:0:0:0:
190,126,59637,1,10,0:0:0:0:
293,354,59820,1,0,1:0:0:0:
293,354,59911,1,0,0:0:0:0:
293,354,60003,1,2,1:0:0:0:
461,167,60186,1,8,0:0:0:0:
461,167,60277,1,0,0:0:0:0:
461,167,60369,2,0,L|453:103,1,46.4999985809327,10|8,0:0|0:0,0:0:0:0:
353,24,60552,2,0,L|345:88,1,46.4999985809327,8|8,0:0|0:0,0:0:0:0:
320,216,60734,5,4,1:0:0:0:
65,168,60917,1,0,3:0:0:0:
347,70,61100,1,8,0:0:0:0:
206,119,61283,1,0,3:0:0:0:
434,313,61466,5,0,1:0:0:0:
179,265,61649,1,0,3:0:0:0:
461,167,61832,1,8,0:0:0:0:
347,70,62015,1,0,3:0:0:0:
179,265,62198,5,0,1:0:0:0:
434,313,62381,1,0,3:0:0:0:
347,70,62564,1,8,0:0:0:0:
320,216,62747,1,0,3:0:0:0:
65,168,62930,6,0,L|74:66,1,92.9999971618653,0|0,1:0|0:0,0:0:0:0:
320,216,63295,2,0,L|329:318,1,92.9999971618653,8|0,0:0|0:0,0:0:0:0:
206,119,63661,5,0,1:0:0:0:
461,167,63844,1,0,3:0:0:0:
179,265,64027,1,8,0:0:0:0:
206,119,64210,1,0,3:0:0:0:
434,313,64393,5,0,1:0:0:0:
347,70,64576,1,0,3:0:0:0:
179,265,64759,1,8,0:0:0:0:
320,216,64942,1,0,3:0:0:0:
65,168,65125,5,0,1:0:0:0:
320,216,65308,1,0,3:0:0:0:
38,314,65491,1,8,0:0:0:0:
65,168,65674,1,0,3:0:0:0:
293,362,65856,5,8,0:0:0:0:
327,349,65947,1,8,0:0:0:0:
362,337,66038,1,8,0:0:0:0:
398,325,66130,1,8,0:0:0:0:
434,313,66221,1,8,0:0:0:0:
497,179,66405,1,8,0:0:0:0:
461,167,66497,1,8,0:0:0:0:
425,155,66588,6,0,L|417:50,1,92.9999971618653,8|0,0:0|0:0,0:0:0:0:
188,19,66954,2,0,L|180:124,1,92.9999971618653,10|2,0:0|0:0,0:0:0:0:
432,247,67320,2,0,L|424:142,1,92.9999971618653,10|2,0:0|0:0,0:0:0:0:
181,111,67686,2,0,L|173:216,1,92.9999971618653,10|2,0:0|0:0,0:0:0:0:
359,346,68052,6,0,P|289:368|185:333,1,185.999994323731,0|8,1:0|0:0,0:0:0:0:
74,233,68600,1,0,0:0:0:0:
278,169,68783,2,0,L|393:163,1,92.9999971618653,0|0,1:0|0:0,0:0:0:0:
459,110,69058,1,8,3:0:0:0:
459,110,69149,2,0,P|461:72|458:52,1,46.4999985809327,4|8,3:0|3:0,0:0:0:0:
361,33,69332,2,0,P|359:71|362:91,1,46.4999985809327,4|0,3:0|1:0,0:0:0:0:
397,174,69515,6,0,P|401:230|389:272,1,92.9999971618653,12|0,0:0|0:0,0:0:0:0:
74,345,69881,5,14,0:0:0:0:
287,212,70064,1,2,0:0:0:0:
0,57,70247,5,14,0:0:0:0:
159,254,70430,1,2,0:0:0:0:
364,1,70613,5,12,0:0:0:0:
145,121,70795,1,2,0:0:0:0:
503,174,70978,5,12,0:0:0:0:
230,32,71161,1,2,0:0:0:0:
327,381,71344,5,14,0:0:0:0:
419,85,71527,1,2,0:0:0:0:
62,175,71710,5,14,0:0:0:0:
41,216,71801,1,8,0:0:0:0:
37,262,71892,1,10,0:0:0:0:
49,307,71984,1,8,0:0:0:0:
74,345,72075,1,10,0:0:0:0:
397,174,72259,1,10,0:0:0:0:
388,128,72350,1,8,0:0:0:0:
359,96,72442,6,0,B|302:125|302:125|176:117,2,170.500005203247,2|14|6,1:0|0:0|1:0,0:0:0:0:
274,0,73356,1,0,0:0:0:0:
193,150,73539,2,0,L|305:158,1,85.2500026016236,14|2,0:0|0:0,0:0:0:0:
100,219,73905,6,0,P|80:132|131:53,2,170.500005203247,6|14|6,1:0|0:0|1:0,0:0:0:0:
193,150,74820,1,0,0:0:0:0:
57,97,75003,2,0,P|46:149|53:196,1,85.2500026016236,14|0,0:2|0:2,0:0:0:0:
232,322,75369,6,0,L|422:297,1,170.500005203247,6|14,1:0|0:0,0:0:0:0:
501,183,75917,1,0,3:0:0:0:
370,102,76100,2,0,P|352:148|352:189,1,85.2500026016236,6|0,1:0|3:0,0:0:0:0:
203,326,76466,2,0,P|200:283|184:244,1,85.2500026016236,14|0,0:0|3:0,0:0:0:0:
34,102,76832,6,0,P|92:50|191:37,1,170.500005203247,6|12,1:0|0:0,0:0:0:0:
370,102,77381,1,0,0:0:0:0:
370,102,77472,1,8,0:0:0:0:
370,102,77564,2,0,L|381:7,1,85.2500026016236,4|0,1:0|0:0,0:0:0:0:
456,208,77930,1,0,1:0:0:0:
255,168,78113,1,8,0:0:0:0:
477,83,78295,6,0,L|488:-12,1,85.2500026016236,6|0,1:0|0:0,0:0:0:0:
344,192,78661,2,0,L|355:287,1,85.2500026016236,14|0,0:0|0:0,0:0:0:0:
178,366,79027,2,0,P|124:374|35:333,1,127.875003902435,6|0,1:0|0:0,0:0:0:0:
16,274,79393,2,0,L|27:179,1,85.2500026016236,14|2,0:0|0:0,0:0:0:0:
173,59,79759,6,0,P|216:56|265:69,1,85.2500026016236,6|0,1:0|0:0,0:0:0:0:
353,276,80125,2,0,P|310:279|261:266,1,85.2500026016236,12|0,0:0|0:0,0:0:0:0:
463,194,80491,2,0,L|473:328,1,127.875003902435,6|0,1:0|0:0,0:0:0:0:
393,351,80856,2,0,L|386:254,1,85.2500026016236,14|0,0:0|0:0,0:0:0:0:
317,109,81222,6,0,P|235:90|158:148,1,170.500005203247,2|14,1:0|0:0,0:0:0:0:
103,246,81771,1,0,3:0:0:0:
7,104,81954,2,0,L|17:1,1,85.2500026016236,6|0,1:0|3:0,0:0:0:0:
189,157,82320,2,0,L|202:297,1,127.875003902435,14|0,0:0|0:0,0:0:0:0:
211,369,82686,5,6,1:0:0:0:
306,168,82869,1,8,0:0:0:0:
91,224,83052,1,10,0:0:0:0:
337,288,83234,1,0,0:0:0:0:
337,288,83326,1,8,0:0:0:0:
337,288,83417,1,2,1:0:0:0:
202,70,83600,1,8,0:0:0:0:
202,70,83692,1,8,0:0:0:0:
202,70,83783,2,0,L|124:79,1,42.6250013008118,8|8,0:0|0:0,0:0:0:0:
277,13,83966,2,0,L|355:22,1,42.6250013008118,8|8,0:0|0:0,0:0:0:0:
410,74,84149,6,0,L|410:185,1,92.9999971618653,14|0,0:0|0:0,0:0:0:0:
181,214,84515,2,0,L|181:325,1,92.9999971618653,14|0,0:0|0:0,0:0:0:0:
285,97,84881,2,0,L|285:208,1,92.9999971618653,14|0,0:0|0:0,0:0:0:0:
69,97,85247,2,0,L|69:208,1,92.9999971618653,14|0,0:0|0:0,0:0:0:0:
279,291,85613,6,0,L|279:402,1,92.9999971618653,14|0,0:0|0:0,0:0:0:0:
479,263,85979,2,0,L|479:374,1,92.9999971618653,14|0,0:0|0:0,0:0:0:0:
378,144,86345,2,0,L|378:255,1,92.9999971618653,14|0,0:0|0:0,0:0:0:0:
479,81,86710,1,14,0:0:0:0:
298,36,86893,1,2,0:0:0:0:
144,141,87076,6,0,L|144:266,1,92.9999971618653,14|0,0:0|0:0,0:0:0:0:
378,237,87442,2,0,L|378:362,1,92.9999971618653,14|0,0:0|0:0,0:0:0:0:
264,125,87808,2,0,L|264:250,1,92.9999971618653,14|0,0:0|0:0,0:0:0:0:
478,125,88174,2,0,L|478:250,1,92.9999971618653,14|0,0:0|0:0,0:0:0:0:
377,8,88539,6,0,L|377:133,1,92.9999971618653,14|0,0:0|0:0,0:0:0:0:
264,306,88905,1,14,0:0:0:0:
141,165,89088,1,0,0:0:0:0:
141,165,89180,1,8,0:0:0:0:
141,165,89271,2,0,L|141:40,1,92.9999971618653,2|0,1:0|0:0,0:0:0:0:
377,101,89637,1,0,1:0:0:0:
377,138,89728,1,8,0:0:0:0:
377,175,89820,1,8,0:0:0:0:
377,212,89911,1,8,0:0:0:0:
377,249,90003,6,0,L|484:249,1,92.9999971618653,14|0,0:0|0:0,0:0:0:0:
284,64,90369,2,0,L|377:64,1,92.9999971618653,14|0,0:0|0:0,0:0:0:0:
143,179,90734,2,0,L|250:179,1,92.9999971618653,14|0,0:0|0:0,0:0:0:0:
38,94,91100,1,14,0:0:0:0:
38,280,91283,1,0,0:0:0:0:
222,95,91466,6,0,L|331:95,1,92.9999971618653,14|0,0:0|0:0,0:0:0:0:
129,280,91832,2,0,L|238:280,1,92.9999971618653,14|0,0:0|0:0,0:0:0:0:
407,94,92198,2,0,L|516:94,1,92.9999971618653,14|0,0:0|0:0,0:0:0:0:
314,279,92564,2,0,L|423:279,1,92.9999971618653,14|0,0:0|0:0,0:0:0:0:
163,182,92930,6,0,L|272:182,1,92.9999971618653,14|0,0:0|0:0,0:0:0:0:
43,31,93295,2,0,L|152:31,1,92.9999971618653,14|0,0:0|0:0,0:0:0:0:
349,182,93661,2,0,L|458:182,1,92.9999971618653,14|0,0:0|0:0,0:0:0:0:
226,90,94027,1,14,0:0:0:0:
226,276,94210,1,2,0:0:0:0:
360,52,94393,6,0,L|469:52,1,92.9999971618653,14|0,0:0|0:0,0:0:0:0:
226,183,94759,1,14,0:0:0:0:
60,19,94942,1,0,0:0:0:0:
60,19,95033,1,8,0:0:0:0:
60,19,95125,1,2,1:0:0:0:
19,247,95308,1,0,1:0:0:0:
44,285,95399,1,8,0:0:0:0:
83,310,95491,1,8,0:0:0:0:
126,325,95582,1,8,0:0:0:0:
172,330,95674,1,8,0:0:0:0:
218,330,95765,1,8,0:0:0:0:
262,317,95856,5,2,0:0:0:0:
