osu file format v14

[General]
AudioFilename: audio.mp3
AudioLeadIn: 0
PreviewTime: 48204
Countdown: 0
SampleSet: Soft
StackLeniency: 0.6
Mode: 0
LetterboxInBreaks: 0
WidescreenStoryboard: 1

[Editor]
Bookmarks: 735,12442,24149,35856,49027,72442,84149,95856
DistanceSpacing: 0.4
BeatDivisor: 4
GridSize: 16
TimelineZoom: 1.5

[Metadata]
Title:MONSTER
TitleUnicode:MONSTER
Artist:Reol
ArtistUnicode:れをる
Creator:Sotarks
Version:SHARU'S EXTRA
Source:
Tags:極彩色 梅とら umetora reworu gokusaishoku haruto haruto_aizawa akitoshi corinn kin irohas mugiwarasekai pkhg davided linada sharu sharuresu chromoxx
BeatmapID:1401861
BeatmapSetID:661483

[Difficulty]
HPDrainRate:6.2
CircleSize:4
OverallDifficulty:9
ApproachRate:9
SliderMultiplier:1.92
SliderTickRate:1

[Events]
//Background and Video events
0,0,"BG.jpg",0,0
//Break Periods
//Storyboard Layer 0 (Background)
//Storyboard Layer 1 (Fail)
//Storyboard Layer 2 (Pass)
//Storyboard Layer 3 (Foreground)
//Storyboard Sound Samples

[TimingPoints]
735,365.853658536585,4,2,22,42,1,0
735,-192.307692307692,4,2,22,42,0,0
11344,-98.0392156862745,4,2,22,52,0,0
12350,-161.290322580645,4,2,22,5,0,0
12442,-98.0392156862745,4,2,22,72,0,0
24149,-121.951219512195,4,2,22,62,0,0
34393,-98.0392156862744,4,2,22,62,0,0
35856,-98.0392156862745,4,2,22,62,0,0
48295,-192.307692307692,4,2,22,62,0,0
48661,-121.951219512195,4,2,22,62,0,0
49027,-81.9672131147541,4,2,22,82,0,1
66588,-75.7575757575758,4,2,22,82,0,0
69515,-75.7575757575758,4,2,22,92,0,1
72442,-98.0392156862745,4,2,22,82,0,0

[Colours]
Combo1 : 119,129,176
Combo2 : 255,234,159
Combo3 : 32,104,191
Combo4 : 215,92,2
SliderBorder : 255,255,255
SliderTrackOverride : 0,0,0

[HitObjects]
43,200,735,6,0,P|87:201|148:190,1,99.839999390625,2|0,1:0|0:0,0:0:0:0:
288,153,1283,2,0,P|266:152|225:160,2,49.9199996953125,2|0|0,0:0|0:0|0:0,0:0:0:0:
201,305,1832,1,2,1:0:0:0:
201,305,2015,2,0,P|211:286|226:249,1,49.9199996953125,2|0,0:0|0:0,0:0:0:0:
125,144,2381,2,0,P|130:164|148:202,1,49.9199996953125,2|0,0:0|0:0,0:0:0:0:
336,164,2747,1,0,0:0:0:0:
336,164,2930,2,0,L|267:147,1,49.9199996953125,2|0,1:0|0:0,0:0:0:0:
76,155,3295,2,0,L|143:139,1,49.9199996953125,2|0,1:0|0:0,0:0:0:0:
201,31,3661,6,0,B|207:139,1,99.839999390625,2|0,1:0|0:0,0:0:0:0:
306,66,4210,2,0,L|320:5,2,49.9199996953125,2|0|0,0:0|0:0|0:0,0:0:0:0:
291,154,4759,1,0,1:0:0:0:
370,229,4942,2,0,B|374:179,1,49.9199996953125,2|0,0:0|0:0,0:0:0:0:
467,149,5308,1,0,0:0:0:0:
433,288,5491,1,0,1:0:0:0:
433,288,5674,2,0,P|446:271|456:231,1,49.9199996953125
285,245,6039,2,0,P|294:271|313:296,2,49.9199996953125
421,378,6588,6,0,P|373:363|305:380,1,99.839999390625,2|0,1:0|0:0,0:0:0:0:
208,304,7137,2,0,P|189:314|152:328,1,49.9199996953125,2|0,0:0|0:0,0:0:0:0:
59,354,7503,1,0,0:0:0:0:
79,201,7686,1,2,1:0:0:0:
79,201,7869,2,0,P|86:234|85:266,1,49.9199996953125,2|0,0:0|0:0,0:0:0:0:
175,201,8234,2,0,P|226:190|285:189,1,99.839999390625,2|0,0:0|0:0,0:0:0:0:
447,219,8783,2,0,P|454:196|458:171,1,49.9199996953125,2|0,1:0|0:0,0:0:0:0:
353,78,9149,1,2,1:0:0:0:
360,95,9515,6,0,L|364:214,1,99.839999390625,2|0,1:0|0:0,0:0:0:0:
458,170,10064,2,0,P|454:193|446:219,1,49.9199996953125,2|0,0:0|0:0,0:0:0:0:
465,330,10430,1,0,0:0:0:0:
456,312,10795,6,0,P|396:286|331:322,1,124.799999238281,2|0,0:0|0:0,0:0:0:0:
284,353,11344,5,8,0:0:0:0:
93,257,11619,1,8,0:0:0:0:
102,250,11710,6,0,B|90:211|55:189|55:189|120:136|177:199|177:199|201:278|298:256,1,342.720002091797,2|2,0:0|0:0,0:0:0:0:
284,353,12442,6,0,P|264:309|282:255,1,97.9200005976563,0|0,1:0|3:0,0:0:0:0:
456,68,12808,1,8,0:0:0:0:
347,302,12991,1,0,0:0:0:0:
256,64,13174,1,0,1:0:0:0:
492,209,13356,1,0,3:3:0:0:
249,82,13539,2,0,L|262:193,1,97.9200005976563,8|0,0:0|0:0,0:0:0:0:
348,199,13814,1,0,0:0:0:0:
343,217,13905,6,0,P|395:226|425:280,1,97.9200005976563,0|0,1:0|3:0,0:0:0:0:
360,58,14271,5,8,0:0:0:0:
347,302,14454,1,0,3:0:0:0:
189,28,14637,5,0,1:0:0:0:
237,337,14820,1,0,0:0:0:0:
35,102,15003,5,8,0:0:0:0:
122,338,15186,2,0,L|130:254,1,48.9600002988281
216,124,15369,6,0,L|118:114,1,97.9200005976563,0|0,1:0|3:0,0:0:0:0:
276,262,15734,1,8,0:0:0:0:
64,30,15917,1,0,3:0:0:0:
310,93,16100,1,0,1:0:0:0:
101,253,16283,1,0,3:0:0:0:
385,137,16466,2,0,B|400:88|400:88|381:41,1,97.9200005976563,8|0,0:0|3:0,0:0:0:0:
167,26,16832,6,0,B|149:69|149:69|164:118,1,97.9200005976563,0|0,1:0|3:0,0:0:0:0:
262,250,17198,2,0,L|267:152,1,97.9200005976563,8|0,0:0|0:0,0:0:0:0:
257,75,17472,1,8,0:0:0:0:
258,45,17564,1,0,1:0:0:0:
385,137,17747,1,0,0:0:0:0:
158,201,17930,1,0,1:0:0:0:
371,285,18113,2,0,L|420:288,1,48.9600002988281,8|0,0:0|0:0,0:0:0:0:
159,339,18295,6,0,L|42:333,1,97.9200005976563,4|0,1:0|3:0,0:0:0:0:
396,268,18661,2,0,L|513:262,1,97.9200005976563,8|0,0:0|3:0,0:0:0:0:
305,202,19027,1,0,1:0:0:0:
455,367,19210,1,0,3:0:0:0:
368,143,19393,2,0,P|324:119|260:127,1,97.9200005976563,8|0,0:0|0:0,0:0:0:0:
194,81,19667,1,0,0:0:0:0:
178,94,19759,6,0,L|188:201,1,97.9200005976563,0|0,1:0|3:0,0:0:0:0:
142,337,20125,5,8,0:0:0:0:
98,109,20308,1,0,3:0:0:0:
278,354,20491,5,0,1:0:0:0:
239,36,20674,1,0,0:0:0:0:
409,306,20856,5,8,0:0:0:0:
389,50,21039,2,0,P|390:74|395:98,1,48.9600002988281,0|0,0:0|0:0,0:0:0:0:
445,214,21222,6,0,B|397:204|397:204|342:230,1,97.9200005976563,0|0,1:0|3:0,0:0:0:0:
225,354,21588,2,0,L|338:342,1,97.9200005976563,8|0,0:0|3:0,0:0:0:0:
480,105,21954,1,0,1:0:0:0:
409,306,22137,1,0,3:0:0:0:
262,113,22320,1,8,0:0:0:0:
470,218,22503,1,0,3:0:0:0:
136,167,22686,6,0,B|230:147|191:218|304:192,1,146.880000896484,0|0,1:0|0:0,0:0:0:0:
274,197,23052,1,8,0:0:0:0:
175,292,23234,2,0,P|165:262|164:224,1,48.9600002988281,0|8,0:0|0:0,0:0:0:0:
262,113,23417,1,0,1:0:0:0:
330,326,23600,2,0,P|340:296|341:258,1,48.9600002988281,8|8,0:0|0:0,0:0:0:0:
412,77,23783,5,0,1:0:0:0:
361,97,23875,1,8,0:0:0:0:
343,147,23966,1,8,0:0:0:0:
360,198,24058,1,8,0:0:0:0:
409,218,24149,1,0,1:0:0:0:
81,96,24515,6,0,P|113:118|118:171,1,78.7200012011719,2|2,1:0|0:0,0:0:0:0:
84,293,24881,1,2,1:0:0:0:
39,172,25064,1,2,0:0:0:0:
143,235,25247,2,0,P|183:231|243:220,1,78.7200012011719,2|0,1:0|0:0,0:0:0:0:
347,191,25613,6,0,P|332:230|331:285,1,78.7200012011719,2|0,1:0|0:0,0:0:0:0:
512,348,25978,2,0,P|508:308|493:272,1,78.7200012011719,2|2,1:0|0:0,0:0:0:0:
370,366,26344,1,2,1:0:0:0:
455,195,26527,1,2,0:0:0:0:
407,276,26710,1,2,1:0:0:0:
352,197,26893,1,2,0:0:0:0:
270,331,27076,1,0,1:0:0:0:
484,114,27442,6,0,P|445:111|396:129,1,78.7200012011719,2|2,1:0|0:0,0:0:0:0:
275,188,27808,2,0,P|313:185|363:203,1,78.7200012011719,2|2,1:0|0:0,0:0:0:0:
455,195,28174,1,2,1:0:0:0:
407,276,28356,1,2,0:0:0:0:
290,63,28539,6,0,P|252:60|202:78,1,78.7200012011719,2|2,1:0|0:0,0:0:0:0:
118,47,28905,2,0,P|125:89|135:134,1,78.7200012011719,2|2,1:0|0:0,0:0:0:0:
230,167,29271,2,0,P|222:211|213:254,1,78.7200012011719,2|2,1:0|0:0,0:0:0:0:
351,196,29637,1,0,1:0:0:0:
227,265,29820,1,2,0:0:0:0:
133,125,30003,1,0,1:0:0:0:
430,122,30369,6,0,P|449:156|452:215,1,78.7200012011719,2|2,1:0|0:0,0:0:0:0:
349,274,30734,2,0,P|349:235|352:164,1,78.7200012011719,2|2,1:0|0:0,0:0:0:0:
256,233,31100,1,2,1:0:0:0:
450,294,31283,1,2,0:0:0:0:
502,98,31466,6,0,P|453:106|416:138,1,78.7200012011719,2|0,1:0|0:0,0:0:0:0:
351,196,31832,1,2,1:0:0:0:
200,106,32015,2,0,P|251:104|290:137,1,78.7200012011719,2|0,0:0|1:0,0:0:0:0:
391,291,32381,2,0,P|351:292|312:291,1,78.7200012011719,2|2,0:0|1:0,0:0:0:0:
181,235,32747,1,2,0:0:0:0:
190,352,32930,6,0,P|187:299|179:224,1,118.080001801758,2|0,1:0|0:0,0:0:0:0:
181,235,33295,5,2,1:0:0:0:
69,335,33478,1,0,0:0:0:0:
24,192,33661,1,0,1:0:0:0:
95,248,33844,1,0,0:0:0:0:
115,144,34027,6,0,P|157:130|203:144,1,78.7200012011719,2|2,1:0|0:0,0:0:0:0:
180,234,34393,6,0,L|190:132,1,97.9200005976563,6|0,1:0|0:0,0:0:0:0:
283,22,34667,1,0,1:0:0:0:
276,32,34759,2,0,B|268:92|268:92|284:123|284:123|276:173,1,146.880000896484,10|0,0:0|1:0,0:0:0:0:
268,196,35125,2,0,L|344:181,1,48.9600002988281,0|0,1:0|1:0,0:0:0:0:
512,152,35308,2,0,L|436:137,1,48.9600002988281,10|8,0:0|3:0,0:0:0:0:
386,95,35491,5,8,0:0:0:0:
388,143,35582,1,8,3:0:0:0:
391,192,35674,1,8,3:0:0:0:
394,240,35765,1,4,3:0:0:0:
396,283,35856,6,0,P|345:265|279:294,1,97.9200005976563,2|0,1:0|3:0,0:0:0:0:
117,365,36222,1,8,0:0:0:0:
316,186,36405,1,0,3:0:0:0:
69,246,36588,1,2,1:0:0:0:
69,246,36771,1,0,1:0:0:0:
197,287,36954,2,0,P|197:239|187:162,1,97.9200005976563,8|0,0:0|0:0,0:0:0:0:
283,22,37320,5,2,1:0:0:0:
402,158,37503,2,0,L|305:139,1,97.9200005976563,0|8,3:0|0:0,0:0:0:0:
482,68,37869,1,0,3:0:0:0:
335,257,38052,1,2,1:0:0:0:
335,257,38234,1,0,1:0:0:0:
463,214,38417,2,0,P|458:263|458:311,1,97.9200005976563,10|10,0:0|0:0,0:0:0:0:
362,348,38692,5,8,0:0:0:0:
348,352,38783,2,0,L|249:344,1,97.9200005976563,2|2,1:0|3:0,0:0:0:0:
95,186,39149,1,8,0:0:0:0:
335,257,39332,1,0,3:0:0:0:
123,326,39515,1,0,1:0:0:0:
123,326,39698,1,2,1:0:0:0:
223,143,39881,2,0,P|227:191|228:240,1,97.9200005976563,10|0,0:0|1:0,0:0:0:0:
335,163,40247,5,2,1:0:0:0:
174,70,40430,2,0,P|220:55|266:68,1,97.9200005976563,2|10,0:0|0:0,0:0:0:0:
436,218,40795,1,2,0:0:0:0:
223,143,40978,1,0,1:0:0:0:
223,143,41161,1,2,1:0:0:0:
454,79,41344,1,8,0:0:0:0:
338,287,41527,1,8,0:0:0:0:
316,248,41619,1,8,0:0:0:0:
319,204,41710,5,6,1:0:0:0:
512,155,41893,1,0,0:0:0:0:
356,37,42076,2,0,L|369:139,1,97.9200005976563,8|0,0:0|3:0,0:0:0:0:
464,343,42442,1,2,1:0:0:0:
464,343,42625,1,0,1:0:0:0:
506,232,42808,2,0,P|458:232|381:242,1,97.9200005976563,8|0,0:0|0:0,0:0:0:0:
122,305,43174,5,2,1:0:0:0:
223,143,43356,2,0,L|210:245,1,97.9200005976563,0|8,3:0|0:0,0:0:0:0:
118,90,43722,1,0,3:0:0:0:
328,224,43905,1,2,1:0:0:0:
328,224,44088,1,0,1:0:0:0:
101,218,44271,2,0,P|53:218|-24:228,1,97.9200005976563,10|2,0:0|3:0,0:0:0:0:
3,223,44545,1,0,0:0:0:0:
3,223,44637,5,0,1:0:0:0:
98,317,44820,1,10,0:0:0:0:
200,145,45003,1,10,0:0:0:0:
184,157,45094,2,0,P|176:190|180:226,1,48.9600002988281,8|0,0:0|0:0,0:0:0:0:
190,331,45277,1,0,1:0:0:0:
205,342,45369,2,0,P|213:309|209:273,1,48.9600002988281,8|0,0:0|0:0,0:0:0:0:
108,107,45552,5,10,0:0:0:0:
100,124,45643,1,8,0:0:0:0:
99,143,45734,1,0,1:0:0:0:
298,276,45917,5,10,0:0:0:0:
321,244,46009,1,8,0:0:0:0:
322,205,46100,5,6,1:0:0:0:
260,141,46283,1,0,0:0:0:0:
287,46,46466,1,0,1:0:0:0:
394,33,46649,1,2,1:0:0:0:
443,139,46832,5,8,0:0:0:0:
108,107,47015,1,0,1:0:0:0:
457,266,47198,5,2,1:0:0:0:
86,302,47381,1,4,1:0:0:0:
320,243,48295,5,0,0:0:0:0:
332,126,48661,2,0,P|324:189|320:247,1,118.080001801758
306,262,49027,5,2,1:0:0:0:
422,138,49210,1,2,3:0:0:0:
217,254,49393,1,10,0:0:0:0:
403,216,49576,1,2,3:0:0:0:
129,130,49759,5,2,1:0:0:0:
416,221,49942,1,2,3:0:0:0:
88,251,50125,1,10,0:0:0:0:
350,112,50308,1,2,3:0:0:0:
155,358,50491,5,2,1:0:0:0:
380,39,50674,1,2,3:0:0:0:
347,355,50856,5,10,0:0:0:0:
133,26,51039,1,2,3:0:0:0:
301,265,51222,6,0,B|207:221|222:305|114:263,1,175.679992762207,2|0,1:0|0:0,0:0:0:0:
43,236,51588,2,0,B|98:209|98:209|70:351,1,175.679992762207,10|0,0:0|0:0,0:0:0:0:
58,337,51954,5,2,1:0:0:0:
180,187,52137,1,2,3:0:0:0:
348,350,52320,1,10,0:0:0:0:
162,290,52503,1,2,3:0:0:0:
351,117,52686,5,2,1:0:0:0:
176,282,52869,1,2,3:0:0:0:
441,197,53052,1,10,0:0:0:0:
224,102,53234,1,2,3:0:0:0:
443,344,53417,5,2,1:0:0:0:
418,44,53600,1,2,3:0:0:0:
246,346,53783,5,10,0:0:0:0:
307,29,53966,1,2,3:0:0:0:
114,162,54149,6,0,P|192:148|235:230,1,175.679992762207,2|0,1:0|0:0,0:0:0:0:
173,325,54515,2,0,B|148:287|148:287|168:195,1,117.119995174805,10|0,0:0|0:0,0:0:0:0:
348,317,54789,1,0,0:0:0:0:
362,335,54881,6,0,P|296:343|215:346,1,117.119995174805,4|0,1:0|0:0,0:0:0:0:
340,114,55247,2,0,P|398:117|456:124,1,117.119995174805,10|2,0:0|3:0,0:0:0:0:
479,236,55613,2,0,B|418:224|418:224|375:245|375:245|281:227,1,175.679992762207,2|0,1:0|0:0,0:0:0:0:
282,226,55978,1,10,0:0:0:0:
63,34,56161,2,0,L|76:150,1,117.119995174805,2|0,3:0|1:0,0:0:0:0:
101,321,56527,5,2,3:0:0:0:
191,88,56710,1,8,0:0:0:0:
209,365,56893,5,2,3:0:0:0:
76,150,57076,1,0,1:0:0:0:
323,345,57259,5,2,3:0:0:0:
310,83,57442,2,0,P|368:80|419:133,1,117.119995174805,10|2,0:0|3:0,0:0:0:0:
385,241,57716,1,0,0:0:0:0:
370,259,57808,6,0,B|329:216|329:216|346:142,1,117.119995174805,0|2,1:0|3:0,0:0:0:0:
501,46,58174,2,0,P|497:132|489:229,1,175.679992762207,10|0,0:0|0:0,0:0:0:0:
502,247,58539,1,2,1:0:0:0:
323,345,58722,1,0,3:0:0:0:
411,115,58905,1,10,0:0:0:0:
426,316,59088,1,0,0:0:0:0:
216,159,59271,5,2,1:0:0:0:
408,310,59454,1,0,3:0:0:0:
138,215,59637,1,10,0:0:0:0:
373,220,59820,1,0,1:0:0:0:
227,334,60003,6,0,P|218:309|218:272,1,58.5599975874024,2|0,1:0|0:0,0:0:0:0:
324,62,60186,2,0,P|323:91|314:118,1,58.5599975874024,8|0,0:0|0:0,0:0:0:0:
68,264,60369,1,10,0:0:0:0:
51,214,60460,1,8,0:0:0:0:
65,163,60552,1,8,0:0:0:0:
107,132,60643,1,8,0:0:0:0:
159,132,60734,5,4,1:0:0:0:
172,305,60917,1,0,3:0:0:0:
141,26,61100,1,8,0:0:0:0:
222,205,61283,1,0,3:0:0:0:
12,48,61466,6,0,P|70:41|142:41,1,117.119995174805,0|0,1:0|3:0,0:0:0:0:
411,115,61832,1,8,0:0:0:0:
138,215,62015,1,0,3:0:0:0:
369,40,62198,5,0,1:0:0:0:
335,319,62381,1,0,3:0:0:0:
141,26,62564,5,8,0:0:0:0:
180,346,62747,1,0,3:0:0:0:
368,188,62930,6,0,B|399:137|399:137|341:99|294:145,1,175.679992762207,0|0,1:0|0:0,0:0:0:0:
130,230,63295,2,0,B|164:229|190:243|190:243|213:229|239:219|239:219|263:237|299:238,1,175.679992762207,8|0,0:0|0:0,0:0:0:0:
313,245,63661,5,0,1:0:0:0:
168,144,63844,1,0,3:0:0:0:
294,341,64027,1,8,0:0:0:0:
293,145,64210,1,0,3:0:0:0:
116,332,64393,5,0,1:0:0:0:
269,154,64576,1,0,3:0:0:0:
11,136,64759,1,8,0:0:0:0:
207,264,64942,1,0,3:0:0:0:
154,24,65125,5,0,1:0:0:0:
211,287,65308,1,0,3:0:0:0:
424,25,65491,5,8,0:0:0:0:
350,360,65674,1,0,3:0:0:0:
445,198,65856,5,8,0:0:0:0:
403,189,65948,1,8,0:0:0:0:
363,181,66039,1,8,0:0:0:0:
322,174,66131,1,8,0:0:0:0:
282,165,66222,1,8,0:0:0:0:
405,43,66405,6,0,L|386:124,1,58.5599975874024,8|8,0:0|0:0,0:0:0:0:
224,228,66588,6,0,B|194:171|194:171|215:112,1,126.719999613281,8|0,0:0|0:0,0:0:0:0:
29,112,66954,5,10,0:0:0:0:
243,25,67137,1,2,0:0:0:0:
18,231,67320,5,10,0:0:0:0:
310,163,67503,1,2,0:0:0:0:
3,350,67686,5,10,0:0:0:0:
344,324,67869,1,2,0:0:0:0:
130,137,68052,6,0,B|156:176|156:176|147:271,1,126.719999613281,0|2,1:0|0:0,0:0:0:0:
66,313,68326,1,0,3:0:0:0:
90,317,68417,2,0,L|240:299,1,126.719999613281,8|0,0:0|0:0,0:0:0:0:
41,235,68783,1,0,1:0:0:0:
296,366,68966,5,0,0:0:0:0:
327,325,69058,1,8,3:0:0:0:
327,274,69149,1,4,3:0:0:0:
300,230,69241,1,8,3:0:0:0:
263,195,69332,1,4,3:0:0:0:
251,145,69424,1,0,1:0:0:0:
269,98,69515,6,0,B|328:119|390:119|390:119|357:133|328:165,1,190.079999419922,12|0,0:0|0:0,0:0:0:0:
406,206,69881,5,14,0:0:0:0:
196,21,70064,1,2,0:0:0:0:
243,298,70247,5,14,0:0:0:0:
119,87,70430,1,2,0:0:0:0:
63,376,70613,5,12,0:0:0:0:
20,89,70795,1,2,0:0:0:0:
181,366,70978,5,12,0:0:0:0:
189,41,71161,1,2,0:0:0:0:
306,370,71344,5,14,0:0:0:0:
393,26,71527,1,2,0:0:0:0:
170,195,71710,5,14,0:0:0:0:
199,229,71802,1,8,0:0:0:0:
242,235,71893,1,10,0:0:0:0:
283,218,71984,1,8,0:0:0:0:
304,180,72076,5,10,0:0:0:0:
331,165,72167,1,8,0:0:0:0:
362,164,72259,1,10,0:0:0:0:
390,178,72350,1,8,0:0:0:0:
406,206,72442,6,0,L|395:360,1,146.880000896484,2|0,1:0|0:0,0:0:0:0:
306,370,72808,2,0,B|288:321|288:321|321:266,1,97.9200005976563,14|0,0:0|0:0,0:0:0:0:
496,161,73174,2,0,B|514:210|514:210|481:265,1,97.9200005976563,6|0,1:0|0:0,0:0:0:0:
304,180,73539,1,14,0:0:0:0:
492,350,73722,1,2,0:0:0:0:
364,116,73905,6,0,P|288:93|224:144,1,146.880000896484,6|0,1:0|0:0,0:0:0:0:
150,98,74271,2,0,P|160:142|163:213,1,97.9200005976563,14|0,0:0|0:0,0:0:0:0:
304,180,74637,2,0,P|293:224|291:295,1,97.9200005976563,6|0,1:0|0:0,0:0:0:0:
406,206,75003,1,14,0:2:0:0:
361,367,75186,1,0,0:2:0:0:
181,308,75369,6,0,L|34:318,1,146.880000896484,6|0,1:0|0:0,0:0:0:0:
0,241,75734,2,0,B|-15:194|-15:194|20:143,1,97.9200005976563,14|0,0:0|3:0,0:0:0:0:
240,151,76100,2,0,B|255:197|255:197|226:237,1,97.9200005976563,6|0,1:0|3:0,0:0:0:0:
34,317,76466,1,14,0:0:0:0:
127,102,76649,1,0,3:0:0:0:
125,342,76832,6,0,B|128:293|128:293|112:258|112:258|117:184,1,146.880000896484,6|0,1:0|0:0,0:0:0:0:
136,185,77198,1,12,0:0:0:0:
211,65,77381,1,0,0:0:0:0:
222,102,77472,1,8,0:0:0:0:
211,139,77564,1,4,1:0:0:0:
134,16,77747,1,0,0:0:0:0:
318,108,77930,1,0,1:0:0:0:
115,198,78113,1,8,0:0:0:0:
381,171,78295,6,0,P|410:103|375:41,1,146.880000896484,6|0,1:0|0:0,0:0:0:0:
297,19,78661,2,0,B|290:71|290:71|324:116,1,97.9200005976563,14|0,0:0|0:0,0:0:0:0:
496,115,79027,2,0,B|502:62|502:62|468:17,1,97.9200005976563,6|0,1:0|0:0,0:0:0:0:
294,191,79393,1,14,0:0:0:0:
466,198,79576,1,2,0:0:0:0:
355,308,79759,6,0,P|263:291|196:299,1,146.880000896484,6|0,1:0|0:0,0:0:0:0:
129,258,80125,2,0,L|147:374,1,97.9200005976563,12|0,0:0|0:0,0:0:0:0:
293,119,80491,2,0,L|275:235,1,97.9200005976563,6|0,1:0|0:0,0:0:0:0:
43,196,80856,1,14,0:0:0:0:
185,168,81039,1,0,0:0:0:0:
32,64,81222,6,0,L|193:78,1,146.880000896484,2|0,1:0|0:0,0:0:0:0:
279,43,81588,2,0,P|257:86|270:138,1,97.9200005976563,14|0,0:0|3:0,0:0:0:0:
398,296,81954,2,0,P|420:253|407:201,1,97.9200005976563,6|0,1:0|3:0,0:0:0:0:
343,99,82320,2,0,B|364:179|313:165|336:243,1,146.880000896484,14|0,0:0|0:0,0:0:0:0:
324,257,82686,5,6,1:0:0:0:
438,122,82869,1,8,0:0:0:0:
235,218,83052,1,10,0:0:0:0:
452,295,83234,1,0,0:0:0:0:
432,298,83326,1,8,0:0:0:0:
412,301,83417,1,2,1:0:0:0:
98,112,83600,5,8,0:0:0:0:
132,117,83692,1,8,0:0:0:0:
165,120,83783,1,8,0:0:0:0:
199,124,83875,1,8,0:0:0:0:
232,128,83966,1,8,0:0:0:0:
266,132,84058,1,8,0:0:0:0:
303,120,84149,6,0,L|309:274,1,146.880000896484,14|0,0:0|0:0,0:0:0:0:
302,285,84515,5,14,0:0:0:0:
402,165,84698,1,0,0:0:0:0:
167,265,84881,5,14,0:0:0:0:
452,339,85064,1,0,0:0:0:0:
168,372,85247,5,14,0:0:0:0:
466,233,85430,1,0,0:0:0:0:
185,179,85613,6,0,P|99:204|86:279,1,146.880000896484,14|0,0:0|0:0,0:0:0:0:
89,274,85978,5,14,0:0:0:0:
36,56,86161,1,0,0:0:0:0:
167,265,86344,5,14,0:0:0:0:
183,10,86527,1,0,0:0:0:0:
245,294,86710,5,14,0:0:0:0:
358,46,86893,1,2,0:0:0:0:
389,228,87076,6,0,B|350:229|322:252|322:252|302:221|262:210,1,146.880000896484,14|0,0:0|0:0,0:0:0:0:
243,210,87442,5,14,0:0:0:0:
390,316,87625,1,0,0:0:0:0:
343,63,87808,5,14,0:0:0:0:
245,294,87991,1,0,0:0:0:0:
260,27,88174,5,14,0:0:0:0:
310,357,88356,1,0,0:0:0:0:
117,208,88539,6,0,B|166:212|202:176|202:176|222:203|254:214,1,146.880000896484,14|0,0:0|0:0,0:0:0:0:
366,129,88905,2,0,P|315:119|266:150,1,97.9200005976563,14|0,0:0|0:0,0:0:0:0:
329,205,89180,1,8,0:0:0:0:
329,229,89271,1,2,1:0:0:0:
424,68,89454,1,0,0:0:0:0:
372,309,89637,5,0,1:0:0:0:
321,327,89728,1,8,0:0:0:0:
269,308,89820,1,8,0:0:0:0:
239,263,89911,1,8,0:0:0:0:
242,209,90003,5,14,0:0:0:0:
451,260,90186,1,0,0:0:0:0:
227,181,90369,5,14,0:0:0:0:
480,161,90552,1,0,0:0:0:0:
206,156,90734,5,14,0:0:0:0:
464,63,90917,1,0,0:0:0:0:
179,137,91100,5,14,0:0:0:0:
395,0,91283,1,0,0:0:0:0:
93,21,91466,5,14,0:0:0:0:
366,129,91649,1,0,0:0:0:0:
103,49,91832,5,14,0:0:0:0:
307,200,92015,1,0,0:0:0:0:
103,82,92198,5,14,0:0:0:0:
233,254,92381,1,0,0:0:0:0:
93,113,92564,5,14,0:0:0:0:
146,280,92747,1,0,0:0:0:0:
180,109,92930,5,14,0:0:0:0:
62,307,93113,1,0,0:0:0:0:
261,83,93295,5,14,0:0:0:0:
236,359,93478,1,0,0:0:0:0:
328,29,93661,5,14,0:0:0:0:
420,340,93844,1,0,0:0:0:0:
422,65,94027,5,14,0:0:0:0:
324,311,94210,1,2,0:0:0:0:
484,172,94393,6,0,B|437:170|381:145|381:145|399:170|402:195,1,146.880000896484,14|0,0:0|0:0,0:0:0:0:
399,208,94759,5,14,0:0:0:0:
246,329,94942,2,0,P|244:302|250:275,1,48.9600002988281,0|8,0:0|0:0,0:0:0:0:
323,50,95125,1,2,1:0:0:0:
49,222,95308,5,0,1:0:0:0:
85,261,95399,1,8,0:0:0:0:
139,261,95491,1,8,0:0:0:0:
175,221,95582,1,8,0:0:0:0:
214,183,95674,1,8,0:0:0:0:
267,178,95765,1,8,0:0:0:0:
314,202,95856,6,0,L|320:239,2,24.4800001494141,2|2|2,0:0|0:0|0:0,0:0:0:0:
