osu file format v14

[General]
AudioFilename: audio.mp3
AudioLeadIn: 0
PreviewTime: 48204
Countdown: 0
SampleSet: Soft
StackLeniency: 0.3
Mode: 0
LetterboxInBreaks: 0
WidescreenStoryboard: 1

[Editor]
Bookmarks: 735,12442,24149,35856,49027,72442,84149,90003,95856
DistanceSpacing: 1
BeatDivisor: 4
GridSize: 4
TimelineZoom: 1.9

[Metadata]
Title:MONSTER
TitleUnicode:MONSTER
Artist:Reol
ArtistUnicode:れをる
Creator:Sotarks
Version:LINADA'S EXTRA
Source:
Tags:極彩色 梅とら umetora reworu gokusaishoku haruto haruto_aizawa akitoshi corinn kin irohas mugiwarasekai pkhg davided linada sharu sharuresu chromoxx
BeatmapID:1400687
BeatmapSetID:661483

[Difficulty]
HPDrainRate:6.2
CircleSize:3.6
OverallDifficulty:8.8
ApproachRate:9
SliderMultiplier:1.82
SliderTickRate:1

[Events]
//Background and Video events
0,0,"BG.jpg",0,0
//Break Periods
//Storyboard Layer 0 (Background)
//Storyboard Layer 1 (Fail)
//Storyboard Layer 2 (Pass)
//Storyboard Layer 3 (Foreground)
//Storyboard Sound Samples

[TimingPoints]
735,365.853658536585,4,2,22,42,1,0
735,-66.6666666666667,4,2,22,42,0,0
1009,-66.6666666666667,4,2,22,5,0,0
1100,-133.333333333333,4,2,22,42,0,0
6588,-66.6666666666667,4,2,22,42,0,0
6863,-66.6666666666667,4,2,22,5,0,0
6954,-133.333333333333,4,2,22,42,0,0
11344,-62.5,4,2,22,52,0,0
11710,-200,4,2,22,52,0,0
12350,-100,4,2,22,5,0,0
12442,-100,4,2,22,72,0,0
24149,-200,4,2,22,62,0,0
32930,-100,4,2,22,62,0,0
33204,-100,4,2,22,5,0,0
33295,-100,4,2,22,62,0,0
34393,-83.3333333333333,4,2,22,62,0,0
35856,-100,4,2,22,62,0,0
48295,-200,4,2,22,62,0,0
48570,-200,4,2,22,5,0,0
48661,-125,4,2,22,62,0,0
49027,-100,4,2,22,82,0,1
51588,-200,4,2,22,82,0,1
51954,-100,4,2,22,82,0,1
54515,-200,4,2,22,82,0,1
54881,-100,4,2,22,82,0,1
63295,-200,4,2,22,82,0,1
63661,-100,4,2,22,82,0,1
66588,-100,4,2,22,82,0,0
69515,-100,4,2,22,92,0,1
72442,-100,4,2,22,82,0,0
72716,-100,4,2,22,5,0,0
72808,-100,4,2,22,82,0,0
74180,-100,4,2,22,5,0,0
74271,-100,4,2,22,82,0,0
75643,-100,4,2,22,5,0,0
75734,-100,4,2,22,82,0,0
78570,-100,4,2,22,5,0,0
78661,-100,4,2,22,82,0,0
80033,-100,4,2,22,5,0,0
80125,-100,4,2,22,82,0,0
81497,-100,4,2,22,5,0,0
81588,-100,4,2,22,82,0,0

[Colours]
Combo1 : 119,129,176
Combo2 : 255,234,159
Combo3 : 32,104,191
Combo4 : 215,92,2
SliderBorder : 255,255,255
SliderTrackOverride : 0,0,0

[HitObjects]
73,132,735,6,0,B|222:116|222:116|192:131|177:155,1,204.750007810593,2|0,1:0|0:0,0:0:0:0:
257,206,1100,1,0,1:0:0:0:
175,241,1283,1,2,0:0:0:0:
180,150,1466,1,0,1:0:0:0:
257,206,1649,1,0,0:0:0:0:
180,150,1832,1,2,1:0:0:0:
175,241,2015,6,0,L|170:309,1,68.250002603531,2|0,0:0|1:0,0:0:0:0:
66,199,2381,2,0,L|71:131,1,68.250002603531,2|0,0:0|1:0,0:0:0:0:
72,131,2747,1,0,0:0:0:0:
20,269,2930,2,0,P|52:281|86:278,1,68.250002603531,2|0,1:0|0:0,0:0:0:0:
94,49,3295,2,0,P|60:46|28:58,1,68.250002603531,2|0,1:0|0:0,0:0:0:0:
28,58,3661,6,0,P|94:48|148:86,1,136.500005207062,2|0,1:0|1:0,0:0:0:0:
142,152,4210,2,0,P|138:118|148:85,1,68.250002603531,2|0,0:0|1:0,0:0:0:0:
148,86,4576,1,0,0:0:0:0:
250,207,4759,1,0,1:0:0:0:
289,131,4942,6,0,L|220:126,2,68.250002603531,2|0|0,0:0|1:0|0:0,0:0:0:0:
354,54,5491,1,0,1:0:0:0:
182,203,5674,6,0,L|251:208,1,68.250002603531,0|0,0:0|1:0,0:0:0:0:
339,210,6039,1,0,0:0:0:0:
290,285,6222,1,0,1:0:0:0:
251,208,6405,1,0,0:0:0:0:
290,285,6588,6,0,B|326:345|326:345|339:210,1,204.750007810593,2|0,1:0|0:0,0:0:0:0:
349,122,6954,1,0,1:0:0:0:
422,171,7137,1,2,0:0:0:0:
428,82,7320,1,0,1:0:0:0:
339,210,7503,1,0,0:0:0:0:
359,34,7686,1,2,1:0:0:0:
500,138,7869,6,0,P|506:172|499:205,1,68.250002603531,2|0,0:0|1:0,0:0:0:0:
326,345,8234,2,0,L|394:340,1,68.250002603531,2|0,0:0|1:0,0:0:0:0:
394,340,8600,1,0,0:0:0:0:
251,208,8783,6,0,L|182:203,1,68.250002603531,2|0,1:0|0:0,0:0:0:0:
349,122,9149,1,2,1:0:0:0:
183,203,9332,1,0,0:0:0:0:
300,48,9515,6,0,P|365:37|422:72,1,136.500005207062,2|0,1:0|1:0,0:0:0:0:
251,208,10064,2,0,L|237:141,1,68.250002603531,2|0,0:0|1:0,0:0:0:0:
239,357,10430,2,0,L|252:290,1,68.250002603531,0|0,0:0|1:0,0:0:0:0:
349,122,10795,1,2,0:0:0:0:
174,249,10978,1,0,1:0:0:0:
174,249,11344,6,0,P|95:230|173:208,1,218.4,8|8,0:0|0:0,0:0:0:0:
137,230,11710,6,2,B|126:199|126:199|132:172|132:172|121:144|121:144|135:117|135:117|121:81,1,159.25,0|0,0:0|0:0,0:0:0:0:
107,54,12442,5,0,1:0:0:0:
254,233,12625,1,0,3:0:0:0:
354,83,12808,1,8,0:0:0:0:
410,236,12991,5,0,0:0:0:0:
512,82,13174,1,0,1:0:0:0:
415,226,13356,1,0,3:3:0:0:
354,104,13539,5,8,0:0:0:0:
383,25,13722,1,0,0:0:0:0:
467,7,13905,1,0,1:0:0:0:
477,162,14088,5,0,3:0:0:0:
269,146,14271,1,8,0:0:0:0:
433,93,14454,1,0,3:0:0:0:
176,81,14637,5,0,1:0:0:0:
382,163,14820,1,0,0:0:0:0:
89,148,15003,1,8,0:0:0:0:
354,82,15186,1,0,0:0:0:0:
176,327,15369,6,0,P|179:282|172:237,1,91,0|0,1:0|3:0,0:0:0:0:
81,35,15734,2,0,P|74:79|77:125,1,91,8|0,0:0|3:0,0:0:0:0:
172,237,16100,5,0,1:0:0:0:
318,208,16283,1,0,3:0:0:0:
88,147,16466,1,8,0:0:0:0:
234,118,16649,1,0,3:0:0:0:
176,327,16832,5,0,1:0:0:0:
318,208,17015,1,0,3:0:0:0:
97,278,17198,1,8,0:0:0:0:
259,337,17381,2,0,P|259:314|252:292,1,45.5,0|8,0:0|0:0,0:0:0:0:
89,195,17564,5,0,1:0:0:0:
176,327,17747,1,0,0:0:0:0:
234,96,17930,5,0,1:0:0:0:
173,338,18113,1,8,0:0:0:0:
92,57,18295,5,4,1:0:0:0:
318,208,18478,1,0,3:0:0:0:
89,195,18661,1,8,0:0:0:0:
234,96,18844,5,0,3:0:0:0:
173,338,19027,1,0,1:0:0:0:
103,208,19210,1,0,3:0:0:0:
295,384,19393,5,8,0:0:0:0:
327,292,19576,1,0,0:0:0:0:
301,197,19759,1,0,1:0:0:0:
95,293,19942,5,0,3:0:0:0:
318,208,20125,1,8,0:0:0:0:
173,338,20308,1,0,3:0:0:0:
234,96,20491,5,0,1:0:0:0:
387,276,20674,1,0,0:0:0:0:
474,40,20856,1,8,0:0:0:0:
381,292,21039,1,0,0:0:0:0:
233,95,21222,6,0,P|227:51|239:7,1,91,0|0,1:0|3:0,0:0:0:0:
438,202,21588,2,0,P|394:189|349:196,1,91,8|0,0:0|3:0,0:0:0:0:
231,216,21954,5,0,1:0:0:0:
387,276,22137,1,0,3:0:0:0:
349,196,22320,1,8,0:0:0:0:
325,363,22503,1,0,3:0:0:0:
270,114,22686,5,0,1:0:0:0:
228,381,22869,1,0,3:0:0:0:
198,41,23052,1,8,0:0:0:0:
293,273,23234,2,0,L|249:260,1,45.5,0|8,0:0|0:0,0:0:0:0:
157,231,23417,5,0,1:0:0:0:
347,149,23600,2,0,P|352:126|354:104,1,45.5,8|8,0:0|0:0,0:0:0:0:
264,69,23783,5,0,1:0:0:0:
265,80,23874,1,8,0:0:0:0:
267,91,23965,1,8,0:0:0:0:
268,102,24057,1,8,0:0:0:0:
269,113,24149,6,0,P|264:69|272:24,1,91,0|2,1:0|1:0,0:0:0:0:
292,196,24698,1,2,0:0:0:0:
167,132,24881,5,2,1:0:0:0:
269,113,25064,1,2,0:0:0:0:
95,220,25247,1,2,1:0:0:0:
206,240,25430,1,0,0:0:0:0:
51,39,25613,6,0,P|59:83|53:128,1,91,2|2,1:0|1:0,0:0:0:0:
138,320,26161,1,2,0:0:0:0:
167,132,26344,5,2,1:0:0:0:
206,240,26527,1,2,0:0:0:0:
95,220,26710,1,2,1:0:0:0:
167,132,26893,1,2,0:0:0:0:
227,333,27076,6,0,L|138:320,1,91,0|2,1:0|1:0,0:0:0:0:
95,220,27625,1,2,0:0:0:0:
292,259,27808,5,2,1:0:0:0:
227,333,27991,1,2,0:0:0:0:
386,231,28174,1,2,1:0:0:0:
321,157,28357,1,2,0:0:0:0:
470,210,28539,6,0,P|469:255|448:294,1,91,2|2,1:0|1:0,0:0:0:0:
227,333,29088,1,2,0:0:0:0:
386,231,29271,5,2,1:0:0:0:
189,240,29454,1,2,0:0:0:0:
321,157,29637,1,0,1:0:0:0:
220,142,29820,1,2,0:0:0:0:
416,58,30003,6,0,P|371:62|326:54,1,91,0|2,1:0|1:0,0:0:0:0:
494,28,30552,1,2,0:0:0:0:
470,210,30734,5,2,1:0:0:0:
321,157,30917,1,2,0:0:0:0:
323,354,31100,1,2,1:0:0:0:
370,255,31283,1,2,0:0:0:0:
199,327,31466,6,0,L|108:317,1,91,2|2,1:0|1:0,0:0:0:0:
302,186,32015,2,0,L|211:195,1,91,2|2,0:0|0:0,0:0:0:0:
420,79,32564,5,2,1:0:0:0:
219,52,32747,1,2,0:0:0:0:
299,271,32930,6,0,B|295:320|321:350|321:350|322:319|332:299,1,136.5,2|0,1:0|0:0,0:0:0:0:
257,191,33295,5,2,1:0:0:0:
387,211,33661,1,0,1:0:0:0:
201,257,34027,5,2,1:0:0:0:
405,196,34210,1,2,0:0:0:0:
195,19,34393,6,0,B|191:54|196:81|196:81|175:108|175:108|188:135|178:174,1,163.799995001221,6|0,1:0|1:0,0:0:0:0:
201,257,34759,1,10,0:0:0:0:
40,144,34942,1,2,0:0:0:0:
45,149,35033,1,0,1:0:0:0:
50,154,35125,6,0,L|104:147,1,54.5999983337403,0|0,1:0|1:0,0:0:0:0:
285,121,35308,2,0,P|291:147|291:174,1,54.5999983337403,10|8,0:0|3:0,0:0:0:0:
201,257,35491,2,0,P|194:283|195:310,1,54.5999983337403,8|8,0:0|3:0,0:0:0:0:
378,288,35674,1,8,3:0:0:0:
373,283,35765,1,4,3:0:0:0:
368,278,35857,6,0,L|278:292,1,91,2|0,1:0|3:0,0:0:0:0:
139,167,36222,2,0,L|49:153,1,91,8|0,0:0|3:0,0:0:0:0:
195,310,36588,5,2,1:0:0:0:
290,174,36771,1,0,1:0:0:0:
226,19,36954,1,8,0:0:0:0:
281,153,37137,1,0,0:0:0:0:
476,87,37320,6,0,P|432:75|386:79,1,91,2|0,1:0|3:0,0:0:0:0:
214,229,37686,1,8,0:0:0:0:
422,166,37869,1,0,3:0:0:0:
313,378,38052,6,0,L|303:287,1,91,2|0,1:0|1:0,0:0:0:0:
275,76,38417,1,10,0:0:0:0:
219,317,38600,1,10,0:0:0:0:
214,336,38692,1,8,0:0:0:0:
209,355,38783,5,2,1:0:0:0:
149,130,38966,1,2,3:0:0:0:
36,314,39149,2,0,L|126:305,1,91,8|0,0:0|3:0,0:0:0:0:
303,287,39515,5,0,1:0:0:0:
107,220,39698,1,2,1:0:0:0:
289,282,39881,1,10,0:0:0:0:
52,320,40064,1,0,1:0:0:0:
327,374,40247,5,2,1:0:0:0:
149,130,40430,1,2,0:0:0:0:
219,317,40613,1,10,0:0:0:0:
279,89,40795,6,0,P|282:43|272:0,1,91,2|0,0:0|1:0,0:0:0:0:
348,219,41161,1,2,1:0:0:0:
185,49,41344,1,8,0:0:0:0:
289,282,41527,2,0,P|274:264|265:243,1,45.5,8|8,0:0|0:0,0:0:0:0:
377,95,41710,5,6,1:0:0:0:
348,219,41893,1,0,0:0:0:0:
386,89,42076,2,0,L|372:0,1,91,8|0,0:0|3:0,0:0:0:0:
242,161,42442,5,2,1:0:0:0:
449,155,42625,1,0,1:0:0:0:
265,243,42808,1,8,0:0:0:0:
273,82,42991,1,0,0:0:0:0:
325,314,43174,5,2,1:0:0:0:
187,96,43356,1,0,3:0:0:0:
355,232,43539,2,0,L|265:243,1,91,8|0,0:0|3:0,0:0:0:0:
51,173,43905,5,2,1:0:0:0:
355,232,44088,1,0,1:0:0:0:
161,354,44271,5,10,0:0:0:0:
273,128,44454,1,2,3:0:0:0:
273,82,44545,1,0,0:0:0:0:
255,41,44636,5,0,1:0:0:0:
270,242,44820,1,10,0:0:0:0:
101,98,45003,1,10,0:0:0:0:
101,97,45094,2,0,P|146:98|190:108,1,91,8|0,0:0|1:0,0:0:0:0:
291,153,45369,5,8,0:0:0:0:
144,232,45552,5,10,0:0:0:0:
142,210,45643,1,8,0:0:0:0:
140,188,45734,1,0,1:0:0:0:
307,29,45917,5,10,0:0:0:0:
305,51,46008,1,8,0:0:0:0:
303,73,46099,1,6,1:0:0:0:
303,73,46466,5,0,1:0:0:0:
355,209,46649,1,2,1:0:0:0:
217,92,46832,5,8,0:0:0:0:
224,300,47015,1,0,1:0:0:0:
126,92,47198,5,2,1:0:0:0:
74,332,47381,1,4,1:0:0:0:
74,332,48295,6,0,L|67:264,1,68.25,0|0,0:0|0:0,0:0:0:0:
97,126,48661,6,0,B|89:169|89:169|95:194|95:194|87:233,1,109.2,0|0,0:0|0:0,0:0:0:0:
156,307,49027,5,2,1:0:0:0:
100,98,49210,1,2,3:0:0:0:
280,293,49393,1,10,0:0:0:0:
247,58,49576,1,2,3:0:0:0:
383,303,49759,5,2,1:0:0:0:
146,321,49942,1,2,3:0:0:0:
386,184,50125,1,10,0:0:0:0:
97,126,50308,1,2,3:0:0:0:
382,69,50491,5,2,1:0:0:0:
133,338,50674,1,2,3:0:0:0:
246,44,50856,1,10,0:0:0:0:
326,379,51039,1,2,3:0:0:0:
97,126,51222,6,0,B|37:116|-1:143|-1:143|31:152,1,136.5,2|0,1:0|0:0,0:0:0:0:
92,231,51588,2,0,L|136:224,1,45.5,10|0,0:0|0:0,0:0:0:0:
298,126,51954,5,2,1:0:0:0:
273,246,52137,1,2,3:0:0:0:
243,63,52320,1,10,0:0:0:0:
312,318,52503,1,2,3:0:0:0:
313,0,52686,5,2,1:0:0:0:
220,317,52869,1,2,3:0:0:0:
205,143,53052,1,10,0:0:0:0:
362,247,53234,1,2,3:0:0:0:
148,73,53417,5,2,1:0:0:0:
312,318,53600,1,2,3:0:0:0:
243,63,53783,1,10,0:0:0:0:
257,384,53966,1,2,3:0:0:0:
114,165,54149,6,0,B|97:263|97:263|108:250|127:242,1,136.5,2|0,1:0|0:0,0:0:0:0:
194,164,54515,2,0,P|191:142|185:120,1,45.5,10|0,0:0|0:0,0:0:0:0:
157,313,54881,6,0,B|180:312|208:304|208:304|234:314|234:314|257:303|289:306,1,136.5,4|0,1:0|0:0,0:0:0:0:
299,308,55247,1,10,0:0:0:0:
246,75,55430,1,2,3:0:0:0:
424,198,55613,2,0,P|379:201|335:193,1,91,2|0,1:0|3:0,0:0:0:0:
116,157,55978,1,10,0:0:0:0:
349,28,56161,5,2,3:0:0:0:
256,51,56344,1,0,1:0:0:0:
341,130,56527,1,2,3:0:0:0:
182,103,56710,1,8,0:0:0:0:
333,216,56893,1,2,3:0:0:0:
108,291,57076,1,0,1:0:0:0:
324,312,57259,1,2,3:0:0:0:
172,19,57442,1,10,0:0:0:0:
198,282,57625,6,0,L|107:291,1,91,2|0,3:0|1:0,0:0:0:0:
95,81,57991,1,2,3:0:0:0:
297,324,58174,2,0,L|206:314,1,91,10|0,0:0|0:0,0:0:0:0:
30,148,58539,5,2,1:0:0:0:
107,291,58722,1,0,3:0:0:0:
95,81,58905,5,10,0:0:0:0:
90,310,59088,1,0,0:0:0:0:
349,237,59271,5,2,1:0:0:0:
206,314,59454,1,0,3:0:0:0:
416,302,59637,5,10,0:0:0:0:
187,297,59820,1,0,1:0:0:0:
316,167,60003,6,0,P|338:161|360:158,1,45.5,2|0,1:0|0:0,0:0:0:0:
139,89,60186,2,0,P|116:83|94:80,1,45.5,8|0,0:0|0:0,0:0:0:0:
242,0,60369,5,10,0:0:0:0:
237,45,60460,1,8,0:0:0:0:
232,90,60551,1,8,0:0:0:0:
227,135,60643,1,8,0:0:0:0:
222,180,60734,5,4,1:0:0:0:
360,158,60917,1,0,3:0:0:0:
139,89,61100,1,8,0:0:0:0:
371,150,61283,1,0,3:0:0:0:
101,237,61466,5,0,1:0:0:0:
242,0,61649,1,0,3:0:0:0:
289,287,61832,1,8,0:0:0:0:
129,74,62015,1,0,3:0:0:0:
381,140,62198,5,0,1:0:0:0:
90,231,62381,1,0,3:0:0:0:
293,294,62564,1,8,0:0:0:0:
122,65,62747,1,0,3:0:0:0:
392,136,62930,6,0,B|432:156|432:156|341:171,1,136.5,0|0,1:0|0:0,0:0:0:0:
253,150,63295,2,0,L|256:104,1,45.5,8|0,0:0|0:0,0:0:0:0:
316,310,63661,5,0,1:0:0:0:
158,302,63844,1,0,3:0:0:0:
360,230,64027,1,8,0:0:0:0:
110,216,64210,1,0,3:0:0:0:
412,306,64393,5,0,1:0:0:0:
101,379,64576,1,0,3:0:0:0:
360,230,64759,1,8,0:0:0:0:
54,144,64942,1,0,3:0:0:0:
316,310,65125,5,0,1:0:0:0:
388,144,65308,1,0,3:0:0:0:
366,379,65491,1,8,0:0:0:0:
355,54,65674,1,0,3:0:0:0:
110,216,65856,5,8,0:0:0:0:
152,231,65948,1,8,0:0:0:0:
193,213,66039,1,8,0:0:0:0:
236,225,66131,1,8,0:0:0:0:
280,217,66222,1,8,0:0:0:0:
148,76,66405,2,0,L|141:121,1,45.5,8|8,0:0|0:0,0:0:0:0:
73,330,66588,6,0,B|107:328|125:320|125:320|156:330|156:330|180:321|206:324,1,136.5,8|0,0:0|0:0,0:0:0:0:
217,327,66954,5,10,0:0:0:0:
241,137,67137,1,2,0:0:0:0:
308,359,67320,5,10,0:0:0:0:
283,56,67503,1,2,0:0:0:0:
152,231,67686,5,10,0:0:0:0:
356,0,67869,1,2,0:0:0:0:
401,350,68052,6,0,P|396:283|406:215,1,136.5,0|0,1:0|3:0,0:0:0:0:
505,202,68417,2,0,P|460:210|415:204,1,91,8|0,0:0|0:0,0:0:0:0:
275,132,68783,1,0,1:0:0:0:
458,106,68966,1,0,0:0:0:0:
455,114,69058,1,8,3:0:0:0:
452,122,69149,6,0,L|445:76,1,45.5,4|8,3:0|3:0,0:0:0:0:
406,215,69332,2,0,L|399:260,1,45.5,4|0,3:0|1:0,0:0:0:0:
236,276,69515,6,0,L|259:141,1,136.5,12|0,0:0|0:0,0:0:0:0:
313,35,69881,5,14,0:0:0:0:
201,289,70064,1,2,0:0:0:0:
206,3,70247,5,14,0:0:0:0:
255,363,70430,1,2,0:0:0:0:
476,275,70613,5,12,0:0:0:0:
60,208,70795,1,2,0:0:0:0:
452,122,70978,5,12,0:0:0:0:
45,201,71161,1,2,0:0:0:0:
486,285,71344,5,14,0:0:0:0:
31,192,71527,1,2,0:0:0:0:
255,363,71710,5,14,0:0:0:0:
279,316,71802,1,8,0:0:0:0:
285,263,71892,1,10,0:0:0:0:
264,214,71984,1,8,0:0:0:0:
233,171,72075,1,10,0:0:0:0:
214,122,72167,1,8,0:0:0:0:
218,69,72259,1,10,0:0:0:0:
244,22,72350,1,8,0:0:0:0:
297,13,72442,6,0,P|359:38|424:24,1,136.5,2|0,1:0|0:0,0:0:0:0:
425,24,72808,2,0,L|416:114,1,91,14|0,0:0|0:0,0:0:0:0:
395,241,73174,2,0,L|386:150,1,91,6|0,1:0|0:0,0:0:0:0:
427,277,73539,2,0,L|418:367,1,91,14|2,0:0|0:0,0:0:0:0:
254,225,73905,6,0,L|118:210,1,136.5,6|0,1:0|0:0,0:0:0:0:
118,210,74271,2,0,P|126:254|112:296,1,91,14|0,0:0|0:0,0:0:0:0:
39,141,74637,2,0,P|30:96|44:54,1,91,6|0,1:0|0:0,0:0:0:0:
130,219,75003,2,0,P|138:263|124:305,1,91,14|0,0:2|0:2,0:0:0:0:
112,101,75369,6,0,B|157:92|157:92|195:99|195:99|246:89,1,136.5,6|0,1:0|0:0,0:0:0:0:
246,90,75734,2,0,L|256:0,1,91,14|0,0:0|3:0,0:0:0:0:
296,206,76100,2,0,L|286:116,1,91,6|0,1:0|3:0,0:0:0:0:
310,336,76466,2,0,L|320:245,1,91,14|0,0:0|3:0,0:0:0:0:
496,117,76832,6,0,P|453:102|409:111,1,91,6|0,1:0|0:0,0:0:0:0:
209,200,77198,2,0,P|251:214|296:206,1,91,12|0,0:0|0:0,0:0:0:0:
296,206,77472,1,8,0:0:0:0:
296,206,77564,1,4,1:0:0:0:
159,282,77747,1,0,0:0:0:0:
409,110,77930,1,0,1:0:0:0:
307,324,78113,1,8,0:0:0:0:
208,199,78295,6,0,P|142:189|84:221,1,136.5,6|0,1:0|0:0,0:0:0:0:
89,309,78661,2,0,P|97:264|83:221,1,91,14|0,0:0|0:0,0:0:0:0:
213,111,79027,2,0,P|199:154|208:199,1,91,6|0,1:0|0:0,0:0:0:0:
333,380,79393,1,14,0:0:0:0:
89,309,79576,1,2,0:0:0:0:
284,163,79759,6,0,L|419:180,1,136.5,6|0,1:0|0:0,0:0:0:0:
415,89,80125,2,0,L|419:180,1,91,12|0,0:0|0:0,0:0:0:0:
436,300,80491,2,0,L|440:209,1,91,6|0,1:0|0:0,0:0:0:0:
463,13,80856,1,14,0:0:0:0:
346,254,81039,1,0,0:0:0:0:
255,147,81222,6,0,B|210:156|210:156|172:149|172:149|121:159,1,136.5,2|0,1:0|0:0,0:0:0:0:
111,249,81588,2,0,L|121:159,1,91,14|0,0:0|3:0,0:0:0:0:
88,39,81954,2,0,L|98:129,1,91,6|0,1:0|3:0,0:0:0:0:
250,233,82320,1,14,0:0:0:0:
98,129,82503,1,0,3:0:0:0:
255,249,82686,5,6,1:0:0:0:
299,3,82869,1,8,0:0:0:0:
394,283,83052,2,0,L|259:266,1,136.5,10|8,0:0|0:0,0:0:0:0:
262,280,83417,2,0,L|172:270,1,91,2|8,1:0|0:0,0:0:0:0:
114,190,83692,1,8,0:0:0:0:
114,190,83783,2,0,P|91:184|69:180,1,45.5,8|8,0:0|0:0,0:0:0:0:
222,97,83966,2,0,P|244:91|266:87,1,45.5,8|8,0:0|0:0,0:0:0:0:
115,36,84149,5,14,0:0:0:0:
265,172,84332,1,0,0:0:0:0:
176,360,84515,2,0,P|178:314|172:269,1,91,14|0,0:0|0:0,0:0:0:0:
266,87,84881,5,14,0:0:0:0:
114,190,85064,1,0,0:0:0:0:
265,172,85247,1,14,0:0:0:0:
77,110,85430,1,0,0:0:0:0:
283,271,85613,5,14,0:0:0:0:
286,71,85795,1,0,0:0:0:0:
172,269,85978,1,14,0:0:0:0:
359,147,86161,1,0,0:0:0:0:
467,322,86344,2,0,P|422:313|377:319,1,91,14|0,0:0|0:0,0:0:0:0:
172,269,86710,5,14,0:0:0:0:
306,384,86893,1,2,0:0:0:0:
195,179,87076,6,0,P|200:133|198:88,1,91,14|0,0:0|0:0,0:0:0:0:
103,211,87442,1,14,0:0:0:0:
265,243,87625,1,0,0:0:0:0:
81,314,87808,1,14,0:0:0:0:
106,113,87991,1,0,0:0:0:0:
237,326,88174,5,14,0:0:0:0:
195,179,88356,1,0,0:0:0:0:
414,296,88539,6,0,L|324:309,1,91,14|0,0:0|0:0,0:0:0:0:
12,198,88905,2,0,L|102:210,1,91,14|0,0:0|0:0,0:0:0:0:
200,195,89180,1,8,0:0:0:0:
194,178,89271,6,0,B|204:129|204:129|194:101|194:101|204:46,1,136.5,2|0,1:0|0:0,0:0:0:0:
281,23,89637,1,0,1:0:0:0:
293,25,89728,1,8,0:0:0:0:
304,26,89819,1,8,0:0:0:0:
315,28,89911,1,8,0:0:0:0:
327,29,90002,5,14,0:0:0:0:
351,178,90186,1,0,0:0:0:0:
400,56,90369,1,14,0:0:0:0:
347,255,90552,1,0,0:0:0:0:
464,98,90734,1,14,0:0:0:0:
464,98,90917,1,0,0:0:0:0:
276,217,91100,5,14,0:0:0:0:
488,185,91283,1,0,0:0:0:0:
244,304,91466,5,14,0:0:0:0:
328,102,91649,1,0,0:0:0:0:
144,312,91832,1,14,0:0:0:0:
72,80,92015,1,0,0:0:0:0:
192,232,92198,1,14,0:0:0:0:
192,232,92381,1,0,0:0:0:0:
157,39,92564,5,14,0:0:0:0:
248,300,92747,1,0,0:0:0:0:
328,92,92930,5,14,0:0:0:0:
144,312,93113,1,0,0:0:0:0:
241,67,93295,1,14,0:0:0:0:
369,307,93478,1,0,0:0:0:0:
176,128,93661,1,14,0:0:0:0:
176,128,93844,1,0,0:0:0:0:
57,321,94027,5,14,0:0:0:0:
369,307,94210,1,2,0:0:0:0:
144,312,94393,1,14,0:0:0:0:
328,92,94576,1,0,0:0:0:0:
224,360,94759,1,14,0:0:0:0:
248,46,94942,1,0,0:0:0:0:
459,324,95125,6,0,L|370:308,1,91,2|0,1:0|1:0,0:0:0:0:
286,245,95399,1,8,0:0:0:0:
286,245,95491,2,0,P|279:223|276:200,1,45.5,8|8,0:0|0:0,0:0:0:0:
248,46,95674,2,0,P|245:68|238:90,1,45.5,8|8,0:0|0:0,0:0:0:0:
205,165,95856,6,0,P|200:179|198:194,2,30.3333333333333,2|2|0,0:0|0:0|0:0,0:0:0:0:
