osu file format v14

[General]
AudioFilename: audio.mp3
AudioLeadIn: 0
PreviewTime: 48204
Countdown: 0
SampleSet: Soft
StackLeniency: 0.7
Mode: 0
LetterboxInBreaks: 0
WidescreenStoryboard: 1

[Editor]
Bookmarks: 735,12442,24149,35856,49027,72442,84149,95856
DistanceSpacing: 1
BeatDivisor: 4
GridSize: 16
TimelineZoom: 1.5

[Metadata]
Title:MONSTER
TitleUnicode:MONSTER
Artist:Reol
ArtistUnicode:れをる
Creator:Sotarks
Version:KIN'S HARD
Source:
Tags:極彩色 梅とら umetora reworu gokusaishoku haruto haruto_aizawa akitoshi corinn kin irohas mugiwarasekai pkhg davided linada sharu sharuresu chromoxx
BeatmapID:1401010
BeatmapSetID:661483

[Difficulty]
HPDrainRate:5
CircleSize:4.2
OverallDifficulty:6.9
ApproachRate:7.8
SliderMultiplier:1.6
SliderTickRate:1

[Events]
//Background and Video events
0,0,"BG.jpg",0,0
//Break Periods
//Storyboard Layer 0 (Background)
//Storyboard Layer 1 (Fail)
//Storyboard Layer 2 (Pass)
//Storyboard Layer 3 (Foreground)
//Storyboard Sound Samples

[TimingPoints]
735,365.853658536585,4,2,22,42,1,0
735,-100,4,2,22,42,0,0
11344,-100,4,2,22,52,0,0
12350,-100,4,2,22,5,0,0
12442,-100,4,2,22,72,0,0
24149,-100,4,2,22,62,0,0
49027,-100,4,2,22,82,0,1
66588,-100,4,2,22,82,0,0
69515,-100,4,2,22,92,0,1
72442,-100,4,2,22,82,0,0

[Colours]
Combo1 : 119,129,176
Combo2 : 255,234,159
Combo3 : 32,104,191
Combo4 : 215,92,2
SliderBorder : 255,255,255
SliderTrackOverride : 0,0,0

[HitObjects]
183,105,735,6,0,P|169:177|95:176,1,160,2|0,1:0|1:0,0:0:0:0:
16,171,1283,2,0,L|9:250,2,80,2|0|0,0:0|1:0|0:0,0:0:0:0:
23,91,1832,1,2,1:0:0:0:
103,98,2015,6,0,P|102:25|29:11,2,160,2|2|0,0:0|0:0|0:0,0:0:0:0:
16,171,2930,2,0,L|9:250,1,80,2|0,1:0|0:0,0:0:0:0:
2,330,3295,2,0,L|82:337,1,80,2|0,1:0|0:0,0:0:0:0:
169,264,3661,6,0,L|183:105,1,160,2|0,1:0|1:0,0:0:0:0:
269,32,4210,2,0,L|349:39,2,80,2|0|0,0:0|1:0|0:0,0:0:0:0:
190,25,4759,1,0,1:0:0:0:
262,112,4942,6,0,L|249:271,1,160,2|0,0:0|0:0,0:0:0:0:
169,264,5491,2,0,L|89:257,1,80,0|0,1:0|0:0,0:0:0:0:
96,178,5856,2,0,L|176:185,1,80,0|0,1:0|0:0,0:0:0:0:
256,192,6222,2,0,L|335:198,1,80,0|0,1:0|0:0,0:0:0:0:
422,126,6588,6,0,L|408:285,1,160,2|0,1:0|1:0,0:0:0:0:
321,358,7137,2,0,L|481:372,1,160,2|0,0:0|0:0,0:0:0:0:
488,292,7686,1,2,1:0:0:0:
495,212,7869,2,0,L|415:205,1,80,2|0,0:0|1:0,0:0:0:0:
342,119,8234,6,0,L|502:133,1,160,2|0,0:0|0:0,0:0:0:0:
509,53,8783,2,0,L|429:46,1,80,2|0,1:0|0:0,0:0:0:0:
422,126,9149,2,0,L|415:205,1,80,2|0,1:0|0:0,0:0:0:0:
328,277,9515,6,0,P|400:291|400:365,1,160,2|0,1:0|1:0,0:0:0:0:
321,358,10064,2,0,L|162:344,1,160,2|0,0:0|0:0,0:0:0:0:
169,264,10613,1,0,1:0:0:0:
176,185,10795,2,0,L|96:178,2,80,2|0|0,0:0|1:0|0:0,0:0:0:0:
262,112,11344,2,0,P|320:85|349:39,1,120,8|8,0:0|0:0,0:0:0:0:
110,18,12442,6,0,L|96:178,1,160,0|8,1:0|0:0,0:0:0:0:
183,105,12991,2,0,L|262:112,2,80,0|0|0,0:0|1:0|0:0,0:0:0:0:
176,185,13539,2,0,L|169:264,1,80,8|0,0:0|0:0,0:0:0:0:
256,192,13905,6,0,L|351:200,1,80,0|0,1:0|0:0,0:0:0:0:
249,271,14271,2,0,L|242:351,1,80,8|0,0:0|0:0,0:0:0:0:
328,278,14637,2,0,P|402:278|415:205,1,160,0|8,1:0|0:0,0:0:0:0:
335,198,15186,1,0,0:0:0:0:
249,271,15369,6,0,P|175:258|175:184,1,160,0|8,1:0|0:0,0:0:0:0:
262,112,15917,2,0,L|342:119,2,80,0|0|0,0:0|1:0|0:0,0:0:0:0:
183,105,16466,2,0,L|103:98,1,80,8|0,0:0|0:0,0:0:0:0:
16,171,16832,6,0,P|16:244|89:256,1,160,0|8,1:0|0:0,0:0:0:0:
176,185,17381,1,0,0:0:0:0:
176,185,17472,1,8,0:0:0:0:
176,185,17564,2,0,L|335:198,1,160,0|0,1:0|1:0,0:0:0:0:
342,119,18113,1,8,0:0:0:0:
415,205,18295,6,0,P|402:278|327:277,1,160,4|8,1:0|0:0,0:0:0:0:
256,192,18844,2,0,L|176:185,2,80,0|0|0,0:0|1:0|0:0,0:0:0:0:
262,112,19393,2,0,L|269:32,1,80,8|0,0:0|0:0,0:0:0:0:
190,25,19759,5,0,1:0:0:0:
103,98,19942,2,0,L|96:178,2,80,0|8|0,0:0|0:0|0:0,0:0:0:0:
183,105,20491,2,0,L|262:112,1,80,0|0,1:0|0:0,0:0:0:0:
342,119,20856,2,0,L|422:126,1,80,8|0,0:0|0:0,0:0:0:0:
509,53,21222,6,0,L|495:212,1,160,0|8,1:0|0:0,0:0:0:0:
408,285,21771,2,0,L|401:365,2,80,0|0|0,0:0|1:0|0:0,0:0:0:0:
415,205,22320,2,0,L|335:198,1,80,8|0,0:0|0:0,0:0:0:0:
328,278,22686,6,0,L|321:358,1,80,0|0,1:0|0:0,0:0:0:0:
249,271,23052,2,0,L|169:264,1,80,8|0,0:0|0:0,0:0:0:0:
128,261,23326,1,8,0:0:0:0:
89,257,23417,2,0,L|96:178,1,80,0|8,1:0|0:0,0:0:0:0:
103,98,23783,2,0,L|142:101,3,40,10|8|10|8,0:0|0:0|0:0|0:0,0:0:0:0:
183,105,24149,6,0,L|343:119,1,160,0|2,1:0|1:0,0:0:0:0:
429,46,24698,1,2,0:0:0:0:
502,133,24881,2,0,L|495:212,1,80,2|2,1:0|0:0,0:0:0:0:
422,126,25247,2,0,L|342:119,1,80,2|0,1:0|0:0,0:0:0:0:
415,205,25613,6,0,P|403:278|328:277,1,160,2|2,1:0|1:0,0:0:0:0:
256,192,26161,1,2,0:0:0:0:
249,271,26344,2,0,L|242:351,1,80,2|2,1:0|0:0,0:0:0:0:
169,264,26710,1,2,1:0:0:0:
169,264,26893,2,0,L|89:257,2,80,2|0|0,0:0|1:0|0:0,0:0:0:0:
256,192,27442,5,2,1:0:0:0:
262,112,27625,1,2,0:0:0:0:
269,32,27808,2,0,L|190:25,1,80,2|2,1:0|0:0,0:0:0:0:
183,105,28174,2,0,L|103:98,1,80,2|2,1:0|0:0,0:0:0:0:
176,185,28539,6,0,P|163:257|89:256,1,160,2|2,1:0|1:0,0:0:0:0:
96,178,29088,2,0,L|103:98,1,80,2|2,0:0|1:0,0:0:0:0:
183,105,29454,2,0,L|190:25,1,80,2|0,0:0|1:0,0:0:0:0:
262,112,29820,6,0,P|250:184|176:184,1,160,2|0,0:0|0:0,0:0:0:0:
103,98,30369,1,2,1:0:0:0:
96,178,30552,1,2,0:0:0:0:
89,257,30734,2,0,L|169:264,1,80,2|2,1:0|0:0,0:0:0:0:
162,344,31100,2,0,L|242:351,1,80,2|2,1:0|0:0,0:0:0:0:
328,278,31466,6,0,P|329:205|255:192,1,160,2|2,1:0|1:0,0:0:0:0:
169,264,32015,2,0,P|96:252|96:178,1,160,2|2,0:0|0:0,0:0:0:0:
103,98,32564,2,0,L|110:18,1,80,2|2,1:0|0:0,0:0:0:0:
183,105,32930,6,0,L|262:112,1,80,2|0,1:0|0:0,0:0:0:0:
176,185,33295,2,0,P|175:258|248:270,2,160,2|0|2,1:0|1:0|1:0,0:0:0:0:
262,112,34210,1,2,0:0:0:0:
335,198,34393,6,0,P|385:178|422:126,1,120,6|0,1:0|1:0,0:0:0:0:
422,125,34759,2,0,L|429:45,1,80,10|2,0:0|0:0,0:0:0:0:
342,119,35125,1,0,1:0:0:0:
342,119,35216,1,0,1:0:0:0:
342,119,35308,2,0,L|247:110,1,80,10|8,0:0|0:0,0:0:0:0:
190,25,35674,1,8,3:0:0:0:
190,25,35765,1,4,3:0:0:0:
190,25,35856,6,0,L|176:185,1,160,2|8,1:0|0:0,0:0:0:0:
162,344,36588,2,0,L|242:351,1,80,2|0,1:0|1:0,0:0:0:0:
249,271,36954,2,0,L|328:278,1,80,8|0,0:0|0:0,0:0:0:0:
415,205,37320,2,0,P|414:131|342:119,1,160,2|8,1:0|0:0,0:0:0:0:
176,185,38052,2,0,L|80:176,1,80,2|0,1:0|1:0,0:0:0:0:
23,91,38417,1,10,0:0:0:0:
16,171,38600,1,10,0:0:0:0:
9,250,38783,6,0,L|185:266,1,160,2|8,1:0|0:0,0:0:0:0:
328,278,39515,2,0,L|335:198,1,80,0|2,1:0|1:0,0:0:0:0:
415,205,39881,2,0,L|422:126,1,80,10|0,0:0|1:0,0:0:0:0:
349,39,40247,2,0,B|269:32,2,80,2|2|10,1:0|0:0|0:0,0:0:0:0:
262,112,40795,2,0,P|263:186|335:198,1,160,2|2,0:0|1:0,0:0:0:0:
342,119,41344,2,0,L|438:127,1,80,8|8,0:0|0:0,0:0:0:0:
462,129,41619,1,8,0:0:0:0:
502,133,41710,6,0,L|488:292,1,160,6|8,1:0|0:0,0:0:0:0:
321,358,42442,2,0,L|242:351,1,80,2|0,1:0|1:0,0:0:0:0:
249,271,42808,2,0,L|256:192,1,80,8|0,0:0|0:0,0:0:0:0:
328,278,43174,2,0,P|402:278|414:204,1,160,2|8,1:0|0:0,0:0:0:0:
262,112,43905,2,0,L|167:103,2,80,2|0|10,1:0|1:0|0:0,0:0:0:0:
349,39,44454,6,0,L|335:198,1,160,2|10,3:0|0:0,0:0:0:0:
256,192,45003,2,0,L|176:185,1,80,10|0,0:0|0:0,0:0:0:0:
169,264,45369,2,0,L|89:257,1,80,8|10,0:0|0:0,0:0:0:0:
96,178,45734,2,0,L|16:171,1,80,0|10,1:0|0:0,0:0:0:0:
13,210,46009,1,8,0:0:0:0:
9,250,46100,6,0,L|169:264,1,160,6|0,1:0|1:0,0:0:0:0:
242,351,46649,1,2,1:0:0:0:
328,278,46832,2,0,L|408:285,1,80,8|0,0:0|1:0,0:0:0:0:
335,198,47198,1,2,1:0:0:0:
249,271,47381,1,4,1:0:0:0:
249,271,48295,6,0,L|89:257,1,160,0|0,0:0|0:0,0:0:0:0:
262,112,49027,5,2,1:0:0:0:
256,192,49210,1,2,3:0:0:0:
249,271,49393,2,0,L|242:351,1,80,10|2,0:0|3:0,0:0:0:0:
328,278,49759,2,0,L|408:285,1,80,2|2,1:0|3:0,0:0:0:0:
321,358,50125,2,0,L|242:351,1,80,10|2,0:0|3:0,0:0:0:0:
169,264,50491,5,2,1:0:0:0:
176,185,50674,1,2,3:0:0:0:
183,105,50856,2,0,L|190:25,1,80,10|2,0:0|3:0,0:0:0:0:
103,98,51222,2,0,L|23:91,1,80,2|0,1:0|0:0,0:0:0:0:
176,185,51588,2,0,L|256:192,1,80,10|0,0:0|0:0,0:0:0:0:
342,119,51954,5,2,1:0:0:0:
335,198,52137,1,2,3:0:0:0:
328,278,52320,2,0,L|321:358,1,80,10|2,0:0|3:0,0:0:0:0:
249,271,52686,2,0,L|169:264,1,80,2|2,1:0|3:0,0:0:0:0:
242,351,53052,2,0,L|321:358,1,80,10|2,0:0|3:0,0:0:0:0:
408,285,53417,5,2,1:0:0:0:
415,205,53600,1,2,3:0:0:0:
422,126,53783,1,10,0:0:0:0:
335,198,53966,1,2,3:0:0:0:
262,112,54149,2,0,L|269:32,1,80,2|0,1:0|0:0,0:0:0:0:
176,185,54515,2,0,L|169:264,1,80,10|0,0:0|0:0,0:0:0:0:
242,351,54881,6,0,P|315:350|327:277,1,160,4|10,1:0|0:0,0:0:0:0:
256,192,55430,1,2,3:0:0:0:
176,185,55613,2,0,L|96:178,1,80,2|0,1:0|3:0,0:0:0:0:
23,91,55978,1,10,0:0:0:0:
16,171,56161,2,0,L|9:250,1,80,2|0,3:0|1:0,0:0:0:0:
82,337,56527,6,0,L|89:257,1,80,2|8,3:0|0:0,0:0:0:0:
176,185,56893,2,0,L|169:264,1,80,2|0,3:0|1:0,0:0:0:0:
242,351,57259,1,2,3:0:0:0:
321,358,57442,1,10,0:0:0:0:
401,365,57625,2,0,L|497:373,2,80,2|0|2,3:0|1:0|3:0,0:0:0:0:
328,278,58174,6,0,P|341:205|414:204,1,160,10|2,0:0|1:0,0:0:0:0:
408,285,58722,1,0,3:0:0:0:
401,365,58905,2,0,L|321:358,1,80,10|0,0:0|0:0,0:0:0:0:
169,264,59271,6,0,P|180:191|254:189,1,160,2|10,1:0|0:0,0:0:0:0:
328,278,59820,1,0,1:0:0:0:
415,205,60003,2,0,L|422:126,1,80,2|8,1:0|0:0,0:0:0:0:
425,85,60277,1,0,0:0:0:0:
429,46,60369,2,0,L|349:39,1,80,10|8,0:0|0:0,0:0:0:0:
183,105,60734,6,0,L|176:185,1,80,4|0,1:0|3:0,0:0:0:0:
249,271,61100,1,8,0:0:0:0:
169,264,61283,1,0,3:0:0:0:
89,257,61466,2,0,L|9:250,1,80,0|0,1:0|3:0,0:0:0:0:
82,337,61832,2,0,L|162:344,1,80,8|0,0:0|3:0,0:0:0:0:
249,271,62198,6,0,L|256:192,1,80,0|0,1:0|3:0,0:0:0:0:
183,105,62564,1,8,0:0:0:0:
262,112,62747,1,0,3:0:0:0:
349,39,62930,2,0,L|341:135,1,80,0|0,1:0|0:0,0:0:0:0:
415,205,63295,2,0,L|319:197,1,80,8|0,0:0|0:0,0:0:0:0:
262,112,63661,5,0,1:0:0:0:
256,192,63844,1,0,3:0:0:0:
249,271,64027,2,0,L|169:264,1,80,8|0,0:0|3:0,0:0:0:0:
82,337,64393,1,0,1:0:0:0:
89,257,64576,1,0,3:0:0:0:
96,178,64759,2,0,L|103:98,1,80,8|0,0:0|3:0,0:0:0:0:
176,185,65125,6,0,L|256:192,1,80,0|0,1:0|3:0,0:0:0:0:
328,278,65491,2,0,L|408:285,1,80,8|0,0:0|3:0,0:0:0:0:
495,212,65856,2,0,L|499:165,3,40,8|8|8|8,0:0|0:0|0:0|0:0,0:0:0:0:
502,133,66222,2,0,L|506:85,3,40,8|0|8|8,0:0|0:0|0:0|0:0,0:0:0:0:
509,53,66588,6,0,L|349:39,1,160,8|10,0:0|0:0,0:0:0:0:
269,32,67137,1,2,0:0:0:0:
342,119,67320,2,0,L|335:198,1,80,10|2,0:0|0:0,0:0:0:0:
262,112,67686,2,0,L|183:105,1,80,10|2,0:0|0:0,0:0:0:0:
256,192,68052,6,0,P|243:265|170:265,1,160,0|8,1:0|0:0,0:0:0:0:
176,185,68600,2,0,L|190:25,1,160,0|0,0:0|0:0,0:0:0:0:
262,112,69149,1,4,3:0:0:0:
349,39,69332,1,4,3:0:0:0:
349,39,69424,1,0,1:0:0:0:
349,39,69515,6,0,L|445:47,1,80,12|0,0:0|0:0,0:0:0:0:
502,133,69881,2,0,L|406:124,1,80,14|2,0:0|0:0,0:0:0:0:
335,198,70247,2,0,L|431:207,1,80,14|2,0:0|0:0,0:0:0:0:
488,292,70613,2,0,L|481:372,1,80,12|2,0:0|0:0,0:0:0:0:
408,285,70978,6,0,L|416:190,1,80,12|2,0:0|0:0,0:0:0:0:
328,278,71344,2,0,L|321:358,1,80,14|2,0:0|0:0,0:0:0:0:
249,271,71710,2,0,L|201:267,3,40,14|8|10|8,0:0|0:0|0:0|0:0,0:0:0:0:
169,264,72076,2,0,L|121:260,3,40,10|8|10|8,0:0|0:0|0:0|0:0,0:0:0:0:
89,257,72442,6,0,L|103:98,1,160,2|14,1:0|0:0,0:0:0:0:
269,32,73174,2,0,L|365:40,1,80,6|0,1:0|0:0,0:0:0:0:
429,46,73539,2,0,L|420:142,1,80,14|2,0:0|0:0,0:0:0:0:
262,112,73905,6,0,P|262:186|334:199,1,160,6|14,1:0|0:0,0:0:0:0:
502,133,74637,2,0,L|493:228,1,80,6|0,1:0|0:0,0:0:0:0:
408,285,75003,2,0,L|328:278,1,80,14|0,0:2|0:2,0:0:0:0:
256,192,75369,6,0,L|242:351,1,160,6|14,1:0|0:0,0:0:0:0:
176,185,76100,2,0,L|183:105,1,80,6|0,1:0|3:0,0:0:0:0:
190,25,76466,2,0,L|285:34,1,80,14|0,0:0|3:0,0:0:0:0:
256,192,76832,6,0,P|243:265|170:265,1,160,6|12,1:0|0:0,0:0:0:0:
176,185,77381,1,0,0:0:0:0:
176,185,77472,1,8,0:0:0:0:
176,185,77564,2,0,L|183:105,1,80,4|0,1:0|0:0,0:0:0:0:
190,25,77930,1,0,1:0:0:0:
103,98,78113,1,8,0:0:0:0:
262,112,78295,6,0,L|342:119,1,80,6|0,1:0|0:0,0:0:0:0:
335,198,78661,2,0,L|415:205,1,80,14|0,0:0|0:0,0:0:0:0:
502,133,79027,2,0,L|486:308,1,160,6|14,1:0|0:0,0:0:0:0:
401,365,79576,1,2,0:0:0:0:
328,278,79759,6,0,P|341:205|414:204,1,160,6|12,1:0|0:0,0:0:0:0:
401,365,80491,2,0,L|242:351,1,160,6|14,1:0|0:0,0:0:0:0:
162,344,81039,1,0,0:0:0:0:
162,344,81222,6,0,L|169:264,1,80,2|0,1:0|3:0,0:0:0:0:
89,257,81588,2,0,L|96:178,1,80,14|0,0:0|3:0,0:0:0:0:
176,185,81954,2,0,L|183:105,1,80,6|0,1:0|3:0,0:0:0:0:
110,18,82320,2,0,L|206:27,1,80,14|0,0:0|3:0,0:0:0:0:
269,32,82686,5,6,1:0:0:0:
342,119,82869,1,8,0:0:0:0:
256,192,83052,2,0,L|249:271,1,80,10|0,0:0|0:0,0:0:0:0:
245,311,83326,1,8,0:0:0:0:
242,351,83417,2,0,L|337:359,1,80,2|8,1:0|0:0,0:0:0:0:
408,285,83783,2,0,L|413:221,3,40,8|8|8|8,0:0|0:0|0:0|0:0,0:0:0:0:
415,205,84149,6,0,L|256:192,1,160,14|14,0:0|0:0,0:0:0:0:
190,25,84881,2,0,L|176:185,1,160,14|14,0:0|0:0,0:0:0:0:
169,264,85430,1,0,0:0:0:0:
256,192,85613,6,0,L|415:205,1,160,14|14,0:0|0:0,0:0:0:0:
262,112,86344,2,0,L|103:98,1,160,14|14,0:0|0:0,0:0:0:0:
110,18,86893,1,2,0:0:0:0:
183,105,87076,6,0,L|174:200,1,80,14|0,0:0|0:0,0:0:0:0:
249,271,87442,2,0,L|257:176,1,80,14|0,0:0|0:0,0:0:0:0:
342,119,87808,2,0,L|438:127,1,80,14|0,0:0|0:0,0:0:0:0:
495,212,88174,2,0,L|415:205,1,80,14|0,0:0|0:0,0:0:0:0:
328,278,88539,6,0,L|321:358,1,80,14|0,0:0|0:0,0:0:0:0:
249,271,88905,2,0,L|257:176,1,80,14|0,0:0|0:0,0:0:0:0:
169,264,89271,2,0,L|89:257,1,80,2|0,1:0|0:0,0:0:0:0:
16,171,89637,2,0,L|128:180,1,80,0|8,1:0|0:0,0:0:0:0:
190,25,90003,6,0,L|180:137,1,80,14|0,0:0|0:0,0:0:0:0:
256,192,90369,2,0,L|265:80,1,80,14|0,0:0|0:0,0:0:0:0:
349,39,90734,2,0,L|342:119,1,80,14|0,0:0|0:0,0:0:0:0:
415,205,91100,1,14,0:0:0:0:
335,198,91283,1,0,0:0:0:0:
256,192,91466,6,0,L|160:183,1,80,14|0,0:0|0:0,0:0:0:0:
249,271,91832,2,0,L|344:280,1,80,14|0,0:0|0:0,0:0:0:0:
242,351,92198,2,0,L|146:343,1,80,14|0,0:0|0:0,0:0:0:0:
89,257,92564,2,0,L|98:162,1,80,14|0,0:0|0:0,0:0:0:0:
183,105,92930,6,0,L|174:200,1,80,14|0,0:0|0:0,0:0:0:0:
249,271,93295,2,0,L|257:176,1,80,14|0,0:0|0:0,0:0:0:0:
342,119,93661,2,0,L|422:126,1,80,14|0,0:0|0:0,0:0:0:0:
335,198,94027,1,14,0:0:0:0:
256,192,94210,1,2,0:0:0:0:
176,185,94393,6,0,L|183:105,1,80,14|0,0:0|0:0,0:0:0:0:
96,178,94759,2,0,L|89:257,1,80,14|0,0:0|0:0,0:0:0:0:
86,297,95033,1,8,0:0:0:0:
82,337,95125,1,2,1:0:0:0:
242,351,95308,1,0,1:0:0:0:
280,354,95399,1,8,0:0:0:0:
321,358,95491,2,0,L|369:362,3,40,8|8|8|8,0:0|0:0|0:0|0:0,0:0:0:0:
401,365,95856,5,2,0:0:0:0:
