osu file format v14

[General]
AudioFilename: audio.mp3
AudioLeadIn: 0
PreviewTime: 48204
Countdown: 0
SampleSet: Soft
StackLeniency: 0.4
Mode: 0
LetterboxInBreaks: 0
WidescreenStoryboard: 1

[Editor]
Bookmarks: 735,12442,24149,35856,41710,49027,72442,84149,95856
DistanceSpacing: 0.1
BeatDivisor: 4
GridSize: 16
TimelineZoom: 1.8

[Metadata]
Title:MONSTER
TitleUnicode:MONSTER
Artist:Reol
ArtistUnicode:れをる
Creator:Sotarks
Version:IROHAS' INSANE
Source:
Tags:極彩色 梅とら umetora reworu gokusaishoku haruto haruto_aizawa akitoshi corinn kin irohas mugiwarasekai pkhg davided linada sharu sharuresu chromoxx
BeatmapID:1403948
BeatmapSetID:661483

[Difficulty]
HPDrainRate:6
CircleSize:4
OverallDifficulty:7
ApproachRate:8.7
SliderMultiplier:1.6
SliderTickRate:1

[Events]
//Background and Video events
0,0,"BG.jpg",0,0
//Break Periods
//Storyboard Layer 0 (Background)
//Storyboard Layer 1 (Fail)
//Storyboard Layer 2 (Pass)
//Storyboard Layer 3 (Foreground)
//Storyboard Sound Samples

[TimingPoints]
735,365.853658536585,4,2,7,42,1,0
735,-125,4,2,7,42,0,0
10978,-111.111111111111,4,2,7,42,0,0
11253,-111.111111111111,4,2,7,5,0,0
11344,-100,4,2,7,62,0,0
11710,-166.666666666667,4,2,7,62,0,0
12350,-100,4,2,7,5,0,0
12442,-100,4,2,7,72,0,0
24149,-100,4,2,7,62,0,0
35033,-100,4,2,7,62,0,0
35125,-100,4,2,7,62,0,0
35308,-74.0740740740741,4,2,7,62,0,0
35673,-100,4,2,7,62,0,0
44911,-100,4,2,7,5,0,0
45003,-83.3333333333333,4,2,7,62,0,0
45369,-100,4,2,7,62,0,0
46375,-100,4,2,7,5,0,0
46466,-100,4,2,7,62,0,0
48113,-200,4,2,7,25,0,0
48936,-200,4,2,7,5,0,0
49027,-100,4,2,7,95,0,1
49210,-100,4,2,7,82,0,1
59180,-100,4,2,7,5,0,1
59271,-100,4,2,7,82,0,1
60552,-100,4,2,7,82,0,0
60734,-100,4,2,7,82,0,1
66588,-100,4,2,7,82,0,0
69515,-100,4,2,7,92,0,1
72442,-100,4,2,7,82,0,0
95856,-100,4,2,7,22,0,0

[Colours]
Combo1 : 252,228,180
Combo2 : 193,215,255
Combo3 : 255,191,239
SliderBorder : 255,255,255
SliderTrackOverride : 0,0,0

[HitObjects]
4,283,735,6,0,L|146:307,1,128,4|2,1:0|0:0,0:0:0:0:
224,217,1283,1,2,1:0:0:0:
224,217,1466,2,0,P|184:223|141:229,1,64,2|2,0:0|0:1,0:0:0:0:
284,294,1832,2,0,P|252:298|220:303,1,64,2|2,1:2|1:0,0:0:0:0:
333,167,2198,6,0,P|345:195|345:233,1,64,2|2,0:0|1:0,0:0:0:0:
399,354,2564,2,0,P|396:322|406:291,1,64,2|2,0:0|0:1,0:0:0:0:
454,166,2930,2,0,P|462:201|475:255,1,64,2|2,1:2|0:1,0:0:0:0:
402,92,3295,5,2,1:2:0:0:
512,111,3478,1,2,0:1:0:0:
396,91,3661,6,0,P|403:59|410:28,1,64,2|2,1:2|0:1,0:0:0:0:
252,112,4027,2,0,L|327:127,1,64,2|2,0:0|1:0,0:0:0:0:
183,41,4393,2,0,L|245:28,1,64,2|2,0:0|0:1,0:0:0:0:
96,108,4759,2,0,L|158:123,1,64,2|2,0:0|1:0,0:0:0:0:
13,208,5125,6,0,P|6:176|0:145,1,64,2|2,0:0|0:1,0:0:0:0:
90,273,5491,2,0,P|96:241|102:210,1,64,2|2,0:0|0:1,0:0:0:0:
26,339,5856,5,2,0:0:0:0:
24,333,6039,1,2,0:1:0:0:
178,281,6222,5,2,0:0:0:0:
180,287,6405,1,2,0:1:0:0:
29,347,6588,6,0,P|80:358|178:376,1,128,2|2,1:2|0:0,0:0:0:0:
262,310,7137,1,2,1:0:0:0:
262,310,7320,2,0,L|249:372,1,64,2|2,0:0|0:1,0:0:0:0:
338,248,7686,2,0,L|325:185,1,64,2|2,1:2|1:0,0:0:0:0:
417,304,8052,6,0,L|403:367,1,64,2|2,0:0|1:0,0:0:0:0:
261,304,8417,2,0,L|341:322,1,64,2|2,0:0|0:1,0:0:0:0:
475,277,8783,2,0,L|395:295,1,64,2|2,1:2|0:1,0:0:0:0:
491,187,9149,5,2,1:2:0:0:
407,288,9332,1,2,0:1:0:0:
321,176,9515,6,0,L|334:245,1,64,2|2,1:2|0:1,0:0:0:0:
407,81,9881,2,0,L|397:144,1,64,2|2,0:0|1:0,0:0:0:0:
244,97,10247,2,0,P|269:90|315:99,1,64,2|2,0:0|0:1,0:0:0:0:
208,186,10613,2,0,P|176:191|145:183,1,64,2|2,0:0|1:0,0:0:0:0:
39,90,10978,6,0,P|49:143|64:221,1,107.999996704102,2|0,0:0|0:0,0:0:0:0:
64,204,11344,1,8,0:0:0:0:
201,293,11619,1,8,0:0:0:0:
198,286,11710,6,0,P|153:264|58:337,1,167.999994873047,8|0,0:3|0:0,0:0:0:0:
62,335,12442,6,0,P|102:343|158:353,1,80,4|2,0:1|0:3,0:0:0:0:
276,270,12808,2,0,P|236:278|180:288,1,80,8|2,0:0|0:3,0:0:0:0:
369,323,13174,1,2,0:0:0:0:
341,197,13356,1,2,0:3:0:0:
465,280,13539,2,0,P|478:234|491:186,1,80,8|2,0:0|0:3,0:0:0:0:
395,76,13905,6,0,P|403:115|413:159,1,80,2|2,0:0|0:3,0:0:0:0:
230,145,14271,2,0,P|257:131|316:135,1,80,8|2,0:0|0:3,0:0:0:0:
147,193,14637,5,2,0:0:0:0:
284,210,14820,1,2,0:3:0:0:
141,189,15003,2,0,L|165:293,1,80,8|2,0:0|0:3,0:0:0:0:
13,325,15369,6,0,L|116:352,1,80,2|2,0:0|0:3,0:0:0:0:
245,282,15734,1,8,0:0:0:0:
98,338,15917,1,2,0:3:0:0:
254,280,16100,2,0,L|230:384,1,80,2|2,0:0|0:3,0:0:0:0:
206,211,16466,1,8,0:0:0:0:
347,315,16649,1,2,0:3:0:0:
318,216,16832,5,2,0:0:0:0:
246,375,17015,1,2,0:3:0:0:
438,308,17198,5,8,0:0:0:0:
325,194,17381,1,2,0:3:0:0:
320,205,17472,1,8,0:0:0:0:
318,216,17564,5,2,0:0:0:0:
410,156,17747,1,2,0:0:0:0:
231,207,17930,5,2,0:0:0:0:
410,144,18113,1,8,0:0:0:0:
227,220,18295,6,0,B|209:179|209:179|233:131,1,80,4|2,0:1|0:3,0:0:0:0:
342,32,18661,2,0,P|334:77|321:137,1,80,8|2,0:0|0:3,0:0:0:0:
181,31,19027,1,2,0:0:0:0:
220,141,19210,1,2,0:3:0:0:
60,66,19393,2,0,P|49:99|73:161,1,80,8|2,0:0|0:3,0:0:0:0:
146,264,19759,6,0,P|157:231|133:169,1,80,2|2,0:0|0:3,0:0:0:0:
0,300,20125,2,0,P|40:309|96:323,1,80,8|2,0:0|0:3,0:0:0:0:
239,249,20491,1,2,0:0:0:0:
86,325,20674,1,2,0:3:0:0:
245,245,20856,2,0,P|236:289|222:347,1,80,8|2,0:0|0:3,0:0:0:0:
406,286,21222,6,0,P|376:271|329:277,1,80,2|2,0:0|0:3,0:0:0:0:
472,212,21588,1,8,0:0:0:0:
330,276,21771,1,2,0:3:0:0:
484,371,21954,2,0,B|506:332|506:332|488:281,1,80,2|2,0:0|0:3,0:0:0:0:
313,193,22320,1,8,0:0:0:0:
379,345,22503,1,2,0:3:0:0:
402,241,22686,5,2,0:0:0:0:
278,363,22869,1,2,0:3:0:0:
208,185,23052,5,8,0:0:0:0:
320,283,23234,1,2,0:3:0:0:
308,287,23326,1,8,0:0:0:0:
296,286,23417,1,2,0:0:0:0:
50,262,23600,5,8,0:0:0:0:
76,244,23691,1,8,0:0:0:0:
107,238,23783,1,8,0:3:0:0:
138,245,23874,1,10,0:3:0:0:
163,265,23965,1,2,0:3:0:0:
178,293,24057,1,2,0:3:0:0:
176,325,24149,1,4,0:1:0:0:
176,325,24515,5,2,0:0:0:0:
240,372,24881,1,2,0:0:0:0:
313,340,25247,1,2,0:0:0:0:
304,260,25613,5,2,0:0:0:0:
378,289,25978,1,2,0:0:0:0:
414,217,26344,1,2,0:0:0:0:
343,179,26710,1,2,0:0:0:0:
425,77,27076,5,6,0:0:0:0:
379,142,27442,1,2,0:0:0:0:
298,142,27808,1,2,0:0:0:0:
249,78,28174,1,0,0:0:0:0:
180,36,28539,5,2,0:0:0:0:
105,66,28905,1,2,0:0:0:0:
109,145,29271,1,2,0:0:0:0:
182,176,29637,1,2,0:0:0:0:
260,75,30003,5,6,0:0:0:0:
217,142,30369,1,2,0:0:0:0:
229,220,30734,1,2,0:0:0:0:
272,287,31100,1,2,0:0:0:0:
219,347,31466,5,2,0:0:0:0:
144,316,31832,1,2,0:0:0:0:
150,236,32198,1,2,0:0:0:0:
224,207,32564,1,2,0:0:0:0:
306,305,32930,5,6,0:0:0:0:
308,297,33295,1,2,0:0:0:0:
310,289,33661,1,2,0:0:0:0:
313,281,34027,1,2,0:0:0:0:
321,259,34393,5,4,0:1:0:0:
418,373,34667,1,2,0:0:0:0:
423,378,34759,6,0,B|455:325|455:325|423:254,1,120,8|0,0:0|0:0,0:0:0:0:
425,267,35125,6,0,P|462:273|489:278,1,40,2|2,0:0|0:0,0:0:0:0:
354,166,35308,6,0,B|346:194|346:194|360:236,1,54.0000002059937,12|2,0:0|0:0,0:0:0:0:
435,98,35491,2,0,B|443:70|443:70|432:40,1,54.0000002059937,12|2,0:0|0:0,0:0:0:0:
444,182,35674,6,0,L|486:175,1,40,2|2,0:0|0:0,0:0:0:0:
358,84,35856,6,0,B|273:73|299:139|205:117,1,160,4|8,0:1|0:0,0:0:0:0:
203,114,36405,1,2,0:3:0:0:
128,0,36588,2,0,L|107:98,1,80,2|2,0:0|0:3,0:0:0:0:
33,202,36954,2,0,B|16:165|16:165|40:115,1,80,8|0,0:0|0:0,0:0:0:0:
128,239,37320,5,2,0:0:0:0:
0,281,37503,1,2,0:1:0:0:
137,237,37686,2,0,P|128:283|116:328,1,80,8|2,0:0|0:3,0:0:0:0:
79,174,38052,5,2,0:0:0:0:
79,174,38234,1,2,0:1:0:0:
205,291,38417,1,8,0:0:0:0:
252,135,38600,5,2,0:1:0:0:
255,133,38692,1,8,0:0:0:0:
258,132,38783,2,0,P|269:181|282:236,1,80,8|2,0:0|0:3,0:0:0:0:
346,325,39149,2,0,P|355:286|363:246,1,80,8|2,0:0|0:3,0:0:0:0:
418,365,39515,5,2,0:0:0:0:
266,306,39698,1,2,0:0:0:0:
438,230,39881,5,8,0:0:0:0:
267,293,40064,1,2,0:0:0:0:
345,222,40247,5,6,0:0:0:0:
269,384,40430,1,2,0:1:0:0:
161,237,40613,2,0,B|146:277|146:277|167:317,1,80,8|2,0:0|0:1,0:0:0:0:
226,171,40978,5,2,0:0:0:0:
226,171,41161,1,2,0:1:0:0:
76,231,41344,1,8,0:0:0:0:
111,82,41527,5,2,0:1:0:0:
114,80,41619,1,8,0:0:0:0:
117,79,41710,2,0,P|128:128|141:183,1,80,8|2,0:0|0:3,0:0:0:0:
294,95,42076,2,0,P|265:83|207:92,1,80,8|2,0:0|0:3,0:0:0:0:
387,62,42442,5,2,0:0:0:0:
310,187,42625,1,2,0:0:0:0:
392,57,42808,2,0,P|402:105|413:158,1,80,8|0,0:0|0:0,0:0:0:0:
486,257,43174,5,2,0:0:0:0:
505,177,43356,1,2,0:1:0:0:
389,247,43539,5,2,0:1:0:0:
408,327,43721,1,2,0:0:0:0:
276,203,43905,6,0,L|258:303,1,80,8|2,0:0|0:0,0:0:0:0:
110,193,44271,1,8,0:0:0:0:
130,283,44454,1,4,0:0:0:0:
187,141,44637,5,4,0:1:0:0:
38,252,44820,1,8,0:0:0:0:
187,344,45003,5,8,0:0:0:0:
185,337,45094,2,0,P|151:319|87:333,1,95.9999970703126,8|0,0:0|0:0,0:0:0:0:
87,339,45369,5,8,0:0:0:0:
257,267,45552,1,8,0:0:0:0:
254,255,45643,1,8,0:3:0:0:
252,243,45734,5,2,0:0:0:0:
344,327,45917,1,8,0:0:0:0:
342,339,46008,1,8,0:0:0:0:
339,350,46100,6,0,P|399:339|472:324,1,120,8|0,0:3|0:0,0:0:0:0:
463,321,46466,5,2,0:0:0:0:
392,252,46649,1,8,0:3:0:0:
512,114,46832,5,8,0:0:0:0:
482,220,47015,1,2,0:0:0:0:
418,65,47198,5,8,0:0:0:0:
486,238,47381,1,4,0:1:0:0:
418,65,48113,6,0,B|323:46|351:121|251:107,1,180,2|0,0:0|0:0,0:0:0:0:
250,106,49027,6,0,P|287:117|281:221,1,160,4|8,0:3|0:1,0:0:0:0:
166,195,49576,1,2,0:3:0:0:
170,191,49759,2,0,P|184:240|200:290,1,80,2|2,0:0|0:3,0:0:0:0:
59,313,50125,2,0,P|112:326|154:335,1,80,8|2,0:1|0:3,0:0:0:0:
294,286,50491,5,2,0:0:0:0:
147,334,50674,1,2,0:3:0:0:
292,272,50856,5,8,0:1:0:0:
149,352,51039,1,2,0:3:0:0:
190,178,51222,6,0,P|201:229|212:281,1,80,2|2,0:0|0:3,0:0:0:0:
369,196,51588,2,0,P|339:185|281:197,1,80,8|2,0:1|0:3,0:0:0:0:
413,293,51954,6,0,P|451:300|489:289,1,80,2|2,0:0|0:3,0:0:0:0:
386,130,52320,2,0,P|375:178|362:229,1,80,8|2,0:1|0:3,0:0:0:0:
324,68,52686,1,2,0:0:0:0:
367,207,52869,1,2,0:3:0:0:
212,172,53052,2,0,P|260:161|313:148,1,80,8|2,0:1|0:3,0:0:0:0:
106,129,53417,5,2,0:0:0:0:
159,262,53600,1,2,0:3:0:0:
116,115,53783,5,8,0:1:0:0:
148,272,53966,1,2,0:3:0:0:
8,167,54149,6,0,B|-10:205|-10:205|8:255,1,80,2|0,0:0|0:0,0:0:0:0:
116,350,54515,2,0,B|134:312|134:312|121:276,1,80,8|0,0:1|0:0,0:0:0:0:
261,158,54881,6,0,P|247:237|229:329,1,160,4|8,0:1|0:1,0:0:0:0:
375,349,55430,1,2,0:3:0:0:
378,355,55613,2,0,P|326:367|280:376,1,80,2|2,0:0|0:3,0:0:0:0:
462,370,55978,5,8,0:1:0:0:
336,281,56161,1,2,0:3:0:0:
468,375,56344,6,0,P|476:334|488:277,1,80,2|2,0:0|0:3,0:0:0:0:
397,161,56710,2,0,L|413:239,1,80,8|2,0:1|0:3,0:0:0:0:
257,264,57076,2,0,P|300:274|352:284,1,80,2|2,0:0|0:3,0:0:0:0:
166,304,57442,1,8,0:1:0:0:
218,188,57625,1,2,0:3:0:0:
71,273,57808,6,0,P|58:237|72:187,1,80,0|2,0:0|0:3,0:0:0:0:
163,85,58174,2,0,P|175:120|162:171,1,80,8|2,0:1|0:3,0:0:0:0:
83,32,58539,5,2,0:0:0:0:
86,39,58722,1,2,0:3:0:0:
174,164,58905,6,0,P|232:153|313:136,1,120,8|0,0:1|0:0,0:0:0:0:
313,137,59271,6,0,P|264:131|217:126,1,80,2|2,0:0|0:3,0:0:0:0:
412,82,59637,1,8,0:1:0:0:
319,45,59820,1,8,0:0:0:0:
419,174,60003,5,8,0:0:0:0:
280,223,60186,2,0,P|319:232|344:236,1,40,8|8,0:0|3:0,0:0:0:0:
437,278,60369,6,8,L|398:286,1,40,8|8,0:1|0:0,0:0:0:0:
272,319,60552,2,8,P|291:323|310:327,1,40
466,367,60734,6,0,L|375:382,1,80,4|2,0:1|0:3,0:0:0:0:
193,304,61100,2,0,P|225:293|275:302,1,80,8|2,0:1|0:3,0:0:0:0:
140,384,61466,1,2,0:0:0:0:
140,384,61649,1,2,0:3:0:0:
82,251,61832,2,0,L|56:345,1,80,8|2,0:1|0:3,0:0:0:0:
35,173,62198,5,2,0:0:0:0:
172,249,62381,1,2,0:3:0:0:
21,185,62564,5,8,0:1:0:0:
181,241,62747,1,2,0:3:0:0:
104,87,62930,2,0,L|125:164,1,80,2|2,0:0|0:3,0:0:0:0:
288,125,63295,2,0,P|252:112|200:122,1,80,8|2,0:1|0:3,0:0:0:0:
339,252,63661,6,0,L|360:174,1,80,2|2,0:0|0:3,0:0:0:0:
505,269,64027,2,0,P|453:281|412:290,1,80,8|0,0:1|0:0,0:0:0:0:
258,252,64393,1,2,0:0:0:0:
418,297,64576,1,2,0:3:0:0:
252,249,64759,2,0,L|273:326,1,80,8|2,0:1|0:3,0:0:0:0:
41,338,65125,6,0,B|130:324|99:378|195:366,1,160,2|8,0:0|0:1,0:0:0:0:
201,359,65674,1,2,0:3:0:0:
47,215,65856,5,8,0:0:0:0:
27,234,65947,1,8,0:0:0:0:
16,260,66038,1,8,0:0:0:0:
16,288,66130,1,8,0:0:0:0:
27,313,66222,5,8,0:1:0:0:
175,180,66405,2,8,L|163:242,1,40
111,275,66588,6,0,P|171:262|280:235,1,160,4|8,0:1|0:0,0:0:0:0:
371,339,67137,1,0,0:0:0:0:
370,334,67320,2,0,L|275:318,1,80,8|0,0:0|0:0,0:0:0:0:
478,240,67686,2,0,L|399:253,1,80,8|0,0:0|0:0,0:0:0:0:
512,166,68052,5,4,0:1:0:0:
399,253,68234,1,2,0:0:0:0:
366,89,68417,5,8,0:0:0:0:
425,171,68600,1,2,0:0:0:0:
438,28,68783,5,8,0:0:0:0:
338,170,68966,1,2,0:0:0:0:
332,180,69057,1,8,3:0:0:0:
325,190,69149,5,8,0:1:0:0:
298,207,69240,1,2,0:0:0:0:
266,209,69331,1,2,0:0:0:0:
237,193,69423,1,2,0:0:0:0:
220,165,69515,6,0,P|233:235|253:341,1,160,4|8,0:1|0:0,0:0:0:0:
93,363,70064,1,0,0:0:0:0:
89,356,70247,2,0,P|144:368|191:378,1,80,8|0,0:0|0:0,0:0:0:0:
26,228,70613,2,0,B|8:264|8:264|25:307,1,80,8|0,0:0|0:0,0:0:0:0:
94,119,70978,6,0,P|103:158|113:205,1,80,4|0,0:1|0:0,0:0:0:0:
255,235,71344,2,0,L|169:254,1,80,8|0,0:0|0:0,0:0:0:0:
340,141,71710,5,10,0:0:0:0:
355,164,71802,1,2,0:0:0:0:
363,190,71892,1,8,0:0:0:0:
362,218,71984,1,8,0:0:0:0:
355,246,72076,5,10,0:0:0:0:
341,270,72167,1,8,0:0:0:0:
335,297,72258,1,8,0:0:0:0:
343,323,72350,1,8,0:0:0:0:
359,345,72442,6,0,P|401:336|458:325,1,80,4|2,0:1|0:3,0:0:0:0:
270,193,72808,2,0,P|261:238|249:289,1,80,8|2,0:1|0:3,0:0:0:0:
191,384,73174,2,0,P|182:344|174:305,1,80,2|2,0:0|0:3,0:0:0:0:
18,349,73539,2,0,P|58:359|107:370,1,80,8|2,0:1|0:3,0:0:0:0:
215,243,73905,6,0,P|175:232|129:245,1,80,2|2,0:0|0:3,0:0:0:0:
1,188,74271,2,0,P|41:196|86:180,1,80,8|2,0:1|0:3,0:0:0:0:
112,38,74637,2,0,P|124:88|138:145,1,80,2|2,0:0|0:3,0:0:0:0:
272,69,75003,5,8,0:1:0:0:
136,119,75186,1,2,0:3:0:0:
280,67,75369,6,0,P|268:117|254:174,1,80,2|2,0:0|0:3,0:0:0:0:
201,268,75734,2,0,P|191:229|182:190,1,80,8|2,0:1|0:3,0:0:0:0:
366,248,76100,2,0,P|333:234|285:244,1,80,2|2,0:0|0:3,0:0:0:0:
412,103,76466,2,0,P|421:141|430:180,1,80,8|2,0:1|0:3,0:0:0:0:
341,314,76832,6,0,P|350:275|360:231,1,80,2|2,0:0|0:3,0:0:0:0:
512,356,77198,2,0,P|453:366|393:376,1,120,8|8,0:1|0:0,0:0:0:0:
388,373,77564,5,2,0:0:0:0:
334,286,77747,1,2,0:0:0:0:
243,384,77930,1,2,0:0:0:0:
176,269,78113,1,8,0:0:0:0:
62,375,78295,6,0,P|48:339|58:289,1,80,4|2,0:1|0:3,0:0:0:0:
193,190,78661,2,0,P|185:227|172:285,1,80,8|2,0:1|0:3,0:0:0:0:
86,102,79027,2,0,P|94:139|107:197,1,80,2|2,0:0|0:3,0:0:0:0:
139,37,79393,5,8,0:1:0:0:
6,122,79576,1,2,0:3:0:0:
172,242,79759,6,0,P|194:199|189:155,1,80,2|2,0:0|0:3,0:0:0:0:
252,30,80125,2,0,P|260:70|272:122,1,80,8|2,0:1|0:3,0:0:0:0:
424,169,80491,2,0,P|385:162|336:150,1,80,2|2,0:0|0:3,0:0:0:0:
482,99,80856,5,8,0:1:0:0:
345,152,81039,1,2,0:3:0:0:
492,262,81222,6,0,B|516:225|516:225|505:176,1,80,2|2,0:0|0:3,0:0:0:0:
335,271,81588,2,0,P|373:280|420:291,1,80,8|2,0:1|0:3,0:0:0:0:
250,205,81954,2,0,P|288:195|327:186,1,80,2|2,0:0|0:3,0:0:0:0:
154,269,82320,2,0,P|192:278|231:287,1,80,8|2,0:1|0:3,0:0:0:0:
100,202,82686,5,8,0:0:0:0:
231,287,82869,1,8,0:0:0:0:
62,368,83052,6,0,B|43:334|43:334|59:288,1,80,10|2,0:0|0:3,0:0:0:0:
68,287,83326,1,8,0:0:0:0:
71,285,83417,1,2,0:0:0:0:
208,377,83600,5,8,0:0:0:0:
231,372,83692,1,8,0:0:0:0:
254,368,83783,1,8,3:2:0:0:
278,366,83875,1,8,0:0:0:0:
301,363,83966,1,10,0:0:0:0:
324,359,84057,1,8,0:0:0:0:
347,356,84149,6,0,B|361:313|361:313|340:270,1,80,4|2,0:1|0:3,0:0:0:0:
274,145,84515,2,0,P|268:187|259:234,1,80,12|0,0:0|0:0,0:0:0:0:
106,253,84881,2,0,P|157:266|211:277,1,80,12|0,0:0|0:0,0:0:0:0:
48,380,85247,2,0,P|38:342|23:286,1,80,12|0,0:0|0:0,0:0:0:0:
118,173,85613,6,0,P|107:211|97:250,1,80,12|0,0:0|0:0,0:0:0:0:
2,91,85978,2,0,P|12:129|22:168,1,80,12|0,0:0|0:0,0:0:0:0:
180,98,86344,2,0,P|145:83|94:91,1,80,12|0,0:0|0:0,0:0:0:0:
276,136,86710,5,12,0:0:0:0:
133,165,86893,1,0,0:0:0:0:
284,135,87076,6,0,P|274:186|263:231,1,80,12|0,0:0|0:0,0:0:0:0:
214,331,87442,2,0,P|205:292|195:249,1,80,12|0,0:0|0:0,0:0:0:0:
373,350,87808,2,0,P|329:357|292:342,1,80,12|0,0:0|0:0,0:0:0:0:
429,262,88174,2,0,P|467:254|505:266,1,80,12|0,0:0|0:0,0:0:0:0:
373,350,88539,5,2,0:0:0:0:
332,212,88722,1,2,0:0:0:0:
222,344,88905,2,0,P|213:305|203:262,1,80,12|0,0:0|0:3,0:0:0:0:
205,259,89180,1,8,0:0:0:0:
209,253,89271,5,2,0:0:0:0:
139,359,89454,1,2,0:0:0:0:
37,179,89637,5,8,0:1:0:0:
20,201,89728,1,8,0:1:0:0:
12,228,89819,1,8,0:1:0:0:
15,255,89911,1,8,0:1:0:0:
29,275,90003,6,0,P|79:266|126:256,1,80,4|0,0:1|0:0,0:0:0:0:
244,209,90369,2,0,P|194:200|144:192,1,80,12|0,0:0|0:0,0:0:0:0:
294,67,90734,2,0,P|303:111|313:158,1,80,12|0,0:0|0:0,0:0:0:0:
456,200,91100,5,12,0:0:0:0:
317,153,91283,1,0,0:0:0:0:
462,204,91466,6,0,L|383:217,1,80,12|0,0:0|0:0,0:0:0:0:
262,296,91832,2,0,P|299:282|338:287,1,80,12|0,0:0|0:0,0:0:0:0:
213,151,92198,2,0,P|204:195|193:243,1,80,12|0,0:0|0:0,0:0:0:0:
102,352,92564,2,0,B|88:315|88:315|109:267,1,80,12|0,0:0|0:0,0:0:0:0:
270,357,92930,6,0,L|191:370,1,80,12|0,0:0|0:0,0:0:0:0:
324,266,93295,2,0,L|245:279,1,80,12|0,0:0|0:0,0:0:0:0:
428,370,93661,2,0,L|349:383,1,80,12|0,0:0|0:0,0:0:0:0:
489,311,94027,5,12,0:0:0:0:
349,382,94210,1,0,0:0:0:0:
386,213,94393,6,0,P|394:254|407:312,1,80,4|0,0:1|0:0,0:0:0:0:
436,142,94759,1,8,0:0:0:0:
307,262,94942,1,2,0:3:0:0:
308,265,95033,1,8,0:0:0:0:
307,268,95125,6,0,P|267:273|218:248,1,80,2|8,0:0|0:0,0:0:0:0:
225,254,95399,1,8,0:0:0:0:
219,249,95491,6,8,P|213:279|207:309,1,40
148,372,95674,2,8,L|140:332,1,40
71,282,95856,6,0,L|66:309,2,20,2|0|2,0:0|1:0|1:3,0:0:0:0:
