osu file format v14

[General]
AudioFilename: audio.mp3
AudioLeadIn: 0
PreviewTime: 48204
Countdown: 0
SampleSet: Soft
StackLeniency: 0.7
Mode: 0
LetterboxInBreaks: 0
WidescreenStoryboard: 1

[Editor]
Bookmarks: 735,12442,24149,35856,49027,72442,84149,95856
DistanceSpacing: 1
BeatDivisor: 2
GridSize: 32
TimelineZoom: 1.5

[Metadata]
Title:MONSTER
TitleUnicode:MONSTER
Artist:Reol
ArtistUnicode:れをる
Creator:Sotarks
Version:HARUTO'S EASY
Source:
Tags:極彩色 梅とら umetora reworu gokusaishoku haruto haruto_aizawa akitoshi corinn kin irohas mugiwarasekai pkhg davided linada sharu sharuresu chromoxx
BeatmapID:1409523
BeatmapSetID:661483

[Difficulty]
HPDrainRate:2
CircleSize:3
OverallDifficulty:2
ApproachRate:3
SliderMultiplier:0.9
SliderTickRate:1

[Events]
//Background and Video events
0,0,"BG.jpg",0,0
//Break Periods
//Storyboard Layer 0 (Background)
//Storyboard Layer 1 (Fail)
//Storyboard Layer 2 (Pass)
//Storyboard Layer 3 (Foreground)
//Storyboard Sound Samples

[TimingPoints]
735,365.853658536585,4,2,22,42,1,0
735,-100,4,2,22,42,0,0
11344,-100,4,2,22,52,0,0
12350,-100,4,2,22,5,0,0
12442,-100,4,2,22,72,0,0
24149,-100,4,2,22,62,0,0
49027,-100,4,2,22,82,0,1
66588,-100,4,2,22,82,0,0
69515,-100,4,2,22,92,0,1
72442,-100,4,2,22,82,0,0

[Colours]
Combo1 : 119,129,176
Combo2 : 255,234,159
Combo3 : 32,104,191
Combo4 : 215,92,2
SliderBorder : 255,255,255
SliderTrackOverride : 0,0,0

[HitObjects]
56,160,735,6,0,P|96:136|208:276,1,270,2|2,1:0|1:0,0:0:0:0:
168,348,2198,2,0,B|276:272|276:272|408:320,1,270,0|2,1:0|1:0,0:0:0:0:
480,372,3661,2,0,B|516:308|492:228|444:256|380:200|408:116|448:76,1,315,2|2,1:0|0:0,0:0:0:0:
437,88,6222,1,0,1:0:0:0:
364,36,6588,6,0,B|271:12|271:12|108:72,1,270,2|2,1:0|1:0,0:0:0:0:
25,108,8052,2,0,B|49:156|106:172|163:147|163:147|278:101,1,270
288,192,9515,2,0,B|119:260|119:260|256:273,1,315
374,217,11344,2,0,P|378:182|346:118,1,90,8|2,0:0|0:0,0:0:0:0:
196,48,12442,6,0,L|9:77,1,180,0|0,1:0|1:0,0:0:0:0:
30,164,13539,1,8,0:0:0:0:
47,252,13905,2,0,P|96:223|94:103,1,180,0|0,1:0|1:0,0:0:0:0:
18,75,15003,1,8,0:0:0:0:
90,21,15369,6,0,L|196:7,1,90,0|8,1:0|0:0,0:0:0:0:
219,89,16100,2,0,L|325:75,1,90,0|8,1:0|0:0,0:0:0:0:
357,0,16832,2,0,P|389:33|400:91,1,90,0|0,1:0|1:0,0:0:0:0:
489,55,17564,2,0,P|492:100|463:152,1,90,0|0,1:0|1:0,0:0:0:0:
443,227,18295,6,0,B|360:261|360:261|263:246,1,180,4|0,1:0|1:0,0:0:0:0:
210,180,19393,1,8,0:0:0:0:
146,119,19759,2,0,P|124:202|183:266,1,180,0|0,1:0|1:0,0:0:0:0:
270,247,20856,1,8,0:0:0:0:
298,161,21222,6,0,P|280:119|244:93,1,90,0|8,1:0|0:0,0:0:0:0:
175,36,21954,2,0,L|79:65,2,90,0|8|0,1:0|0:0|1:0,0:0:0:0:
260,6,23052,1,8,0:0:0:0:
341,42,23417,2,0,P|351:104|328:155,1,90,0|0,1:0|1:0,0:0:0:0:
261,166,24149,6,0,B|331:199|386:146|386:146|458:159|473:262|473:262|370:276|330:375|330:375|303:281|227:261,1,630,0|0,0:0|1:0,0:0:0:0:
197,344,27076,1,2,1:2:0:0:
137,276,27442,6,0,B|33:266|-7:168|22:69|22:69|134:37|236:76|236:76|157:110|166:191,1,630,0|0,1:0|1:0,0:0:0:0:
227,259,30369,2,0,L|511:208,2,270,2|2|2,1:0|1:0|1:0,0:0:0:0:
137,270,32930,2,0,B|71:32|71:32|201:94,1,360,2|6,1:0|1:0,0:0:0:0:
252,123,34759,1,10,0:0:0:0:
318,62,35125,2,0,P|342:116|332:168,1,90,0|8,1:0|0:0,0:0:0:0:
270,212,35856,6,0,P|270:256|292:295,1,90,2|8,1:0|0:0,0:0:0:0:
272,381,36588,2,0,P|316:380|355:358,1,90,2|8,1:0|0:0,0:0:0:0:
445,376,37320,2,8,P|444:331|424:291,1,90,2|8,1:0|0:0,0:0:0:0:
444,203,38052,2,0,P|399:203|360:225,1,90,2|10,1:0|0:0,0:0:0:0:
301,293,38783,6,0,P|261:314|217:315,1,90,2|8,1:0|0:0,0:0:0:0:
149,255,39515,2,0,P|136:211|144:168,1,90,0|10,1:0|0:0,0:0:0:0:
220,119,40247,2,0,P|232:162|224:205,2,90,2|10|0,1:0|0:0|1:0,0:0:0:0:
137,82,41344,1,8,0:0:0:0:
210,29,41710,6,0,P|263:37|297:65,1,90,6|8,1:0|0:0,0:0:0:0:
306,147,42442,2,0,L|323:255,1,90,2|8,1:0|0:0,0:0:0:0:
233,208,43174,2,0,L|219:119,1,90,2|8,1:0|0:0,0:0:0:0:
132,91,43905,2,0,L|146:180,1,90,2|10,1:0|0:0,0:0:0:0:
159,268,44637,5,0,1:0:0:0:
175,357,45003,2,0,P|127:352|72:285,2,135,10|10|6,0:0|0:0|1:0,0:0:0:0:
292,290,46649,2,0,P|312:247|275:154,1,135,8|0,1:3|1:0,0:0:0:0:
99,46,49027,6,0,P|146:33|204:48,1,90,6|10,1:0|0:0,0:0:0:0:
272,65,49759,2,0,P|316:71|359:58,1,90,6|10,1:0|0:0,0:0:0:0:
440,19,50491,2,0,L|436:111,1,90,2|10,1:0|0:0,0:0:0:0:
354,148,51222,2,0,L|350:240,1,90,2|10,1:0|0:0,0:0:0:0:
323,324,51954,6,0,P|367:323|408:305,2,90,2|10|2,1:0|0:0|1:0,0:0:0:0:
260,258,53052,1,10,0:0:0:0:
194,196,53417,2,0,L|102:192,1,90,2|10,1:0|0:0,0:0:0:0:
82,279,54149,2,0,L|171:282,1,90,2|10,1:0|0:0,0:0:0:0:
260,258,54881,6,0,P|279:220|276:165,1,90,4|10,1:0|0:0,0:0:0:0:
214,109,55613,2,0,P|169:105|128:123,2,90,2|10|0,1:0|0:0|1:0,0:0:0:0:
278,173,56710,1,8,0:0:0:0:
358,131,57076,2,0,L|461:156,1,90,0|10,1:0|0:0,0:0:0:0:
442,242,57808,6,0,L|354:220,1,90,0|10,1:0|0:0,0:0:0:0:
278,173,58539,2,0,P|264:227|278:270,1,90,2|10,1:0|0:0,0:0:0:0:
345,312,59271,2,0,L|432:333,2,90,2|10|2,1:0|0:0|1:0,0:0:0:0:
272,259,60369,1,10,0:0:0:0:
199,312,60734,6,0,P|150:284|105:286,1,90,4|8,1:0|0:0,0:0:0:0:
40,329,61466,1,0,1:0:0:0:
39,238,61832,2,0,B|46:135|46:135|50:86|103:60,1,180,0|0,1:0|1:0,0:0:0:0:
154,129,62930,2,0,P|198:125|235:100,1,90,0|8,1:0|0:0,0:0:0:0:
297,35,63661,6,0,P|321:72|325:116,2,90,4|8|0,1:0|0:0|1:0,0:0:0:0:
235,100,64759,1,8,0:0:0:0:
266,184,65125,2,0,P|306:203|350:200,1,90,0|8,1:0|0:0,0:0:0:0:
414,136,65856,2,0,L|379:324,1,180,8|8,0:0|0:0,0:0:0:0:
301,355,66954,5,10,0:0:0:0:
214,329,67320,2,0,L|194:222,1,90,10|10,0:0|0:0,0:0:0:0:
177,152,68052,2,0,B|127:167|100:210|111:267|111:267|36:273|23:190,1,270,0|4,1:0|3:0,0:0:0:0:
66,118,69515,6,0,P|116:82|161:67,1,90,12|14,0:0|0:0,0:0:0:0:
231,81,70247,2,0,L|324:118,1,90,14|12,0:0|0:0,0:0:0:0:
260,185,70978,2,0,L|167:148,2,90,12|14|14,0:0|0:0|0:0,0:0:0:0:
331,239,72076,1,10,0:0:0:0:
385,168,72442,6,0,P|417:212|420:259,1,90,6|14,1:0|0:0,0:0:0:0:
374,323,73174,2,0,P|330:333|287:321,1,90,6|14,1:0|0:0,0:0:0:0:
213,269,73905,2,0,L|120:232,2,90,6|14|6,1:0|0:0|1:0,0:0:0:0:
205,359,75003,1,14,0:2:0:0:
287,321,75369,6,0,P|303:269|292:223,1,90,6|14,1:0|0:0,0:0:0:0:
305,145,76100,2,0,P|251:156|218:189,1,90,6|14,1:0|0:0,0:0:0:0:
144,218,76832,2,0,P|180:258|225:271,1,90,6|12,1:0|0:0,0:0:0:0:
297,235,77564,1,4,1:0:0:0:
462,164,78295,6,0,P|474:110|458:66,1,90,6|14,1:0|0:0,0:0:0:0:
388,29,79027,2,0,P|375:82|391:126,1,90,6|14,1:0|0:0,0:0:0:0:
462,164,79759,2,0,P|471:207|458:250,1,90,6|12,1:0|0:0,0:0:0:0:
378,292,80491,2,0,L|294:258,1,90,6|14,1:0|0:0,0:0:0:0:
218,210,81222,6,0,P|204:252|213:296,1,90,2|14,1:0|0:0,0:0:0:0:
135,341,81954,2,0,P|105:307|63:293,1,90,2|14,1:0|0:0,0:0:0:0:
63,203,82686,2,0,P|107:192|140:163,1,90,6|14,1:0|0:0,0:0:0:0:
217,116,83417,1,10,0:0:0:0:
380,34,84149,6,0,P|391:99|367:146,1,90,14|14,0:0|0:0,0:0:0:0:
310,172,84881,2,0,P|301:215|314:258,1,90,14|14,0:0|0:0,0:0:0:0:
395,297,85613,2,0,P|403:253|390:210,1,90,14|14,0:0|0:0,0:0:0:0:
310,172,86344,2,0,P|266:182|233:212,1,90,14|14,0:0|0:0,0:0:0:0:
234,302,87076,6,0,P|190:291|156:262,1,90,14|14,0:0|0:0,0:0:0:0:
153,172,87808,2,0,L|141:56,1,90,14|14,0:0|0:0,0:0:0:0:
54,85,88539,2,0,L|65:200,1,90,14|14,0:0|0:0,0:0:0:0:
64,265,89271,1,2,1:0:0:0:
218,356,90003,6,0,L|331:333,1,90,14|14,0:0|0:0,0:0:0:0:
392,312,90734,2,0,P|413:265|397:198,1,90,14|14,0:0|0:0,0:0:0:0:
345,165,91466,2,0,P|324:212|340:279,1,90,14|14,0:0|0:0,0:0:0:0:
410,227,92198,2,0,P|431:180|415:113,1,90,14|14,0:0|0:0,0:0:0:0:
365,78,92930,6,0,P|313:80|261:125,1,90,14|14,0:0|0:0,0:0:0:0:
210,155,93661,2,0,P|170:176|126:176,1,90,14|14,0:0|0:0,0:0:0:0:
38,153,94393,2,0,L|52:249,1,90,12|8,0:0|0:0,0:0:0:0:
31,330,95125,2,0,P|75:329|114:308,1,90,12|8,0:0|0:0,0:0:0:0:
184,251,95856,1,2,0:0:0:0:
