osu file format v14

[General]
AudioFilename: audio.mp3
AudioLeadIn: 0
PreviewTime: 48204
Countdown: 0
SampleSet: Soft
StackLeniency: 0.7
Mode: 0
LetterboxInBreaks: 0
WidescreenStoryboard: 1

[Editor]
Bookmarks: 735,12442,24149,35856,49027,72442,82686,84149,88539,90003,94393,95856
DistanceSpacing: 1
BeatDivisor: 4
GridSize: 4
TimelineZoom: 2.1

[Metadata]
Title:MONSTER
TitleUnicode:MONSTER
Artist:Reol
ArtistUnicode:れをる
Creator:Sotarks
Version:DAVIDED'S EXTRA
Source:
Tags:極彩色 梅とら umetora reworu gokusaishoku haruto haruto_aizawa akitoshi corinn kin irohas mugiwarasekai pkhg davided linada sharu sharuresu chromoxx
BeatmapID:1402367
BeatmapSetID:661483

[Difficulty]
HPDrainRate:6
CircleSize:3.5
OverallDifficulty:8.5
ApproachRate:9
SliderMultiplier:1.52
SliderTickRate:1

[Events]
//Background and Video events
0,0,"BG.jpg",0,0
//Break Periods
//Storyboard Layer 0 (Background)
//Storyboard Layer 1 (Fail)
//Storyboard Layer 2 (Pass)
//Storyboard Layer 3 (Foreground)
//Storyboard Sound Samples

[TimingPoints]
735,365.853658536585,4,2,22,42,1,0
735,-125,4,2,22,42,0,0
11344,-71.4285714285714,4,2,22,42,0,0
11710,-142.857142857143,4,2,22,42,0,0
12442,-90.9090909090909,4,2,22,70,0,0
24149,-111.111111111111,4,2,22,42,0,0
33204,-111.111111111111,4,2,22,5,0,0
33295,-111.111111111111,4,2,22,42,0,0
34393,-71.4285714285714,4,2,22,52,0,0
35856,-100,4,2,22,62,0,0
44637,-76.9230769230769,4,2,22,52,0,0
48295,-90.9090909090909,4,2,22,52,0,0
48570,-90.9090909090909,4,2,22,5,0,0
48661,-71.4285714285714,4,2,22,62,0,0
48936,-71.4285714285714,4,2,22,5,0,0
49027,-74.0740740740741,4,2,22,82,0,1
51497,-74.0740740740741,4,2,22,5,0,1
51588,-74.0740740740741,4,2,22,82,0,1
54424,-74.0740740740741,4,2,22,5,0,1
54515,-74.0740740740741,4,2,22,82,0,1
58814,-74.0740740740741,4,2,22,5,0,1
58905,-74.0740740740741,4,2,22,82,0,1
59545,-74.0740740740741,4,2,22,5,0,1
59637,-74.0740740740741,4,2,22,82,0,1
63204,-74.0740740740741,4,2,22,5,0,1
63295,-74.0740740740741,4,2,22,82,0,1
66588,-74.0740740740741,4,2,22,72,0,0
69515,-74.0740740740741,4,2,22,82,0,1
72442,-83.3333333333333,4,2,22,72,0,0
95948,-83.3333333333333,4,2,22,20,0,0

[Colours]
Combo1 : 119,129,176
Combo2 : 255,234,159
Combo3 : 32,104,191
Combo4 : 215,92,2
SliderBorder : 255,255,255
SliderTrackOverride : 0,0,0

[HitObjects]
196,196,735,6,0,B|252:172|268:216|320:196,1,121.6,2|0,1:0|0:0,0:0:0:0:
112,112,1283,2,0,B|119:155|119:155|109:189|109:189|119:248,1,121.6,2|0,1:0|0:0,0:0:0:0:
325,257,1832,1,2,1:0:0:0:
325,257,2015,2,0,L|314:197,1,60.8,2|0,1:0|0:0,0:0:0:0:
224,40,2381,2,0,B|207:134|207:134|248:129,1,121.6,2|0,1:0|0:0,0:0:0:0:
364,116,2930,5,2,1:0:0:0:
404,112,3295,1,2,1:0:0:0:
444,108,3661,6,0,B|451:151|451:151|441:185|441:185|451:244,1,121.6,2|0,1:0|0:0,0:0:0:0:
356,80,4210,2,0,B|367:143|367:143|355:193|355:193|367:260,1,182.4,2|0,1:0|0:0,0:0:0:0:
268,52,4942,2,0,B|284:140|284:140|272:184,1,121.6,2|0,1:0|0:0,0:0:0:0:
280,175,5674,5,2,0:0:0:0:
280,175,5856,2,0,L|292:245,1,60.8,2|2,0:0|0:0,0:0:0:0:
196,187,6222,2,0,L|208:257,1,60.8,2|2,0:0|0:0,0:0:0:0:
311,102,6588,6,0,B|255:78|239:122|187:102,1,121.6,2|0,1:0|0:0,0:0:0:0:
391,10,7137,2,0,B|385:56|385:56|397:91|397:91|391:133,1,121.6,2|0,1:0|0:0,0:0:0:0:
232,288,7686,1,2,1:0:0:0:
232,288,7869,2,0,L|221:228,1,60.8,2|0,1:0|0:0,0:0:0:0:
284,48,8234,2,0,B|301:142|301:142|260:137,1,121.6,2|0,1:0|0:0,0:0:0:0:
152,124,8783,5,2,1:0:0:0:
110,119,9148,1,2,1:0:0:0:
70,116,9515,6,0,B|65:159|65:159|77:192|77:192|70:252,1,121.6,2|0,1:0|0:0,0:0:0:0:
156,83,10064,2,0,B|148:146|148:146|162:195|162:195|154:263,1,182.4,2|0,1:0|0:0,0:0:0:0:
242,50,10796,2,0,B|230:138|230:138|244:182,1,121.6,2|0,1:0|0:0,0:0:0:0:
300,340,11344,6,0,P|336:280|268:256,1,159.599995129395,8|8,0:0|0:0,0:0:0:0:
145,342,11710,6,0,B|213:311|240:375|305:336,1,159.599995129395,2|0,0:0|0:0,0:0:0:0:
424,140,12442,5,0,1:0:0:0:
270,254,12625,1,0,3:0:0:0:
448,120,12808,1,8,0:0:0:0:
352,316,12991,2,0,B|346:284|346:284|354:262|354:262|347:219,1,83.6000025512696,0|0,0:0|1:0,0:0:0:0:
332,48,13356,1,0,3:3:0:0:
270,254,13539,1,8,0:0:0:0:
411,28,13722,1,0,0:0:0:0:
349,234,13905,5,0,1:0:0:0:
171,69,14088,2,0,B|203:63|203:63|224:71|224:71|268:65,1,83.6000025512696,0|8,3:0|0:0,0:0:0:0:
388,106,14454,1,0,3:0:0:0:
200,228,14637,2,0,P|188:191|197:146,1,83.6000025512696,0|0,1:0|0:0,0:0:0:0:
384,25,15003,2,0,P|396:62|387:107,1,83.6000025512696,8|0,0:0|0:0,0:0:0:0:
184,312,15369,6,0,B|211:314|211:314|233:306|233:306|265:312,1,83.6000025512696,0|0,1:0|3:0,0:0:0:0:
400,336,15734,1,8,0:0:0:0:
200,228,15917,1,0,3:0:0:0:
344,252,16100,1,0,1:0:0:0:
184,148,16283,1,0,3:0:0:0:
385,181,16466,1,8,0:0:0:0:
168,68,16649,1,0,3:0:0:0:
426,110,16832,6,0,P|440:72|428:24,1,83.6000025512696,0|0,1:0|3:0,0:0:0:0:
285,165,17198,2,0,L|268:259,1,83.6000025512696,8|0,0:0|0:0,0:0:0:0:
252,332,17472,1,8,0:0:0:0:
252,332,17564,1,0,1:0:0:0:
368,228,17747,1,0,0:0:0:0:
189,189,17930,1,0,1:0:0:0:
408,240,18113,1,8,0:0:0:0:
104,276,18295,6,0,B|99:248|99:248|107:226|107:226|101:191,1,83.6000025512696,4|0,1:0|3:0,0:0:0:0:
84,60,18661,1,8,0:0:0:0:
184,268,18844,2,0,P|224:288|272:284,1,83.6000025512696,0|0,3:0|1:0,0:0:0:0:
428,116,19210,1,0,3:0:0:0:
240,204,19393,1,8,0:0:0:0:
450,199,19576,1,0,0:0:0:0:
262,287,19759,5,0,1:0:0:0:
344,56,19942,2,0,B|348:84|348:84|339:106|339:106|344:137,1,83.6000025512696,0|8,3:0|0:0,0:0:0:0:
364,284,20308,1,0,3:0:0:0:
506,133,20491,2,0,P|462:113|422:117,1,83.6000025512696,0|0,1:0|0:0,0:0:0:0:
285,301,20856,2,0,P|326:301|363:283,1,83.6000025512696,8|0,0:0|0:0,0:0:0:0:
344,56,21222,5,0,1:0:0:0:
308,220,21405,1,0,3:0:0:0:
469,170,21588,1,8,0:0:0:0:
183,106,21771,1,0,3:0:0:0:
344,56,21954,1,0,1:0:0:0:
188,184,22137,1,0,3:0:0:0:
397,119,22320,1,8,0:0:0:0:
193,262,22503,5,0,3:0:0:0:
450,182,22686,1,0,1:0:0:0:
198,340,22869,1,0,3:0:0:0:
503,245,23052,1,8,0:0:0:0:
276,80,23234,5,0,0:0:0:0:
268,121,23325,1,8,0:0:0:0:
261,162,23416,1,0,1:0:0:0:
424,328,23600,1,8,0:0:0:0:
420,307,23691,1,8,0:0:0:0:
416,286,23783,6,0,L|424:238,1,41.8000012756348,0|8,1:0|0:0,0:0:0:0:
320,272,23966,2,0,L|328:224,1,41.8000012756348,8|8,0:0|0:0,0:0:0:0:
224,258,24149,5,0,1:0:0:0:
224,258,24515,2,0,L|208:192,1,68.3999979125977,2|2,1:0|0:0,0:0:0:0:
168,44,24881,1,2,1:0:0:0:
144,129,25064,1,2,0:0:0:0:
229,106,25247,2,0,L|296:116,1,68.3999979125977,2|0,1:0|0:0,0:0:0:0:
60,24,25613,6,0,B|69:76|69:76|55:115|55:115|63:162,1,136.799995825195,2|2,1:0|1:0,0:0:0:0:
144,129,26161,1,2,0:0:0:0:
180,276,26344,1,2,1:0:0:0:
120,213,26527,1,2,0:0:0:0:
204,191,26710,1,2,1:0:0:0:
96,298,26893,1,2,0:0:0:0:
264,254,27076,5,0,1:0:0:0:
264,254,27442,2,0,L|334:266,1,68.3999979125977,2|2,1:0|0:0,0:0:0:0:
484,288,27808,1,2,1:0:0:0:
401,319,27991,1,2,0:0:0:0:
416,232,28174,2,0,L|404:165,1,68.3999979125977,2|2,1:0|0:0,0:0:0:0:
240,40,28539,6,0,B|249:91|249:91|238:125|238:125|249:188,1,136.799995825195,2|2,1:0|1:0,0:0:0:0:
264,272,29088,1,2,0:0:0:0:
117,236,29271,1,2,1:0:0:0:
180,295,29454,1,2,0:0:0:0:
203,212,29637,1,0,1:0:0:0:
95,320,29820,1,2,0:0:0:0:
139,152,30003,5,0,1:0:0:0:
139,152,30369,2,0,L|152:223,1,68.3999979125977,2|2,1:0|0:0,0:0:0:0:
84,84,30734,2,0,P|116:68|156:68,1,68.3999979125977,2|2,1:0|0:0,0:0:0:0:
231,202,31100,1,2,1:0:0:0:
139,152,31283,1,2,0:0:0:0:
316,76,31466,6,0,B|363:67|363:67|402:81|402:81|453:72,1,136.799995825195,2|2,1:0|1:0,0:0:0:0:
288,116,32015,2,0,B|335:107|335:107|374:121|374:121|425:112,1,136.799995825195,2|2,0:0|0:0,0:0:0:0:
220,164,32564,2,0,P|208:140|208:92,1,68.3999979125977,2|2,1:0|0:0,0:0:0:0:
415,13,32930,6,8,B|430:56|430:56|417:123,1,102.599996868897,2|0,1:0|0:0,0:0:0:0:
396,176,33295,2,0,P|432:164|464:168,1,68.3999979125977,2|0,1:0|0:0,0:0:0:0:
376,328,33661,2,0,L|363:257,1,68.3999979125977,0|0,1:0|0:0,0:0:0:0:
336,112,34027,1,2,1:0:0:0:
284,304,34210,1,2,0:0:0:0:
408,68,34393,6,0,P|364:32|308:32,1,106.39999675293,6|0,1:0|0:0,0:0:0:0:
252,88,34667,1,0,1:0:0:0:
240,124,34758,1,10,0:0:0:0:
380,312,34942,1,2,0:0:0:0:
368,276,35033,1,0,1:0:0:0:
356,240,35125,2,0,L|367:176,1,53.1999983764649,0|0,1:0|1:0,0:0:0:0:
457,51,35308,2,0,L|448:104,1,53.1999983764649,10|8,0:0|3:0,0:0:0:0:
276,196,35491,5,8,0:0:0:0:
224,204,35582,1,8,3:0:0:0:
178,180,35673,1,8,3:0:0:0:
156,132,35765,1,4,3:0:0:0:
168,81,35856,6,0,L|246:67,1,76,2|0,1:0|0:0,0:0:0:0:
432,252,36222,2,0,L|353:238,1,76,8|0,0:0|3:0,0:0:0:0:
178,180,36588,1,2,1:0:0:0:
420,76,36771,1,0,1:0:0:0:
284,276,36954,2,0,P|272:236|280:204,1,76,8|0,0:0|0:0,0:0:0:0:
496,24,37320,6,0,L|511:110,1,76,2|0,1:0|3:0,0:0:0:0:
357,238,37686,1,8,0:0:0:0:
420,76,37869,1,0,3:0:0:0:
497,293,38052,1,2,1:0:0:0:
388,157,38235,1,0,1:0:0:0:
324,320,38417,1,10,0:0:0:0:
188,132,38600,2,0,P|208:124|228:124,1,38,10|8,0:0|0:0,0:0:0:0:
357,238,38783,5,2,1:0:0:0:
152,120,38966,1,0,0:0:0:0:
393,250,39149,2,0,L|475:235,1,76,8|0,0:0|3:0,0:0:0:0:
388,48,39515,1,0,1:0:0:0:
264,210,39698,1,2,1:0:0:0:
467,236,39881,2,0,L|452:154,1,76,10|0,0:0|1:0,0:0:0:0:
228,84,40247,5,2,1:0:0:0:
436,72,40430,1,2,0:0:0:0:
188,88,40613,1,10,0:0:0:0:
376,208,40795,1,2,0:0:0:0:
178,310,40978,2,0,P|178:266|194:238,1,76,0|2,1:0|1:0,0:0:0:0:
356,116,41344,1,8,0:0:0:0:
276,368,41527,1,8,0:0:0:0:
269,330,41618,1,8,0:0:0:0:
262,293,41710,6,0,L|340:279,1,76,6|0,1:0|0:0,0:0:0:0:
440,100,42076,2,0,P|404:80|364:80,1,76,8|0,0:0|3:0,0:0:0:0:
172,200,42442,1,2,1:0:0:0:
384,162,42625,1,0,1:0:0:0:
200,40,42808,2,0,L|185:122,1,76,8|0,0:0|0:0,0:0:0:0:
368,320,43174,6,0,L|353:237,1,76,2|0,1:0|3:0,0:0:0:0:
296,68,43539,1,8,0:0:0:0:
252,300,43722,1,0,3:0:0:0:
384,84,43905,2,0,P|384:48|352:0,1,76,2|0,1:0|1:0,0:0:0:0:
158,118,44271,1,10,0:0:0:0:
354,245,44454,5,2,3:0:0:0:
361,207,44545,1,0,0:0:0:0:
368,170,44636,1,0,1:0:0:0:
149,69,44820,2,0,L|160:132,1,49.3999977386476,10|0,0:0|0:0,0:0:0:0:
248,220,45003,1,10,0:0:0:0:
248,220,45094,2,0,B|208:204|208:204|152:220,1,98.7999954772951,8|0,0:0|1:0,0:0:0:0:
44,248,45369,1,8,0:0:0:0:
240,36,45552,5,10,0:0:0:0:
248,84,45643,1,8,0:0:0:0:
257,133,45734,1,0,1:0:0:0:
43,38,45917,1,10,0:0:0:0:
51,86,46008,1,8,0:0:0:0:
60,135,46100,6,0,L|170:115,1,98.7999954772951,6|0,1:0|0:0,0:0:0:0:
352,248,46466,1,0,1:0:0:0:
130,213,46649,1,2,1:0:0:0:
392,176,46832,1,8,0:0:0:0:
90,285,47015,1,0,1:0:0:0:
432,104,47198,1,2,1:0:0:0:
50,357,47381,5,4,1:0:0:0:
50,357,48295,6,0,P|88:308|148:328,1,125.400003826904,0|0,0:0|0:0,0:0:0:0:
224,364,48661,6,0,B|260:292|192:276|224:208,1,159.599995129395,0|0,0:0|0:0,0:0:0:0:
292,28,49027,5,2,1:0:0:0:
360,248,49210,1,2,3:0:0:0:
135,196,49393,1,10,0:0:0:0:
356,129,49576,1,2,3:0:0:0:
88,212,49759,1,2,1:0:0:0:
403,113,49942,1,2,3:0:0:0:
164,320,50125,1,10,0:0:0:0:
226,49,50308,1,2,3:0:0:0:
429,238,50491,5,2,1:0:0:0:
105,165,50674,1,2,3:0:0:0:
480,252,50856,1,10,0:0:0:0:
54,151,51039,1,2,3:0:0:0:
332,368,51222,6,0,P|360:304|272:304,1,153.900000587082,2|0,1:0|0:0,0:0:0:0:
112,280,51588,2,0,B|172:304|172:304|216:296,1,102.600000391388,10|0,0:0|0:0,0:0:0:0:
364,72,51954,5,2,1:0:0:0:
179,211,52137,1,2,3:0:0:0:
392,302,52320,1,10,0:0:0:0:
253,117,52503,1,2,3:0:0:0:
420,340,52686,1,2,1:0:0:0:
225,79,52869,1,2,3:0:0:0:
64,340,53052,1,10,0:0:0:0:
311,214,53235,1,2,3:0:0:0:
79,64,53417,5,2,1:0:0:0:
217,331,53600,1,2,3:0:0:0:
60,32,53783,1,10,0:0:0:0:
236,363,53966,1,2,3:0:0:0:
384,100,54149,6,0,P|328:68|296:136,1,153.900000587082,2|0,1:0|0:0,0:0:0:0:
384,240,54515,2,0,B|426:255|426:255|495:233,1,102.600000391388,10|0,0:0|0:0,0:0:0:0:
220,48,54881,6,0,P|204:96|208:148,1,102.600000391388,4|0,1:0|0:0,0:0:0:0:
352,324,55247,1,10,0:0:0:0:
310,111,55430,1,2,3:0:0:0:
147,254,55613,2,0,P|96:280|52:280,1,102.600000391388,2|0,1:0|0:0,0:0:0:0:
52,68,55978,1,10,0:0:0:0:
232,280,56161,6,0,B|237:240|237:240|225:214|225:214|229:180,1,102.600000391388,2|0,3:0|1:0,0:0:0:0:
52,68,56527,2,0,B|57:107|57:107|45:133|45:133|51:177,1,102.600000391388,2|8,3:0|0:0,0:0:0:0:
316,200,56893,2,0,P|308:136|248:96,1,102.600000391388,2|0,3:0|1:0,0:0:0:0:
64,256,57259,1,2,3:0:0:0:
229,180,57442,1,10,0:0:0:0:
68,353,57625,6,0,B|50:312|50:312|67:241,1,102.600000391388,2|0,3:0|1:0,0:0:0:0:
136,84,57991,1,2,3:0:0:0:
240,300,58174,2,0,P|196:316|139:300,1,102.600000391388,10|0,0:0|0:0,0:0:0:0:
240,36,58539,2,0,L|267:193,1,153.900000587082,2|0,1:0|0:0,0:0:0:0:
240,300,58905,2,0,P|285:277|335:284,1,102.600000391388,10|0,0:0|0:0,0:0:0:0:
114,213,59271,6,0,L|271:186,1,153.900000587082,2|0,1:0|0:0,0:0:0:0:
362,117,59637,2,0,P|355:168|378:213,1,102.600000391388,10|0,0:0|1:0,0:0:0:0:
144,120,60003,2,0,L|199:110,1,51.300000195694,2|0,1:0|0:0,0:0:0:0:
286,269,60186,2,0,L|235:278,1,51.300000195694,8|0,0:0|0:0,0:0:0:0:
64,222,60369,1,10,0:0:0:0:
114,213,60460,1,8,0:0:0:0:
165,204,60551,1,8,0:0:0:0:
215,195,60643,1,8,0:0:0:0:
266,186,60734,5,4,1:0:0:0:
59,80,60917,1,0,3:0:0:0:
71,312,61100,1,8,0:0:0:0:
177,106,61283,1,0,3:0:0:0:
52,344,61466,2,0,B|46:310|46:310|57:282|57:282|50:242,1,102.600000391388,0|0,1:0|3:0,0:0:0:0:
248,60,61832,1,8,0:0:0:0:
180,338,62015,1,0,3:0:0:0:
456,258,62198,6,0,B|422:252|422:252|394:263|394:263|356:256,1,102.600000391388,0|0,1:0|3:0,0:0:0:0:
140,96,62564,1,8,0:0:0:0:
383,174,62747,1,0,3:0:0:0:
88,288,62930,2,0,P|68:220|144:220,1,153.900000587082,0|0,1:0|0:0,0:0:0:0:
312,216,63295,2,0,B|252:240|252:240|208:232,1,102.600000391388,8|0,0:0|0:0,0:0:0:0:
40,40,63661,5,0,1:0:0:0:
248,152,63844,1,0,3:0:0:0:
47,276,64027,1,8,0:0:0:0:
160,69,64210,1,0,3:0:0:0:
28,312,64393,1,0,1:0:0:0:
179,33,64576,1,0,3:0:0:0:
348,316,64759,1,8,0:0:0:0:
101,190,64942,1,0,3:0:0:0:
333,40,65125,6,0,B|337:74|337:74|325:101|325:101|331:140,1,102.600000391388,0|0,1:0|3:0,0:0:0:0:
464,368,65491,1,8,0:0:0:0:
411,115,65674,1,0,3:0:0:0:
219,288,65856,5,8,0:0:0:0:
181,256,65947,1,8,0:0:0:0:
184,206,66038,1,8,0:0:0:0:
225,179,66130,1,8,0:0:0:0:
271,195,66221,1,8,0:0:0:0:
464,368,66405,1,8,0:0:0:0:
472,317,66496,1,8,0:0:0:0:
481,266,66588,6,0,L|362:245,1,102.600000391388,8|0,0:0|0:0,0:0:0:0:
118,348,66954,1,10,0:0:0:0:
379,248,67137,1,2,0:0:0:0:
162,72,67320,1,10,0:0:0:0:
262,333,67503,1,2,0:0:0:0:
148,40,67686,1,10,0:0:0:0:
276,365,67869,1,2,0:0:0:0:
416,116,68052,6,0,P|372:92|316:96,1,102.600000391388,0|2,1:0|0:0,0:0:0:0:
100,224,68417,1,8,0:0:0:0:
351,175,68600,2,0,B|357:210|357:210|349:238|349:238|356:275,1,102.600000391388,0|0,0:0|1:0,0:0:0:0:
95,124,68966,5,0,0:0:0:0:
106,92,69057,1,0,0:0:0:0:
130,67,69148,1,4,3:0:0:0:
162,55,69240,1,0,0:0:0:0:
195,57,69331,1,4,3:0:0:0:
225,73,69423,1,0,0:0:0:0:
246,100,69515,6,0,L|267:222,1,102.600000391388,12|0,0:0|0:0,0:0:0:0:
364,80,69881,1,14,0:0:0:0:
145,221,70064,1,2,0:0:0:0:
400,56,70247,1,14,0:0:0:0:
109,245,70430,2,0,B|102:208|102:208|110:180|110:180|104:145,1,102.600000391388,2|12,0:0|0:0,0:0:0:0:
436,32,70795,6,0,B|443:69|443:69|435:97|435:97|441:132,1,102.600000391388,2|12,0:0|0:0,0:0:0:0:
308,324,71161,1,2,0:0:0:0:
353,67,71344,1,14,0:0:0:0:
300,360,71527,1,2,0:0:0:0:
72,167,71710,5,14,0:0:0:0:
107,130,71801,1,8,0:0:0:0:
155,112,71892,1,10,0:0:0:0:
205,116,71984,1,8,0:0:0:0:
249,141,72076,1,10,0:0:0:0:
284,177,72167,1,8,0:0:0:0:
332,195,72258,1,10,0:0:0:0:
382,191,72350,1,8,0:0:0:0:
426,166,72442,6,0,B|434:126|434:126|422:78,1,91.199997216797,2|0,1:0|0:0,0:0:0:0:
204,256,72808,2,0,B|193:216|193:216|201:167,1,91.199997216797,14|0,0:0|0:0,0:0:0:0:
472,244,73174,2,0,P|428:256|384:245,1,91.199997216797,6|0,1:0|0:0,0:0:0:0:
156,92,73539,2,0,P|199:79|243:90,1,91.199997216797,14|2,0:0|0:0,0:0:0:0:
340,320,73905,6,0,L|250:336,1,91.199997216797,6|0,1:0|0:0,0:0:0:0:
96,172,74271,2,0,L|185:188,1,91.199997216797,14|0,0:0|0:0,0:0:0:0:
416,228,74637,2,0,P|428:184|416:136,1,91.199997216797,6|0,1:0|0:0,0:0:0:0:
256,16,75003,1,14,0:2:0:0:
340,180,75186,1,0,0:2:0:0:
98,261,75369,6,0,B|84:220|84:220|96:172,1,91.199997216797,6|0,1:0|3:0,0:0:0:0:
316,348,75734,2,0,B|327:306|327:306|313:260,1,91.199997216797,14|0,0:0|3:0,0:0:0:0:
55,337,76100,2,0,P|99:349|143:337,1,91.199997216797,6|0,1:0|3:0,0:0:0:0:
357,185,76466,2,0,P|313:173|269:185,1,91.199997216797,14|0,0:0|3:0,0:0:0:0:
55,337,76832,6,0,L|37:242,1,91.199997216797,6|0,1:0|0:0,0:0:0:0:
188,76,77198,1,12,0:0:0:0:
140,300,77381,1,0,0:0:0:0:
136,277,77472,1,8,0:0:0:0:
132,255,77564,2,0,L|222:239,1,91.199997216797,4|0,1:0|0:0,0:0:0:0:
352,220,77930,1,0,1:0:0:0:
160,164,78113,1,8,0:0:0:0:
428,260,78295,6,0,B|440:218|440:218|423:168,1,91.199997216797,6|0,1:0|0:0,0:0:0:0:
224,352,78661,2,0,B|207:312|207:312|218:265,1,91.199997216797,14|0,0:0|0:0,0:0:0:0:
473,336,79027,2,0,P|429:348|385:336,1,91.199997216797,6|0,1:0|0:0,0:0:0:0:
176,188,79393,2,0,P|219:176|263:188,1,91.199997216797,14|2,0:0|0:0,0:0:0:0:
473,336,79759,6,0,L|489:241,1,91.199997216797,6|0,1:0|0:0,0:0:0:0:
336,80,80125,2,0,L|352:174,1,91.199997216797,12|0,0:0|0:0,0:0:0:0:
248,340,80491,2,0,P|208:360|160:356,1,91.199997216797,6|0,1:0|0:0,0:0:0:0:
52,184,80856,1,14,0:0:0:0:
192,276,81039,1,0,0:0:0:0:
336,80,81222,6,0,B|296:68|296:68|248:80,1,91.199997216797,2|0,1:0|3:0,0:0:0:0:
428,248,81588,2,0,B|388:260|388:260|340:248,1,91.199997216797,14|0,0:0|3:0,0:0:0:0:
412,32,81954,2,0,P|426:74|418:118,1,91.199997216797,6|0,1:0|3:0,0:0:0:0:
264,292,82320,2,0,P|249:249|257:205,1,91.199997216797,14|0,0:0|3:0,0:0:0:0:
412,32,82686,5,6,1:0:0:0:
340,248,82869,1,8,0:0:0:0:
420,8,83052,1,10,0:0:0:0:
216,128,83234,2,0,L|267:118,1,45.5999986083985,0|8,0:0|0:0,0:0:0:0:
456,188,83417,1,2,1:0:0:0:
220,40,83600,5,8,0:0:0:0:
175,49,83691,1,8,0:0:0:0:
142,79,83782,1,8,0:0:0:0:
127,122,83874,1,8,0:0:0:0:
136,166,83965,1,8,0:0:0:0:
165,200,84057,1,8,0:0:0:0:
208,215,84149,6,0,L|306:197,1,91.199997216797,14|0,0:0|0:0,0:0:0:0:
132,340,84515,1,14,0:0:0:0:
216,128,84698,1,0,0:0:0:0:
357,306,84881,1,14,0:0:0:0:
146,223,85064,1,0,0:0:0:0:
392,320,85247,1,14,0:0:0:0:
111,209,85430,1,0,0:0:0:0:
347,21,85613,5,14,0:0:0:0:
263,230,85795,1,0,0:0:0:0:
124,52,85978,1,14,0:0:0:0:
334,137,86161,1,0,0:0:0:0:
89,38,86344,1,14,0:0:0:0:
369,151,86527,1,0,0:0:0:0:
131,336,86710,1,14,0:0:0:0:
245,57,86893,1,2,0:0:0:0:
116,364,87076,6,0,B|110:332|110:332|117:306|117:306|112:274,1,91.199997216797,14|0,0:0|0:0,0:0:0:0:
245,57,87442,1,14,0:0:0:0:
290,278,87625,1,0,0:0:0:0:
76,206,87808,1,14,0:0:0:0:
298,162,87991,1,0,0:0:0:0:
40,216,88174,1,14,0:0:0:0:
334,152,88356,1,0,0:0:0:0:
104,36,88539,6,0,P|84:80|92:128,1,91.199997216797,14|0,0:0|0:0,0:0:0:0:
208,272,88905,2,0,L|189:169,1,91.199997216797,14|0,0:0|0:0,0:0:0:0:
172,92,89180,1,8,0:0:0:0:
172,92,89271,1,2,1:0:0:0:
108,240,89454,1,0,0:0:0:0:
280,120,89637,5,0,1:0:0:0:
288,165,89728,1,8,0:0:0:0:
295,209,89819,1,8,0:0:0:0:
303,254,89911,1,8,0:0:0:0:
311,299,90003,6,0,L|414:280,1,91.199997216797,14|0,0:0|0:0,0:0:0:0:
280,120,90369,1,14,0:0:0:0:
194,340,90552,1,0,0:0:0:0:
428,304,90734,1,14,0:0:0:0:
208,219,90917,1,0,0:0:0:0:
468,320,91100,1,14,0:0:0:0:
168,203,91283,1,0,0:0:0:0:
419,1,91466,5,14,0:0:0:0:
335,210,91649,1,0,0:0:0:0:
196,32,91832,1,14,0:0:0:0:
406,117,92015,1,0,0:0:0:0:
160,20,92198,1,14,0:0:0:0:
442,129,92381,1,0,0:0:0:0:
206,318,92564,2,0,P|184:276|188:224,1,91.199997216797,14|0,0:0|0:0,0:0:0:0:
328,56,92930,5,14,0:0:0:0:
272,256,93113,1,0,0:0:0:0:
126,107,93295,1,14,0:0:0:0:
327,164,93478,1,0,0:0:0:0:
92,96,93661,1,14,0:0:0:0:
361,175,93844,1,0,0:0:0:0:
158,368,94027,1,14,0:0:0:0:
238,100,94210,1,2,0:0:0:0:
430,303,94393,6,0,P|388:324|340:320,1,91.199997216797,14|0,0:0|0:0,0:0:0:0:
184,208,94759,2,0,L|286:189,1,91.199997216797,14|0,0:0|0:0,0:0:0:0:
370,238,95033,1,0,0:0:0:0:
370,238,95125,1,2,1:0:0:0:
88,320,95308,5,0,1:0:0:0:
74,276,95399,1,0,0:0:0:0:
74,231,95490,1,8,0:0:0:0:
86,187,95582,1,8,0:0:0:0:
96,142,95673,1,8,0:0:0:0:
93,97,95765,1,8,0:0:0:0:
75,55,95856,6,0,L|63:27,2,22.7999993041992,2|2|2,0:0|0:0|0:0,0:0:0:0:
