osu file format v14

[General]
AudioFilename: audio.mp3
AudioLeadIn: 0
PreviewTime: 48204
Countdown: 0
SampleSet: Soft
StackLeniency: 0.3
Mode: 0
LetterboxInBreaks: 0
WidescreenStoryboard: 1

[Editor]
DistanceSpacing: 1
BeatDivisor: 4
GridSize: 4
TimelineZoom: 1.5

[Metadata]
Title:MONSTER
TitleUnicode:MONSTER
Artist:Reol
ArtistUnicode:れをる
Creator:Sotarks
Version:AKITOSHI'S NORMAL
Source:
Tags:極彩色 梅とら umetora reworu gokusaishoku haruto haruto_aizawa akitoshi corinn kin irohas mugiwarasekai pkhg davided linada sharu sharuresu chromoxx
BeatmapID:1404467
BeatmapSetID:661483

[Difficulty]
HPDrainRate:4
CircleSize:3.3
OverallDifficulty:4
ApproachRate:5
SliderMultiplier:1.1
SliderTickRate:1

[Events]
//Background and Video events
0,0,"BG.jpg",0,0
//Break Periods
//Storyboard Layer 0 (Background)
//Storyboard Layer 1 (Fail)
//Storyboard Layer 2 (Pass)
//Storyboard Layer 3 (Foreground)
//Storyboard Sound Samples

[TimingPoints]
735,365.853658536585,4,2,22,42,1,0
735,-111.111111111111,4,2,22,42,0,0
12442,-100,4,2,22,72,0,0
24149,-111.111111111111,4,2,22,62,0,0
34393,-100,4,2,22,62,0,0
49027,-95.2380952380952,4,2,22,82,0,1
66588,-95.2380952380952,4,2,22,82,0,0
69515,-90.9090909090909,4,2,22,92,0,1
72442,-100,4,2,22,82,0,0
84149,-95.2380952380952,4,2,22,82,0,0

[Colours]
Combo1 : 119,129,176
Combo2 : 255,234,159
Combo3 : 32,104,191
Combo4 : 215,92,2
SliderBorder : 255,255,255
SliderTrackOverride : 0,0,0

[HitObjects]
186,122,735,6,0,P|153:114|91:130,2,98.9999969787599,2|0|0,1:0|1:0|1:0,0:0:0:0:
256,192,1832,1,2,1:0:0:0:
326,121,2198,2,0,P|359:113|421:129,2,98.9999969787599,0|0|2,1:0|1:0|1:0,0:0:0:0:
256,192,3295,1,2,1:0:0:0:
185,262,3661,6,0,L|191:367,2,98.9999969787599,2|0|0,1:0|1:0|1:0,0:0:0:0:
114,191,4759,1,0,1:0:0:0:
43,120,5125,2,0,L|49:15,2,98.9999969787599,0|0|0,1:0|1:0|1:0,0:0:0:0:
114,191,6222,1,0,1:0:0:0:
184,120,6588,6,0,P|242:109|291:123,1,98.9999969787599,2|0,1:0|1:0,0:0:0:0:
350,188,7320,2,0,P|361:246|347:295,1,98.9999969787599,0|2,1:0|1:0,0:0:0:0:
282,355,8052,2,0,P|224:366|175:352,1,98.9999969787599,0|0,1:0|1:0,0:0:0:0:
116,287,8783,2,0,P|105:229|119:180,1,98.9999969787599,2|2,1:0|1:0,0:0:0:0:
184,120,9515,6,0,L|184:7,1,98.9999969787599,2|0,1:0|1:0,0:0:0:0:
283,21,10247,2,0,L|283:134,1,98.9999969787599,0|0,1:0|1:0,0:0:0:0:
283,219,10978,1,0,1:0:0:0:
353,289,11344,1,8,0:0:0:0:
423,218,11710,6,0,B|448:179|448:179|433:134|444:73,1,148.49999546814,2|0,0:0|0:0,0:0:0:0:
458,24,12442,6,0,P|405:41|346:25,1,110,0|8,1:0|0:0,0:0:0:0:
303,21,12991,1,0,0:0:0:0:
303,21,13174,2,0,P|250:38|191:22,1,110,0|8,1:0|0:0,0:0:0:0:
88,15,13905,2,0,L|78:128,1,110,0|8,1:0|0:0,0:0:0:0:
45,169,14454,1,0,3:0:0:0:
45,169,14637,2,0,L|55:282,1,110,0|8,1:0|0:0,0:0:0:0:
145,341,15369,6,0,P|199:351|266:331,1,110,0|8,1:0|0:0,0:0:0:0:
336,268,16100,1,0,1:0:0:0:
380,167,16466,1,8,0:0:0:0:
364,57,16832,2,0,L|490:48,2,110,0|8|0,1:0|0:0|1:0,0:0:0:0:
278,126,17930,2,0,L|215:121,1,55,0|8,1:0|0:0,0:0:0:0:
187,79,18295,6,0,P|133:63|69:74,1,110,4|8,1:0|0:0,0:0:0:0:
37,102,18844,1,0,3:0:0:0:
37,102,19027,2,0,L|46:224,1,110,0|8,1:0|0:0,0:0:0:0:
103,305,19759,2,0,P|157:321|221:310,1,110,0|8,1:0|0:0,0:0:0:0:
253,282,20308,1,0,3:0:0:0:
253,282,20491,2,0,L|244:160,1,110,0|8,1:0|0:0,0:0:0:0:
253,62,21222,6,0,P|307:46|371:57,1,110,0|8,1:0|0:0,0:0:0:0:
459,99,21954,1,0,1:0:0:0:
506,198,22320,1,8,0:0:0:0:
455,295,22686,2,0,P|402:310|336:301,2,110,0|8|0,1:0|0:0|1:0,0:0:0:0:
506,198,23783,2,0,L|500:130,1,55,0|8,1:0|0:0,0:0:0:0:
483,96,24149,6,0,B|395:71|379:133|282:107,1,197.99999395752,0|2,1:0|1:0,0:0:0:0:
202,60,25247,1,2,1:0:0:0:
114,105,25613,2,0,B|85:161|85:161|104:308,1,197.99999395752,2|2,1:0|1:0,0:0:0:0:
188,344,26710,1,2,1:0:0:0:
277,298,27076,6,0,B|306:242|306:242|287:95,1,197.99999395752,0|2,1:0|1:0,0:0:0:0:
343,25,28174,1,2,1:0:0:0:
439,47,28539,2,0,P|490:121|471:244,1,197.99999395752,2|2,1:0|1:0,0:0:0:0:
420,303,29637,1,0,1:0:0:0:
324,275,30003,6,0,L|216:285,2,98.9999969787599,0|2|2,1:0|1:0|1:0,0:0:0:0:
390,201,31100,1,2,1:0:0:0:
335,118,31466,2,0,L|344:8,2,98.9999969787599,2|2|0,1:0|1:0|1:0,0:0:0:0:
247,164,32564,1,2,1:0:0:0:
162,112,32930,6,0,P|105:103|59:110,2,98.9999969787599,2|2|0,1:0|1:0|1:0,0:0:0:0:
247,164,34027,1,2,1:0:0:0:
331,234,34393,2,0,L|395:229,2,55,6|0|10,1:0|0:0|0:0,0:0:0:0:
235,288,35125,2,0,L|171:283,1,55,0|10,1:0|0:0,0:0:0:0:
143,242,35491,2,0,L|79:247,1,55,8|8,0:0|3:0,0:0:0:0:
39,272,35856,6,0,P|24:221|39:143,1,110,2|8,1:0|0:0,0:0:0:0:
110,89,36588,2,0,L|183:83,1,55,2|0,1:0|1:0,0:0:0:0:
219,79,36954,1,8,0:0:0:0:
298,155,37320,2,0,L|313:288,1,110,2|8,1:0|0:0,0:0:0:0:
362,361,38052,2,0,L|441:353,1,55,2|0,1:0|1:0,0:0:0:0:
471,350,38417,1,10,0:0:0:0:
496,243,38783,6,0,P|501:188|474:121,1,110,2|8,1:0|0:0,0:0:0:0:
404,60,39515,2,0,L|331:55,1,55,0|2,1:0|1:0,0:0:0:0:
302,27,39881,2,0,L|229:32,1,55,10|0,0:0|1:0,0:0:0:0:
208,69,40247,2,0,P|157:84|99:72,1,110,2|10,1:0|0:0,0:0:0:0:
15,141,40978,2,0,L|21:216,1,55,0|2,1:0|1:0,0:0:0:0:
64,228,41344,2,0,L|58:303,1,55,8|8,0:0|0:0,0:0:0:0:
49,337,41710,6,0,P|105:326|167:335,1,110,6|8,1:0|0:0,0:0:0:0:
262,364,42442,2,0,L|324:359,1,55,2|0,1:0|1:0,0:0:0:0:
371,354,42808,1,8,0:0:0:0:
458,286,43174,2,0,P|463:235|447:174,1,110,2|8,1:0|0:0,0:0:0:0:
351,127,43905,2,0,L|296:131,1,55,2|0,1:0|1:0,0:0:0:0:
251,163,44271,2,0,L|196:158,1,55,10|2,0:0|3:0,0:0:0:0:
141,152,44637,5,0,1:0:0:0:
64,228,45003,1,10,0:0:0:0:
94,333,45369,2,0,P|138:352|205:346,1,110,8|0,0:0|1:0,0:0:0:0:
296,296,46100,2,0,L|294:181,1,110,6|0,1:0|1:0,0:0:0:0:
296,131,46649,2,0,P|333:115|417:134,1,110,2|0,1:0|1:0,0:0:0:0:
452,157,47198,1,2,1:0:0:0:
452,157,47381,1,4,1:0:0:0:
452,157,49027,6,0,L|447:281,1,115.49999647522,2|10,1:0|0:0,0:0:0:0:
443,334,49576,1,2,3:0:0:0:
443,334,49759,2,0,P|380:343|308:326,1,115.49999647522,2|10,1:0|0:0,0:0:0:0:
228,277,50491,2,0,L|102:288,1,115.49999647522,2|10,1:0|0:0,0:0:0:0:
60,298,51039,1,2,3:0:0:0:
60,298,51222,2,0,B|45:245|45:245|56:180,1,115.49999647522,2|10,1:0|0:0,0:0:0:0:
124,92,51954,6,0,P|187:109|241:99,1,115.49999647522,2|10,1:0|0:0,0:0:0:0:
284,69,52503,1,2,3:0:0:0:
284,69,52686,2,0,L|410:77,1,115.49999647522,2|10,1:0|0:0,0:0:0:0:
473,165,53417,2,0,P|490:228|480:282,1,115.49999647522,2|10,1:0|0:0,0:0:0:0:
446,323,53966,1,2,3:0:0:0:
446,323,54149,2,0,L|320:331,1,115.49999647522,2|10,1:0|0:0,0:0:0:0:
214,332,54881,5,4,1:0:0:0:
141,242,55247,1,10,0:0:0:0:
164,128,55613,2,0,P|224:113|288:136,1,115.49999647522,2|10,1:0|0:0,0:0:0:0:
312,170,56161,2,0,L|438:170,1,115.49999647522,2|2,3:0|3:0,0:0:0:0:
490,170,56710,1,8,0:0:0:0:
490,170,56893,2,0,P|496:116|477:56,1,115.49999647522,2|2,3:0|3:0,0:0:0:0:
437,17,57442,1,10,0:0:0:0:
328,56,57808,6,0,B|269:67|269:67|204:56,1,115.49999647522,0|10,1:0|0:0,0:0:0:0:
101,34,58539,1,2,1:0:0:0:
13,109,58905,1,10,0:0:0:0:
16,224,59271,1,2,1:0:0:0:
108,294,59637,1,10,0:0:0:0:
220,265,60003,2,0,L|289:268,1,57.7499982376099,2|8,1:0|0:0,0:0:0:0:
322,304,60369,2,0,L|391:301,1,57.7499982376099,10|8,0:0|0:0,0:0:0:0:
437,304,60734,6,0,P|453:250|440:179,1,115.49999647522,4|8,1:0|0:0,0:0:0:0:
415,149,61283,1,0,3:0:0:0:
415,149,61466,2,0,P|361:165|290:152,1,115.49999647522,0|8,1:0|0:0,0:0:0:0:
200,103,62198,2,0,L|191:224,1,115.49999647522,0|8,1:0|0:0,0:0:0:0:
187,280,62747,1,0,3:0:0:0:
187,280,62930,2,0,P|127:293|66:276,1,115.49999647522,0|8,1:0|0:0,0:0:0:0:
3,189,63661,6,0,L|12:68,1,115.49999647522,0|8,1:0|0:0,0:0:0:0:
27,21,64210,1,0,3:0:0:0:
27,21,64393,2,0,P|76:43|157:34,1,115.49999647522,0|8,1:0|0:0,0:0:0:0:
234,104,65125,2,0,P|283:82|364:91,1,115.49999647522,0|8,1:0|0:0,0:0:0:0:
396,120,65674,1,0,3:0:0:0:
396,120,65856,2,0,L|477:116,2,57.7499982376099,8|8|8,0:0|0:0|0:0,0:0:0:0:
301,187,66588,6,0,P|350:227|422:233,1,115.49999647522,8|10,0:0|0:0,0:0:0:0:
462,232,67137,1,0,0:0:0:0:
462,232,67320,2,0,L|453:91,1,115.49999647522,10|10,0:0|0:0,0:0:0:0:
353,60,68052,2,0,P|298:80|233:79,1,115.49999647522,0|8,1:0|0:0,0:0:0:0:
126,72,68783,1,0,1:0:0:0:
36,144,69149,2,0,L|36:209,1,57.7499982376099,4|0,3:0|0:0,0:0:0:0:
41,262,69515,6,0,P|84:301|168:312,1,121.000003692627,12|14,0:0|0:0,0:0:0:0:
264,302,70247,1,14,0:0:0:0:
341,209,70613,1,12,0:0:0:0:
329,89,70978,1,12,0:0:0:0:
237,9,71344,1,14,0:0:0:0:
120,28,71710,2,0,L|118:99,1,60.5000018463135,14|10,0:0|0:0,0:0:0:0:
70,126,72076,2,0,L|72:197,1,60.5000018463135,10|10,0:0|0:0,0:0:0:0:
90,238,72442,6,0,P|140:223|213:234,2,110,2|14|6,1:0|0:0|1:0,0:0:0:0:
3,305,73539,1,14,0:0:0:0:
97,360,73905,2,0,P|151:365|203:350,1,110,6|14,1:0|0:0,0:0:0:0:
285,275,74637,2,0,P|339:269|391:284,1,110,6|14,1:0|0:2,0:0:0:0:
447,309,75186,1,0,0:2:0:0:
447,309,75369,6,0,L|452:188,2,110,6|14|6,1:0|0:0|1:0,0:0:0:0:
352,364,76466,1,14,0:0:0:0:
285,275,76832,2,0,P|226:266|161:286,1,110,6|12,1:0|0:0,0:0:0:0:
70,303,77564,2,0,L|65:182,1,110,4|0,1:0|1:0,0:0:0:0:
66,142,78113,1,8,0:0:0:0:
66,142,78295,6,0,P|122:150|179:132,1,110,6|14,1:0|0:0,0:0:0:0:
239,47,79027,2,0,P|295:39|352:57,1,110,6|14,1:0|0:0,0:0:0:0:
391,93,79576,1,2,0:0:0:0:
391,93,79759,2,0,L|500:86,2,110,6|12|6,1:0|0:0|1:0,0:0:0:0:
308,165,80856,1,14,0:0:0:0:
231,244,81222,6,0,L|245:355,1,110,2|14,1:0|0:0,0:0:0:0:
355,353,81954,2,0,L|368:243,1,110,6|14,1:0|0:0,0:0:0:0:
401,138,82686,2,0,L|470:128,2,55,6|8|10,1:0|0:0|0:0,0:0:0:0:
294,164,83417,1,2,1:0:0:0:
187,138,83783,2,0,L|118:128,1,55,8|8,0:0|0:0,0:0:0:0:
82,100,84149,6,0,P|40:143|34:221,1,115.49999647522,14|14,0:0|0:0,0:0:0:0:
56,308,84881,1,14,0:0:0:0:
157,362,85247,1,14,0:0:0:0:
268,330,85613,2,0,L|383:334,1,115.49999647522,14|14,0:0|0:0,0:0:0:0:
460,248,86344,1,14,0:0:0:0:
384,160,86710,2,0,L|315:162,1,57.7499982376099,14|2,0:0|0:0,0:0:0:0:
268,169,87076,6,0,P|221:188|148:173,1,115.49999647522,14|14,0:0|0:0,0:0:0:0:
67,107,87808,1,14,0:0:0:0:
140,17,88174,1,14,0:0:0:0:
251,46,88539,2,0,L|374:32,1,115.49999647522,14|14,0:0|0:0,0:0:0:0:
473,74,89271,1,2,1:0:0:0:
505,184,89637,2,0,L|499:255,1,57.7499982376099,0|8,1:0|0:0,0:0:0:0:
489,298,90003,6,0,P|425:308|369:292,1,115.49999647522,14|14,0:0|0:0,0:0:0:0:
295,212,90734,1,14,0:0:0:0:
213,293,91100,1,14,0:0:0:0:
97,293,91466,1,14,0:0:0:0:
15,211,91832,1,14,0:0:0:0:
55,102,92198,2,0,P|108:84|176:92,1,115.49999647522,14|14,0:0|0:0,0:0:0:0:
278,120,92930,6,0,P|331:138|399:130,1,115.49999647522,14|14,0:0|0:0,0:0:0:0:
496,90,93661,1,14,0:0:0:0:
478,204,94027,1,14,0:0:0:0:
399,288,94393,1,14,0:0:0:0:
284,302,94759,1,14,0:0:0:0:
179,252,95125,2,0,L|175:174,1,57.7499982376099,2|0,1:0|1:0,0:0:0:0:
137,150,95491,2,0,L|141:72,1,57.7499982376099,8|8,0:0|0:0,0:0:0:0:
151,35,95856,5,2,0:0:0:0:
