osu file format v14

[General]
AudioFilename: audio.mp3
AudioLeadIn: 0
PreviewTime: 47930
Countdown: 0
SampleSet: Soft
StackLeniency: 0.7
Mode: 0
LetterboxInBreaks: 0
WidescreenStoryboard: 0

[Editor]
DistanceSpacing: 0.8
BeatDivisor: 8
GridSize: 4
TimelineZoom: 2.3

[Metadata]
Title:MONSTER
TitleUnicode:MONSTER
Artist:Reol
ArtistUnicode:れをる
Creator:Sakura Blossom
Version:Cloudy sky
Source:
Tags:Reol, Monster, Oklayyyy, Sakura Blossom
BeatmapID:1784199
BeatmapSetID:853745

[Difficulty]
HPDrainRate:5
CircleSize:4
OverallDifficulty:8
ApproachRate:9.2
SliderMultiplier:1.92
SliderTickRate:1

[Events]
//Background and Video events
0,0,"image (18).jpg",0,0
//Break Periods
//Storyboard Layer 0 (Background)
//Storyboard Layer 1 (Fail)
//Storyboard Layer 2 (Pass)
//Storyboard Layer 3 (Foreground)
//Storyboard Sound Samples

[TimingPoints]
735,365.853658536585,4,2,22,45,1,0
735,-192.307692307692,4,2,22,45,0,0
3661,-192.307692307692,4,2,22,45,0,0
6039,-192.307692307692,4,2,22,45,0,0
6588,-192.307692307692,4,2,22,45,0,0
9515,-192.307692307692,4,2,22,45,0,0
10795,-192.307692307692,4,2,22,45,0,0
11344,-98.0392156862745,4,2,22,50,0,0
12350,-161.290322580645,4,2,22,5,0,0
12442,-98.0392156862745,4,2,22,65,0,0
13905,-98.0392156862745,4,2,22,65,0,0
14271,-98.0392156862745,4,2,22,65,0,0
14637,-98.0392156862745,4,2,22,65,0,0
15003,-98.0392156862745,4,2,22,65,0,0
15369,-98.0392156862745,4,2,22,65,0,0
16832,-98.0392156862745,4,2,22,65,0,0
18295,-98.0392156862745,4,2,22,65,0,0
19759,-98.0392156862745,4,2,22,65,0,0
20125,-98.0392156862745,4,2,22,65,0,0
21222,-98.0392156862745,4,2,22,65,0,0
22686,-98.0392156862745,4,2,22,65,0,0
23600,-98.0392156862745,4,2,22,65,0,0
23875,-98.0392156862745,4,2,22,65,0,0
24149,-121.951219512195,4,2,22,65,0,0
24515,-121.951219512195,4,2,22,65,0,0
25613,-121.951219512195,4,2,22,65,0,0
26344,-121.951219512195,4,2,22,65,0,0
27442,-121.951219512195,4,2,22,65,0,0
28539,-121.951219512195,4,2,22,65,0,0
30369,-121.951219512195,4,2,22,65,0,0
31466,-121.951219512195,4,2,22,65,0,0
32930,-121.951219512195,4,2,22,65,0,0
33295,-121.951219512195,4,2,22,65,0,0
34027,-121.951219512195,4,2,22,65,0,0
34393,-98.0392156862744,4,2,22,65,0,0
35125,-98.0392156862744,4,2,22,65,0,0
35491,-98.0392156862744,4,2,22,65,0,0
35856,-98.0392156862745,4,2,22,65,0,0
37320,-98.0392156862745,4,2,22,65,0,0
38692,-98.0392156862745,4,2,22,65,0,0
40247,-98.0392156862745,4,2,22,65,0,0
41893,-98.0392156862745,4,2,22,70,0,0
43174,-98.0392156862745,4,2,22,70,0,0
44637,-98.0392156862745,4,2,22,70,0,0
45003,-98.0392156862745,4,2,22,70,0,0
45552,-98.0392156862745,4,2,22,70,0,0
45917,-98.0392156862745,4,2,22,70,0,0
46832,-98.0392156862745,4,2,22,70,0,0
47198,-98.0392156862745,4,2,22,70,0,0
48295,-192.307692307692,4,2,22,65,0,0
48661,-121.951219512195,4,2,22,65,0,0
49027,-81.9672131147541,4,2,22,90,0,1
66588,-75.7575757575758,4,2,22,90,0,0
69515,-75.7575757575758,4,2,22,95,0,0
72442,-98.0392156862745,4,2,22,50,0,0
72808,-98.0392156862745,4,2,22,45,0,0
89637,-98.0392156862745,4,2,22,75,0,0
90003,-98.0392156862745,4,2,22,85,0,0
90186,-98.0392156862745,4,2,22,70,0,0
95856,-98.0392156862745,4,2,22,100,0,1
95948,-98.0392156862745,4,2,22,100,0,0

[Colours]
Combo1 : 119,129,176
Combo2 : 255,234,159
Combo3 : 32,104,191
Combo4 : 215,92,2
SliderBorder : 255,255,255
SliderTrackOverride : 0,0,0

[HitObjects]
403,308,735,6,0,B|392:278|392:278|393:203,1,99.839999390625,0|0,1:0|0:0,0:0:0:0:
402,82,1283,2,0,B|422:73|456:49,2,49.9199996953125,2|0|0,0:0|0:0|0:0,0:0:0:0:
262,106,1832,1,0,1:0:0:0:
157,158,2015,2,0,B|142:181|132:214,1,49.9199996953125
62,270,2381,2,0,B|67:290|85:328,1,49.9199996953125
196,345,2747,1,0,0:0:0:0:
317,277,2930,2,0,L|248:260,1,49.9199996953125,0|0,1:0|0:0,0:0:0:0:
108,169,3295,2,0,L|175:153,1,49.9199996953125,0|0,1:0|0:0,0:0:0:0:
266,29,3661,6,0,B|267:86|267:86|270:134,1,99.839999390625,0|0,1:0|0:0,0:0:0:0:
240,222,4210,2,0,B|232:248|232:248|226:283,2,49.9199996953125,2|0|0,0:0|0:0|0:0,0:0:0:0:
270,128,4759,1,0,1:0:0:0:
327,253,4942,2,0,B|331:203,1,49.9199996953125
378,106,5308,1,0,0:0:0:0:
413,245,5491,1,0,1:0:0:0:
413,245,5674,2,0,B|417:215|436:188,1,49.9199996953125
487,139,6039,6,0,B|506:119|515:88,2,49.9199996953125
451,317,6588,6,0,B|403:332|403:332|335:315,1,99.839999390625,0|0,1:0|0:0,0:0:0:0:
227,195,7137,2,0,B|237:214|251:251,1,49.9199996953125
233,358,7503,1,0,0:0:0:0:
336,227,7686,1,0,1:0:0:0:
169,242,7869,2,0,B|157:273|141:301,1,49.9199996953125
16,361,8234,2,0,B|40:314|40:314|77:269,1,99.839999390625
227,195,8783,2,0,B|234:172|238:147,1,49.9199996953125,0|0,1:0|0:0,0:0:0:0:
229,48,9149,1,0,1:0:0:0:
86,33,9515,6,0,B|66:95|104:87|76:147,1,99.839999390625,0|0,1:0|0:0,0:0:0:0:
160,250,10064,2,0,B|148:270|131:291,1,49.9199996953125
53,347,10430,1,0,0:0:0:0:
104,189,10795,6,0,B|164:163|164:163|196:163|229:199,1,124.799999238281
287,316,11344,5,0,0:0:0:0:
433,201,11527,1,0,0:0:0:0:
433,201,11619,1,0,0:0:0:0:
433,201,11710,2,0,B|448:151|494:128|494:128|457:83|393:132|393:132|331:89|252:106,1,342.720002091797
253,107,12442,6,0,B|220:115|220:115|155:105,1,97.9200005976563,0|0,1:0|3:0,0:0:0:0:
29,54,12808,1,0,0:0:0:0:
91,308,12991,1,0,0:0:0:0:
203,72,13174,1,0,1:0:0:0:
149,311,13356,1,0,3:3:0:0:
126,40,13539,2,0,B|129:90|129:90|139:151,1,97.9200005976563
233,352,13905,6,0,B|263:336|263:336|296:270,1,97.9200005976563,0|0,1:0|3:0,0:0:0:0:
410,132,14271,5,0,0:0:0:0:
291,278,14454,1,0,3:0:0:0:
342,65,14637,5,0,1:0:0:0:
289,269,14820,1,0,0:0:0:0:
250,39,15003,5,0,0:0:0:0:
286,260,15186,2,0,L|256:180,1,48.9600002988281
256,185,15369,6,0,L|158:175,1,97.9200005976563,0|0,1:0|3:0,0:0:0:0:
20,168,15734,1,0,0:0:0:0:
200,82,15917,1,0,3:0:0:0:
80,280,16100,1,0,1:0:0:0:
75,53,16283,1,0,3:0:0:0:
194,272,16466,2,0,B|189:239|189:239|201:203|201:203|195:167,1,97.9200005976563,0|0,0:0|3:0,0:0:0:0:
200,82,16832,6,0,B|205:115|205:115|193:151|193:151|199:187,1,97.9200005976563,0|0,0:0|3:0,0:0:0:0:
263,304,17198,1,0,0:0:0:0:
274,154,17381,1,0,0:0:0:0:
274,154,17472,1,0,0:0:0:0:
274,154,17564,1,0,1:0:0:0:
381,280,17747,1,0,0:0:0:0:
342,106,17930,1,0,1:0:0:0:
500,277,18113,2,0,L|451:280,1,48.9600002988281
271,263,18295,6,0,P|214:266|152:266,1,97.9200005976563,0|0,1:0|3:0,0:0:0:0:
348,352,18661,2,0,P|395:355|464:366,1,97.9200005976563,0|0,0:0|3:0,0:0:0:0:
305,202,19027,1,0,1:0:0:0:
344,383,19210,1,0,3:0:0:0:
369,149,19393,2,0,P|325:125|261:133,1,97.9200005976563
178,154,19759,6,0,L|188:261,1,97.9200005976563,0|0,1:0|3:0,0:0:0:0:
156,349,20125,5,0,0:0:0:0:
252,131,20308,1,0,3:0:0:0:
274,344,20491,1,0,1:0:0:0:
137,86,20674,1,0,0:0:0:0:
40,252,20856,1,0,0:0:0:0:
219,247,21039,2,0,L|267:241,1,48.9600002988281
284,237,21222,6,0,B|314:222|314:222|388:230,1,97.9200005976563,0|0,1:0|3:0,0:0:0:0:
443,330,21588,2,0,B|456:309|456:309|455:217,1,97.9200005976563,0|0,0:0|3:0,0:0:0:0:
439,98,21954,1,0,1:0:0:0:
331,303,22137,1,0,3:0:0:0:
262,113,22320,1,0,0:0:0:0:
455,235,22503,1,0,3:0:0:0:
464,19,22686,6,0,B|386:13|392:64|296:44,1,146.880000896484,0|0,1:0|0:0,0:0:0:0:
303,48,23052,1,0,0:0:0:0:
148,110,23234,2,0,B|126:87|109:53,2,48.9600002988281,0|8|0,0:0|0:0|0:0,0:0:0:0:
223,263,23600,5,0,0:0:0:0:
269,279,23691,1,0,0:0:0:0:
315,295,23782,1,0,0:0:0:0:
364,303,23875,5,0,0:0:0:0:
406,291,23966,1,0,0:0:0:0:
395,244,24057,1,0,0:0:0:0:
352,256,24149,1,0,0:0:0:0:
245,116,24515,6,0,P|267:152|282:191,1,78.7200012011719,0|2,1:0|0:0,0:0:0:0:
286,361,24881,1,0,1:0:0:0:
284,256,25064,1,0,0:0:0:0:
218,313,25247,2,0,P|176:317|118:328,1,78.7200012011719,0|0,1:0|0:0,0:0:0:0:
59,330,25613,6,0,P|95:262|114:252,1,78.7200012011719,0|0,1:0|0:0,0:0:0:0:
302,331,25978,2,0,P|298:291|283:255,1,78.7200012011719,0|2,1:0|0:0,0:0:0:0:
193,183,26344,5,0,1:0:0:0:
288,136,26527,1,0,0:0:0:0:
207,88,26710,1,0,1:0:0:0:
286,33,26893,1,0,0:0:0:0:
283,255,27076,1,0,1:0:0:0:
193,183,27442,6,0,L|105:198,1,78.7200012011719,0|2,1:0|0:0,0:0:0:0:
130,79,27808,2,0,L|218:94,1,78.7200012011719,0|2,1:0|0:0,0:0:0:0:
362,209,28174,1,0,1:0:0:0:
358,108,28356,1,0,0:0:0:0:
387,35,28539,6,0,P|326:36|299:50,1,78.7200012011719,0|2,1:0|0:0,0:0:0:0:
250,91,28905,2,0,P|257:133|267:178,1,78.7200012011719,0|2,1:0|0:0,0:0:0:0:
369,233,29271,2,0,P|361:277|352:320,1,78.7200012011719,0|2,1:0|0:0,0:0:0:0:
354,310,29637,1,0,1:0:0:0:
213,221,29820,1,0,0:0:0:0:
354,310,30003,1,0,1:0:0:0:
149,167,30369,6,0,P|225:142|242:145,1,78.7200012011719,0|2,1:0|0:0,0:0:0:0:
281,296,30734,2,0,P|286:257|284:186,1,78.7200012011719,0|2,1:0|0:0,0:0:0:0:
295,126,31100,1,0,1:0:0:0:
213,221,31283,1,0,0:0:0:0:
371,107,31466,6,0,P|343:65|298:45,1,78.7200012011719,0|0,1:0|0:0,0:0:0:0:
179,32,31832,1,0,1:0:0:0:
134,206,32015,2,0,P|157:275|175:291,1,78.7200012011719,0|0,0:0|1:0,0:0:0:0:
295,126,32381,2,0,B|322:157|322:157|339:191,1,78.7200012011719,0|2,0:0|1:0,0:0:0:0:
337,335,32747,1,0,0:0:0:0:
160,277,32930,6,0,B|120:283|120:283|32:266,1,118.080001801758,0|0,1:0|0:0,0:0:0:0:
0,258,33295,5,0,1:0:0:0:
34,137,33478,1,0,0:0:0:0:
114,203,33661,1,0,1:0:0:0:
255,133,33844,1,0,0:0:0:0:
323,175,34027,6,0,P|331:103|323:87,1,78.7200012011719,0|2,1:0|0:0,0:0:0:0:
156,30,34393,6,0,B|171:68|171:68|260:137,1,146.880000896484,0|0,1:0|0:0,0:0:0:0:
269,146,34759,2,0,B|269:209|269:209|276:209|276:209|269:209|269:209|266:245|266:245|260:245|260:245|266:245|266:245|265:293,1,146.880000896484,0|0,0:0|1:0,0:0:0:0:
237,305,35125,6,0,L|252:381,1,48.9600002988281,0|0,1:0|1:0,0:0:0:0:
321,367,35308,2,0,L|336:291,1,48.9600002988281,0|8,0:0|3:0,0:0:0:0:
342,280,35491,5,0,0:0:0:0:
353,233,35582,1,0,3:0:0:0:
365,185,35674,1,0,3:0:0:0:
377,139,35765,1,0,3:0:0:0:
388,93,35856,6,0,B|372:39|372:39|337:4,1,97.9200005976563,0|0,1:0|3:0,0:0:0:0:
202,0,36222,1,0,0:0:0:0:
332,150,36405,1,0,3:0:0:0:
139,157,36588,1,0,1:0:0:0:
245,3,36771,1,0,1:0:0:0:
332,196,36954,2,0,P|284:196|207:186,1,97.9200005976563
283,22,37320,5,0,1:0:0:0:
428,214,37503,2,0,P|379:207|331:195,1,97.9200005976563,0|8,3:0|0:0,0:0:0:0:
488,29,37869,1,0,3:0:0:0:
474,210,38052,1,0,1:0:0:0:
325,38,38234,1,0,1:0:0:0:
497,70,38417,2,0,P|492:118|483:165,1,97.9200005976563,0|10,0:0|0:0,0:0:0:0:
477,193,38692,5,0,0:0:0:0:
477,193,38783,2,0,B|435:231|435:231|401:257,1,97.9200005976563,0|2,1:0|3:0,0:0:0:0:
241,301,39149,1,0,0:0:0:0:
378,180,39332,1,0,3:0:0:0:
309,370,39515,1,0,1:0:0:0:
233,202,39698,1,0,1:0:0:0:
86,149,39881,2,0,B|83:199|83:199|91:246,1,97.9200005976563,0|0,0:0|1:0,0:0:0:0:
299,172,40247,5,0,1:0:0:0:
158,102,40430,2,0,B|187:90|187:90|262:94,1,97.9200005976563,0|10,0:0|0:0,0:0:0:0:
475,220,40795,1,0,0:0:0:0:
335,257,40978,1,0,1:0:0:0:
255,108,41161,1,0,1:0:0:0:
482,68,41344,1,0,0:0:0:0:
364,25,41527,1,0,0:0:0:0:
364,25,41619,1,0,0:0:0:0:
364,25,41710,1,0,1:0:0:0:
475,220,41893,5,0,0:0:0:0:
364,25,42076,2,0,B|373:76|373:76|377:127,1,97.9200005976563,0|0,0:0|3:0,0:0:0:0:
367,271,42442,1,0,1:0:0:0:
454,169,42625,1,0,1:0:0:0:
302,168,42808,2,0,B|254:168|254:168|177:178,1,97.9200005976563
14,182,43174,5,0,1:0:0:0:
204,174,43356,2,0,L|191:276,1,97.9200005976563,0|8,3:0|0:0,0:0:0:0:
53,100,43722,1,0,3:0:0:0:
287,194,43905,1,0,1:0:0:0:
89,262,44088,1,0,1:0:0:0:
191,271,44271,2,0,B|237:281|237:281|315:289,1,97.9200005976563,0|2,0:0|3:0,0:0:0:0:
274,346,44637,5,0,1:0:0:0:
472,230,44820,1,0,0:0:0:0:
326,125,45003,5,0,0:0:0:0:
326,125,45094,2,0,L|322:182,1,48.9600002988281
245,187,45277,1,0,0:0:0:0:
245,187,45369,2,0,L|254:238,1,48.9600002988281
274,346,45552,5,0,0:0:0:0:
274,346,45643,1,0,0:0:0:0:
274,346,45734,1,0,1:0:0:0:
415,342,45917,1,0,0:0:0:0:
415,342,46008,1,0,0:0:0:0:
415,342,46099,1,0,1:0:0:0:
443,139,46283,1,0,0:0:0:0:
296,139,46466,1,0,0:0:0:0:
369,266,46649,1,0,0:0:0:0:
443,139,46832,5,0,0:0:0:0:
255,50,47015,1,0,1:0:0:0:
442,220,47198,5,0,1:0:0:0:
191,271,47381,1,0,1:0:0:0:
117,213,48295,5,0,0:0:0:0:
129,96,48661,2,0,B|120:141|120:141|117:217,1,118.080001801758
281,330,49027,5,0,1:0:0:0:
184,68,49210,1,0,3:0:0:0:
180,336,49393,1,0,0:0:0:0:
276,101,49576,1,0,3:0:0:0:
376,298,49759,1,0,1:0:0:0:
337,46,49942,1,0,3:0:0:0:
180,336,50125,1,0,0:0:0:0:
106,109,50308,5,0,3:0:0:0:
180,336,50491,1,0,1:0:0:0:
224,136,50674,1,0,3:0:0:0:
72,317,50856,1,0,0:0:0:0:
188,61,51039,1,0,3:0:0:0:
276,351,51222,5,0,0:0:0:0:
286,88,51588,1,0,0:0:0:0:
276,351,51954,5,0,1:0:0:0:
324,289,52137,1,0,3:0:0:0:
366,366,52320,5,0,0:0:0:0:
406,263,52503,1,0,3:0:0:0:
499,346,52686,5,0,1:0:0:0:
419,170,52869,1,0,3:0:0:0:
512,229,53052,5,0,0:0:0:0:
390,82,53234,1,0,3:0:0:0:
512,91,53417,5,0,1:0:0:0:
311,7,53600,1,0,3:0:0:0:
443,0,53783,5,0,0:0:0:0:
251,116,53966,1,0,3:0:0:0:
226,9,54149,5,0,0:0:0:0:
347,204,54515,1,0,0:0:0:0:
155,317,54881,6,0,B|147:251|147:251|144:170,1,117.119995174805,0|0,1:0|0:0,0:0:0:0:
265,126,55247,2,0,B|262:184|262:184|255:242,1,117.119995174805,0|2,0:0|3:0,0:0:0:0:
61,314,55613,2,0,B|78:264|62:226|62:226|86:188|77:152|70:116,1,175.679992762207,0|0,1:0|0:0,0:0:0:0:
73,28,55978,1,0,0:0:0:0:
265,126,56161,2,0,B|300:160|366:181,1,117.119995174805,2|0,3:0|1:0,0:0:0:0:
475,184,56527,5,0,3:0:0:0:
341,78,56710,1,0,0:0:0:0:
305,240,56893,1,0,3:0:0:0:
512,92,57076,1,0,1:0:0:0:
265,126,57259,5,0,3:0:0:0:
455,303,57442,2,0,B|401:271|374:213,1,117.119995174805,0|2,0:0|3:0,0:0:0:0:
432,11,57808,2,0,B|398:19|398:19|336:82,1,117.119995174805,0|2,1:0|3:0,0:0:0:0:
305,240,58174,2,0,B|281:274|281:274|199:324|199:324|202:328|202:328|198:323|198:323|157:348,1,175.679992762207
148,351,58539,5,0,1:0:0:0:
89,175,58722,1,0,3:0:0:0:
278,215,58905,1,0,0:0:0:0:
106,345,59088,1,0,0:0:0:0:
95,129,59271,5,0,1:0:0:0:
279,258,59454,1,0,3:0:0:0:
65,335,59637,1,0,0:0:0:0:
105,87,59820,1,0,1:0:0:0:
330,245,60003,6,0,L|321:183,1,58.5599975874024,0|0,1:0|0:0,0:0:0:0:
209,29,60186,2,0,L|212:86,1,58.5599975874024
211,138,60369,1,0,0:0:0:0:
206,190,60460,1,8,0:0:0:0:
231,237,60552,1,0,0:0:0:0:
279,258,60643,1,8,0:0:0:0:
330,245,60734,5,0,1:0:0:0:
330,97,60917,1,0,3:0:0:0:
153,277,61100,1,0,0:0:0:0:
209,29,61283,1,0,3:0:0:0:
407,157,61466,6,0,P|370:202|320:253,1,117.119995174805,0|0,1:0|3:0,0:0:0:0:
218,312,61832,1,0,0:0:0:0:
304,165,62015,1,0,3:0:0:0:
401,319,62198,1,0,1:0:0:0:
131,256,62381,1,0,3:0:0:0:
407,157,62564,1,0,0:0:0:0:
259,371,62747,1,0,3:0:0:0:
225,169,62930,6,0,B|218:125|187:79|187:79|223:101|273:99,1,175.679992762207,0|0,1:0|0:0,0:0:0:0:
401,319,63295,2,0,B|383:244|424:207|424:207|401:179|407:149,1,175.679992762207
387,85,63661,5,0,1:0:0:0:
264,88,63844,1,0,3:0:0:0:
310,145,64027,5,0,1:0:0:0:
191,110,64210,1,0,3:0:0:0:
235,169,64393,5,0,3:0:0:0:
112,172,64576,1,0,1:0:0:0:
67,234,64759,5,0,1:0:0:0:
64,111,64942,1,0,3:0:0:0:
39,307,65125,5,0,1:0:0:0:
96,44,65308,1,0,3:0:0:0:
141,241,65491,5,0,1:0:0:0:
333,79,65674,1,0,3:0:0:0:
424,285,65856,5,0,0:0:0:0:
370,262,65947,1,0,0:0:0:0:
324,225,66038,1,0,0:0:0:0:
283,183,66130,1,0,0:0:0:0:
232,157,66221,1,0,0:0:0:0:
193,71,66405,5,0,0:0:0:0:
193,71,66497,1,0,0:0:0:0:
193,71,66588,2,0,B|222:96|252:102|252:102|231:126|232:157,1,126.719999613281
234,308,66954,5,0,0:0:0:0:
34,288,67137,1,0,0:0:0:0:
156,147,67320,1,0,0:0:0:0:
216,301,67503,1,0,0:0:0:0:
0,183,67686,1,0,0:0:0:0:
186,55,67869,1,0,0:0:0:0:
313,281,68052,6,0,B|264:264|264:264|266:257|266:257|264:264|264:264|205:247,1,126.719999613281,0|2,1:0|0:0,0:0:0:0:
281,162,68417,2,0,L|131:143,1,126.719999613281
7,132,68783,1,0,1:0:0:0:
227,68,68966,5,0,0:0:0:0:
289,75,69057,1,0,0:0:0:0:
346,102,69148,1,0,0:0:0:0:
374,157,69240,1,0,0:0:0:0:
354,215,69331,1,0,0:0:0:0:
352,278,69423,1,0,0:0:0:0:
338,340,69515,2,0,B|279:319|279:319|276:324|276:324|279:319|279:319|235:287|235:287|238:281|238:281|235:287|235:287|173:266,1,190.079999419922
173,266,69881,5,0,0:0:0:0:
42,131,70064,1,0,0:0:0:0:
76,277,70247,5,0,0:0:0:0:
162,89,70430,1,0,0:0:0:0:
182,289,70613,5,0,0:0:0:0:
33,111,70795,1,0,0:0:0:0:
67,296,70978,5,0,0:0:0:0:
170,70,71161,1,0,0:0:0:0:
128,347,71344,5,0,0:0:0:0:
81,32,71527,1,0,0:0:0:0:
199,225,71710,5,0,0:0:0:0:
228,259,71802,1,0,0:0:0:0:
271,265,71893,1,0,0:0:0:0:
312,248,71984,1,0,0:0:0:0:
343,216,72076,1,0,0:0:0:0:
372,182,72168,1,0,0:0:0:0:
415,176,72259,1,0,0:0:0:0:
456,193,72350,1,0,0:0:0:0:
488,225,72442,2,0,B|488:288|488:288|495:288|495:288|488:288|488:288|485:324|485:324|479:324|479:324|485:324|485:324|484:372,1,146.880000896484,0|0,0:0|1:0,0:0:0:0:
300,345,72808,6,0,B|301:287|313:240,1,97.9200005976563
428,79,73174,2,0,B|426:136|413:183,1,97.9200005976563
382,344,73539,1,0,0:0:0:0:
349,83,73722,1,0,0:0:0:0:
227,324,73905,6,0,B|191:289|191:289|174:221|174:221|171:222|171:222|174:221|174:221|169:194,1,146.880000896484,0|0,1:0|0:0,0:0:0:0:
228,46,74271,2,0,P|238:90|241:161,1,97.9200005976563
261,232,74637,2,0,P|299:255|366:278,1,97.9200005976563,0|0,1:0|0:0,0:0:0:0:
444,328,75003,1,0,0:2:0:0:
227,324,75186,1,0,0:2:0:0:
227,324,75369,6,0,L|80:334,1,146.880000896484,0|0,1:0|0:0,0:0:0:0:
61,333,75734,2,0,B|29:295|8:247,1,97.9200005976563,0|0,0:0|3:0,0:0:0:0:
92,148,76100,2,0,B|148:154|188:169,1,97.9200005976563,0|0,1:0|3:0,0:0:0:0:
321,181,76466,1,0,0:0:0:0:
111,244,76649,1,0,3:0:0:0:
123,376,76832,6,0,B|145:301|174:324|197:236,1,146.880000896484,0|0,1:0|0:0,0:0:0:0:
197,224,77198,1,0,0:0:0:0:
89,82,77381,1,0,0:0:0:0:
89,82,77472,1,0,0:0:0:0:
89,82,77564,1,0,1:0:0:0:
286,173,77747,1,0,0:0:0:0:
185,45,77930,1,0,1:0:0:0:
84,226,78113,1,0,0:0:0:0:
336,238,78295,6,0,P|349:122|334:103,1,146.880000896484,0|0,1:0|0:0,0:0:0:0:
312,91,78661,2,0,B|215:64,1,97.9200005976563
142,6,79027,2,0,B|44:34,1,97.9200005976563,0|0,1:0|0:0,0:0:0:0:
117,223,79393,5,0,0:0:0:0:
290,99,79576,1,0,0:0:0:0:
117,223,79759,6,0,L|126:382,1,146.880000896484,0|0,1:0|0:0,0:0:0:0:
226,226,80125,2,0,L|208:342,1,97.9200005976563
93,127,80491,2,0,L|121:240,1,97.9200005976563,0|0,1:0|0:0,0:0:0:0:
249,130,80856,2,0,L|220:243,1,97.9200005976563,0|0,1:0|0:0,0:0:0:0:
210,322,81222,6,0,L|371:336,1,146.880000896484,0|0,1:0|0:0,0:0:0:0:
308,248,81588,2,0,L|436:237,1,97.9200005976563,0|0,0:0|3:0,0:0:0:0:
112,330,81954,2,0,L|240:319,1,97.9200005976563,0|0,0:0|3:0,0:0:0:0:
176,195,82320,2,0,B|218:192|218:192|273:227|273:227|276:223|276:223|273:227|273:227|309:249,1,146.880000896484
324,257,82686,5,0,1:0:0:0:
510,343,82869,1,0,0:0:0:0:
327,360,83052,1,0,0:0:0:0:
425,163,83234,1,0,0:0:0:0:
425,163,83326,1,0,0:0:0:0:
425,163,83417,1,0,1:0:0:0:
391,63,83600,5,0,0:0:0:0:
342,54,83692,1,0,0:0:0:0:
293,54,83783,1,0,0:0:0:0:
245,59,83874,1,0,0:0:0:0:
197,69,83965,1,0,0:0:0:0:
151,53,84057,1,0,0:0:0:0:
107,38,84149,2,0,B|107:101|107:101|100:101|100:101|107:101|107:101|110:137|110:137|116:137|116:137|110:137|110:137|111:185,1,146.880000896484,0|0,0:0|1:0,0:0:0:0:
116,178,84515,5,0,0:0:0:0:
120,354,84698,1,0,0:0:0:0:
121,200,84881,5,0,0:0:0:0:
222,358,85064,1,0,0:0:0:0:
126,219,85247,5,0,0:0:0:0:
391,348,85430,1,0,0:0:0:0:
132,237,85613,6,0,L|272:279,1,146.880000896484
132,237,85978,5,0,0:0:0:0:
272,279,86161,1,0,0:0:0:0:
112,238,86344,5,0,0:0:0:0:
287,169,86527,1,0,0:0:0:0:
90,239,86710,5,0,0:0:0:0:
309,0,86893,1,0,0:0:0:0:
357,322,87076,6,0,B|333:255|333:255|364:235|375:195,1,146.880000896484
379,173,87442,5,0,1:0:0:0:
200,226,87625,1,0,3:0:0:0:
246,38,87808,1,0,0:0:0:0:
371,214,87991,1,0,0:0:0:0:
154,219,88174,1,0,1:0:0:0:
290,39,88357,1,0,3:0:0:0:
357,252,88539,6,0,B|277:273|194:309,1,146.880000896484
196,305,88905,2,0,L|100:284,1,97.9200005976563
0,220,89271,1,0,1:0:0:0:
183,179,89454,1,0,0:0:0:0:
139,0,89637,1,0,0:0:0:0:
165,40,89728,1,0,0:0:0:0:
193,81,89819,1,0,0:0:0:0:
219,121,89911,1,0,0:0:0:0:
248,161,90003,5,0,0:0:0:0:
374,339,90186,1,0,1:2:0:0:
144,184,90369,1,2,0:0:0:0:
322,58,90552,1,0,1:2:0:0:
167,288,90734,1,0,0:0:0:0:
41,110,90917,1,0,1:2:0:0:
40,362,91100,1,0,0:0:0:0:
259,236,91283,1,0,1:0:0:0:
62,278,91466,5,0,0:0:0:0:
245,359,91649,1,0,1:0:0:0:
144,184,91832,1,0,0:0:0:0:
123,384,92015,1,0,1:0:0:0:
317,201,92198,1,0,0:0:0:0:
133,284,92381,1,0,1:0:0:0:
326,100,92564,1,0,0:0:0:0:
307,302,92747,1,0,1:0:0:0:
245,42,92930,5,0,0:0:0:0:
408,159,93113,1,0,1:0:0:0:
153,83,93295,1,0,0:0:0:0:
336,0,93478,1,0,1:0:0:0:
225,242,93661,1,0,0:0:0:0:
245,42,93844,1,0,1:0:0:0:
330,235,94027,2,0,B|363:277|363:277|417:293,1,97.9200005976563
499,298,94393,6,0,B|497:251|497:251|472:195|472:195|469:146,1,146.880000896484
468,134,94759,5,0,0:0:0:0:
288,70,94942,1,0,0:0:0:0:
288,70,95033,1,0,0:0:0:0:
288,70,95125,1,0,1:0:0:0:
158,71,95308,5,0,0:0:0:0:
139,116,95399,1,0,0:0:0:0:
121,161,95490,1,0,0:0:0:0:
103,207,95582,1,0,0:0:0:0:
85,252,95673,1,0,0:0:0:0:
66,298,95765,1,0,0:0:0:0:
50,341,95856,6,0,L|44:378,2,24.4800001494141,4|2|2,0:0|0:0|0:0,0:0:0:0:
