osu file format v14

[General]
AudioFilename: audio.mp3
AudioLeadIn: 0
PreviewTime: -1
Countdown: 0
SampleSet: Normal
StackLeniency: 1
Mode: 1
LetterboxInBreaks: 0
WidescreenStoryboard: 1

[Editor]
DistanceSpacing: 1
BeatDivisor: 8
GridSize: 16
TimelineZoom: 2

[Metadata]
Title:MONSTER
TitleUnicode:MONSTER
Artist:Reol
ArtistUnicode:Reol
Creator:Raichu69
Version:Ultimate Convert Difficulty
Source:
Tags:
BeatmapID:2244835
BeatmapSetID:604938

[Difficulty]
HPDrainRate:5
CircleSize:2
OverallDifficulty:6
ApproachRate:5
SliderMultiplier:1.3999999666214
SliderTickRate:1

[Events]
//Background and Video events
0,0,"14.jpg",0,0
//Break Periods
//Storyboard Layer 0 (Background)
//Storyboard Layer 1 (Fail)
//Storyboard Layer 2 (Pass)
//Storyboard Layer 3 (Foreground)
//Storyboard Layer 4 (Overlay)
//Storyboard Sound Samples

[TimingPoints]
811,365.853658536585,4,1,0,70,1,0
11786,-80,4,1,0,70,0,0
23859,-66.6666666666667,4,1,0,70,0,0
24591,-100,4,1,0,70,0,0
34469,-80,4,1,0,70,0,0
78371,-100,4,1,0,40,0,0
80932,-66.6666666666667,4,1,0,70,0,0
81664,-100,4,1,0,70,0,0
91542,-100,4,1,0,40,0,0
93006,-80,4,1,0,70,0,0
106176,-66.6666666666667,4,1,0,70,0,0
135628,-100,4,1,0,70,0,0
147884,-66.6666666666667,4,1,0,70,0,0

[HitObjects]
256,192,810,5,0,0:0:0:0:
256,192,1359,1,2,0:0:0:0:
256,192,1908,1,0,0:0:0:0:
256,192,2091,1,0,0:0:0:0:
256,192,2457,1,2,0:0:0:0:
256,192,3006,1,2,0:0:0:0:
256,192,3371,1,0,0:0:0:0:
256,192,3737,1,0,0:0:0:0:
256,192,4286,1,2,0:0:0:0:
256,192,5018,1,6,0:0:0:0:
256,192,6664,1,0,0:0:0:0:
256,192,7213,1,2,0:0:0:0:
256,192,7762,1,2,0:0:0:0:
256,192,7945,1,2,0:0:0:0:
256,192,8310,1,6,0:0:0:0:
256,192,8859,1,2,0:0:0:0:
256,192,9225,1,0,0:0:0:0:
256,192,9591,1,2,0:0:0:0:
256,192,10140,1,2,0:0:0:0:
256,192,10871,1,6,0:0:0:0:
256,192,11786,12,2,12457,0:0:0:0:
256,192,12518,5,0,0:0:0:0:
256,192,12701,5,0,0:0:0:0:
256,192,12884,1,2,0:0:0:0:
256,192,13067,1,0,0:0:0:0:
256,192,13250,1,2,0:0:0:0:
256,192,13432,1,2,0:0:0:0:
256,192,13615,1,2,0:0:0:0:
256,192,13798,1,0,0:0:0:0:
256,192,13981,1,2,0:0:0:0:
256,192,14164,1,0,0:0:0:0:
256,192,14347,1,2,0:0:0:0:
256,192,14530,1,0,0:0:0:0:
256,192,14713,1,2,0:0:0:0:
256,192,14896,1,0,0:0:0:0:
256,192,15079,1,0,0:0:0:0:
256,192,15262,1,0,0:0:0:0:
256,192,15445,1,2,0:0:0:0:
256,192,15628,1,0,0:0:0:0:
256,192,15810,1,2,0:0:0:0:
256,192,15993,1,2,0:0:0:0:
256,192,16176,1,2,0:0:0:0:
256,192,16359,1,0,0:0:0:0:
256,192,16542,1,2,0:0:0:0:
256,192,16725,1,2,0:0:0:0:
256,192,16908,1,0,0:0:0:0:
256,192,17091,1,2,0:0:0:0:
256,192,17274,1,2,0:0:0:0:
256,192,17457,1,0,0:0:0:0:
256,192,17640,1,2,0:0:0:0:
256,192,17823,1,0,0:0:0:0:
256,192,18006,1,2,0:0:0:0:
256,192,18189,1,0,0:0:0:0:
256,192,18280,1,2,0:0:0:0:
256,192,18371,1,2,0:0:0:0:
256,192,18554,1,0,0:0:0:0:
256,192,18737,1,2,0:0:0:0:
256,192,18920,1,2,0:0:0:0:
256,192,19103,1,0,0:0:0:0:
256,192,19286,1,2,0:0:0:0:
256,192,19469,1,0,0:0:0:0:
256,192,19652,1,2,0:0:0:0:
256,192,19835,1,0,0:0:0:0:
256,192,20018,1,0,0:0:0:0:
256,192,20201,1,2,0:0:0:0:
256,192,20384,1,2,0:0:0:0:
256,192,20567,1,0,0:0:0:0:
256,192,20750,1,2,0:0:0:0:
256,192,20932,1,0,0:0:0:0:
256,192,21115,1,0,0:0:0:0:
256,192,21298,1,0,0:0:0:0:
256,192,21481,1,2,0:0:0:0:
256,192,21664,1,0,0:0:0:0:
256,192,21847,1,2,0:0:0:0:
256,192,22030,1,2,0:0:0:0:
256,192,22213,1,2,0:0:0:0:
256,192,22396,1,0,0:0:0:0:
256,192,22579,1,2,0:0:0:0:
256,192,22762,1,2,0:0:0:0:
256,192,22945,1,0,0:0:0:0:
256,192,23128,1,2,0:0:0:0:
256,192,23310,1,2,0:0:0:0:
256,192,23493,1,0,0:0:0:0:
256,192,23676,1,2,0:0:0:0:
256,192,23859,1,0,0:0:0:0:
256,192,23920,1,0,0:0:0:0:
256,192,23981,1,0,0:0:0:0:
256,192,24042,1,2,0:0:0:0:
256,192,24103,1,2,0:0:0:0:
256,192,24164,1,0,0:0:0:0:
256,192,24225,1,2,0:0:0:0:
256,192,24591,1,0,0:0:0:0:
256,192,24774,1,0,0:0:0:0:
256,192,24957,1,2,0:0:0:0:
256,192,25140,1,0,0:0:0:0:
256,192,25323,1,2,0:0:0:0:
256,192,25506,1,2,0:0:0:0:
256,192,25689,1,0,0:0:0:0:
256,192,26054,1,0,0:0:0:0:
256,192,26237,1,0,0:0:0:0:
256,192,26420,1,2,0:0:0:0:
256,192,26603,1,0,0:0:0:0:
256,192,26786,1,2,0:0:0:0:
256,192,26969,1,2,0:0:0:0:
256,192,27518,1,0,0:0:0:0:
256,192,27701,1,0,0:0:0:0:
256,192,27884,1,2,0:0:0:0:
256,192,28067,1,0,0:0:0:0:
256,192,28250,1,2,0:0:0:0:
256,192,28432,1,2,0:0:0:0:
256,192,28615,1,0,0:0:0:0:
256,192,28981,1,0,0:0:0:0:
256,192,29164,1,0,0:0:0:0:
256,192,29347,1,2,0:0:0:0:
256,192,29530,1,2,0:0:0:0:
256,192,29713,1,0,0:0:0:0:
256,192,29896,1,2,0:0:0:0:
256,192,30445,1,0,0:0:0:0:
256,192,30628,1,0,0:0:0:0:
256,192,30810,1,2,0:0:0:0:
256,192,30993,1,0,0:0:0:0:
256,192,31176,1,2,0:0:0:0:
256,192,31359,1,2,0:0:0:0:
256,192,31542,1,0,0:0:0:0:
256,192,31908,1,0,0:0:0:0:
256,192,32091,1,2,0:0:0:0:
256,192,32457,1,0,0:0:0:0:
256,192,32640,1,2,0:0:0:0:
256,192,32823,1,2,0:0:0:0:
256,192,33006,1,0,0:0:0:0:
256,192,33371,1,2,0:0:0:0:
256,192,34103,1,0,0:0:0:0:
256,192,34286,1,0,0:0:0:0:
256,192,34469,1,2,0:0:0:0:
256,192,34560,1,0,0:0:0:0:
256,192,34652,1,0,0:0:0:0:
256,192,34743,1,0,0:0:0:0:
256,192,34835,1,2,0:0:0:0:
256,192,34926,1,0,0:0:0:0:
256,192,35018,1,2,0:0:0:0:
256,192,35109,1,0,0:0:0:0:
256,192,35201,1,0,0:0:0:0:
256,192,35292,1,0,0:0:0:0:
256,192,35384,1,2,0:0:0:0:
256,192,35475,1,2,0:0:0:0:
256,192,35567,1,0,0:0:0:0:
256,192,35658,1,2,0:0:0:0:
256,192,35750,1,0,0:0:0:0:
256,192,35841,1,0,0:0:0:0:
256,192,35932,1,0,0:0:0:0:
256,192,36115,1,0,0:0:0:0:
256,192,36207,1,0,0:0:0:0:
256,192,36298,1,2,0:0:0:0:
256,192,36481,1,0,0:0:0:0:
256,192,36664,1,2,0:0:0:0:
256,192,36847,1,0,0:0:0:0:
256,192,36939,1,0,0:0:0:0:
256,192,37030,1,2,0:0:0:0:
256,192,37213,1,0,0:0:0:0:
256,192,37396,1,0,0:0:0:0:
256,192,37579,1,0,0:0:0:0:
256,192,37670,1,0,0:0:0:0:
256,192,37762,1,2,0:0:0:0:
256,192,37945,1,0,0:0:0:0:
256,192,38128,1,0,0:0:0:0:
256,192,38310,1,2,0:0:0:0:
256,192,38493,1,2,0:0:0:0:
256,192,38676,1,0,0:0:0:0:
256,192,38859,1,2,0:0:0:0:
256,192,39042,1,2,0:0:0:0:
256,192,39225,1,2,0:0:0:0:
256,192,39408,1,2,0:0:0:0:
256,192,39500,1,0,0:0:0:0:
256,192,39591,1,2,0:0:0:0:
256,192,39774,1,2,0:0:0:0:
256,192,39957,1,2,0:0:0:0:
256,192,40140,1,0,0:0:0:0:
256,192,40231,1,0,0:0:0:0:
256,192,40323,1,2,0:0:0:0:
256,192,40506,1,0,0:0:0:0:
256,192,40689,1,0,0:0:0:0:
256,192,40871,1,2,0:0:0:0:
256,192,41054,1,2,0:0:0:0:
256,192,41146,1,2,0:0:0:0:
256,192,41237,1,0,0:0:0:0:
256,192,41420,1,2,0:0:0:0:
256,192,41786,1,0,0:0:0:0:
256,192,41969,1,0,0:0:0:0:
256,192,42060,1,0,0:0:0:0:
256,192,42152,1,2,0:0:0:0:
256,192,42335,1,0,0:0:0:0:
256,192,42518,1,2,0:0:0:0:
256,192,42701,1,0,0:0:0:0:
256,192,42792,1,0,0:0:0:0:
256,192,42884,1,2,0:0:0:0:
256,192,43067,1,0,0:0:0:0:
256,192,43250,1,0,0:0:0:0:
256,192,43432,1,0,0:0:0:0:
256,192,43524,1,0,0:0:0:0:
256,192,43615,1,2,0:0:0:0:
256,192,43798,1,0,0:0:0:0:
256,192,43981,1,0,0:0:0:0:
256,192,44164,1,2,0:0:0:0:
256,192,44347,1,2,0:0:0:0:
256,192,44530,1,0,0:0:0:0:
256,192,44713,1,2,0:0:0:0:
240,192,44804,1,0,0:0:0:0:
256,192,44896,1,2,0:0:0:0:
240,192,44987,1,2,0:0:0:0:
256,192,45079,1,0,0:0:0:0:
256,192,45262,1,2,0:0:0:0:
256,192,45353,1,0,0:0:0:0:
256,192,45445,1,2,0:0:0:0:
256,192,45628,1,2,0:0:0:0:
256,192,45810,1,2,0:0:0:0:
256,192,45993,1,0,0:0:0:0:
256,192,46085,1,0,0:0:0:0:
256,192,46176,1,2,0:0:0:0:
256,192,46359,1,0,0:0:0:0:
256,192,46542,1,0,0:0:0:0:
256,192,46725,1,2,0:0:0:0:
256,192,46908,1,2,0:0:0:0:
256,192,47000,1,2,0:0:0:0:
256,192,47091,1,0,0:0:0:0:
256,192,47274,1,2,0:0:0:0:
256,192,48371,1,6,0:0:0:0:
256,192,48737,1,6,0:0:0:0:
256,192,49103,1,2,0:0:0:0:
256,192,49194,1,0,0:0:0:0:
256,192,49286,1,2,0:0:0:0:
256,192,49378,1,2,0:0:0:0:
256,192,49469,1,0,0:0:0:0:
256,192,49560,1,0,0:0:0:0:
256,192,49651,1,0,0:0:0:0:
256,192,49743,1,0,0:0:0:0:
256,192,49834,1,2,0:0:0:0:
256,192,49926,1,0,0:0:0:0:
256,192,50017,1,0,0:0:0:0:
256,192,50109,1,0,0:0:0:0:
256,192,50200,1,2,0:0:0:0:
256,192,50292,1,0,0:0:0:0:
256,192,50383,1,2,0:0:0:0:
256,192,50475,1,0,0:0:0:0:
256,192,50566,1,0,0:0:0:0:
256,192,50658,1,2,0:0:0:0:
256,192,50749,1,2,0:0:0:0:
256,192,50840,1,0,0:0:0:0:
256,192,50932,1,0,0:0:0:0:
256,192,51024,1,0,0:0:0:0:
256,192,51115,1,2,0:0:0:0:
256,192,51207,1,2,0:0:0:0:
256,192,51298,1,0,0:0:0:0:
256,192,51390,1,2,0:0:0:0:
256,192,51481,1,0,0:0:0:0:
256,192,51573,1,0,0:0:0:0:
256,192,51664,1,2,0:0:0:0:
256,192,52029,1,0,0:0:0:0:
256,192,52121,1,2,0:0:0:0:
256,192,52213,1,0,0:0:0:0:
256,192,52304,1,0,0:0:0:0:
256,192,52395,1,2,0:0:0:0:
256,192,52487,1,0,0:0:0:0:
256,192,52578,1,2,0:0:0:0:
256,192,52670,1,2,0:0:0:0:
256,192,52761,1,2,0:0:0:0:
256,192,52853,1,0,0:0:0:0:
256,192,52944,1,2,0:0:0:0:
256,192,53127,1,0,0:0:0:0:
256,192,53310,1,0,0:0:0:0:
256,192,53493,1,2,0:0:0:0:
256,192,53584,1,0,0:0:0:0:
256,192,53676,1,2,0:0:0:0:
256,192,53767,1,0,0:0:0:0:
256,192,53859,1,0,0:0:0:0:
256,192,54042,1,2,0:0:0:0:
256,192,54133,1,0,0:0:0:0:
256,192,54225,1,2,0:0:0:0:
256,192,54591,1,2,0:0:0:0:
256,192,54956,1,0,0:0:0:0:
256,192,55048,1,0,0:0:0:0:
256,192,55139,1,0,0:0:0:0:
256,192,55322,1,2,0:0:0:0:
256,192,55505,1,0,0:0:0:0:
256,192,55688,1,2,0:0:0:0:
256,192,56054,1,2,0:0:0:0:
256,192,56145,1,2,0:0:0:0:
256,192,56237,1,0,0:0:0:0:
256,192,56420,1,0,0:0:0:0:
256,192,56603,1,0,0:0:0:0:
256,192,56694,1,0,0:0:0:0:
256,192,56786,1,0,0:0:0:0:
256,192,56969,1,2,0:0:0:0:
256,192,57060,1,2,0:0:0:0:
256,192,57151,1,0,0:0:0:0:
256,192,57334,1,0,0:0:0:0:
256,192,57517,1,2,0:0:0:0:
256,192,57700,1,0,0:0:0:0:
256,192,58066,1,0,0:0:0:0:
256,192,58158,1,0,0:0:0:0:
256,192,58249,1,2,0:0:0:0:
256,192,58615,1,0,0:0:0:0:
256,192,58706,1,0,0:0:0:0:
256,192,58798,1,2,0:0:0:0:
256,192,58981,1,2,0:0:0:0:
256,192,59072,1,2,0:0:0:0:
256,192,59164,1,0,0:0:0:0:
256,192,59347,1,0,0:0:0:0:
256,192,59438,1,2,0:0:0:0:
256,192,59529,1,2,0:0:0:0:
256,192,59712,1,2,0:0:0:0:
256,192,59804,1,2,0:0:0:0:
256,192,59895,1,0,0:0:0:0:
256,192,60078,1,6,0:0:0:0:
256,192,60444,1,6,0:0:0:0:
256,192,60810,1,2,0:0:0:0:
256,192,60901,1,0,0:0:0:0:
256,192,60993,1,2,0:0:0:0:
256,192,61085,1,2,0:0:0:0:
256,192,61176,1,0,0:0:0:0:
256,192,61268,1,2,0:0:0:0:
256,192,61359,1,0,0:0:0:0:
256,192,61451,1,0,0:0:0:0:
256,192,61542,1,2,0:0:0:0:
256,192,61908,1,2,0:0:0:0:
256,192,61999,1,0,0:0:0:0:
256,192,62090,1,2,0:0:0:0:
256,192,62273,1,0,0:0:0:0:
256,192,62365,1,0,0:0:0:0:
256,192,62456,1,2,0:0:0:0:
256,192,62639,1,0,0:0:0:0:
256,192,62731,1,0,0:0:0:0:
256,192,62822,1,2,0:0:0:0:
256,192,62914,1,0,0:0:0:0:
256,192,63005,1,2,0:0:0:0:
256,192,63097,1,2,0:0:0:0:
256,192,63188,1,0,0:0:0:0:
256,192,63280,1,0,0:0:0:0:
256,192,63371,1,2,0:0:0:0:
256,192,63737,1,2,0:0:0:0:
256,192,63828,1,0,0:0:0:0:
256,192,63920,1,0,0:0:0:0:
256,192,64012,1,2,0:0:0:0:
256,192,64103,1,0,0:0:0:0:
256,192,64195,1,0,0:0:0:0:
256,192,64286,1,2,0:0:0:0:
256,192,64378,1,2,0:0:0:0:
256,192,64469,1,2,0:0:0:0:
256,192,64560,1,0,0:0:0:0:
256,192,64651,1,2,0:0:0:0:
256,192,64834,1,0,0:0:0:0:
256,192,65017,1,0,0:0:0:0:
256,192,65200,1,2,0:0:0:0:
256,192,65292,1,0,0:0:0:0:
256,192,65383,1,2,0:0:0:0:
256,192,65475,1,0,0:0:0:0:
256,192,65566,1,0,0:0:0:0:
256,192,65749,1,2,0:0:0:0:
256,192,65932,1,2,0:0:0:0:
256,192,66024,1,2,0:0:0:0:
256,192,66115,1,0,0:0:0:0:
256,192,66206,1,0,0:0:0:0:
256,192,66298,1,2,0:0:0:0:
256,192,66390,1,2,0:0:0:0:
256,192,66481,1,0,0:0:0:0:
256,192,66572,1,0,0:0:0:0:
256,192,66664,1,2,0:0:0:0:
256,192,67030,5,0,0:0:0:0:
256,192,67213,1,0,0:0:0:0:
256,192,67396,1,2,0:0:0:0:
256,192,67579,1,0,0:0:0:0:
256,192,67762,1,2,0:0:0:0:
256,192,67945,1,0,0:0:0:0:
256,192,68128,1,2,0:0:0:0:
256,192,68310,1,0,0:0:0:0:
256,192,68493,1,0,0:0:0:0:
256,192,68676,1,2,0:0:0:0:
256,192,68768,1,0,0:0:0:0:
256,192,68859,1,0,0:0:0:0:
256,192,68951,1,0,0:0:0:0:
256,192,69042,1,2,0:0:0:0:
256,192,69134,1,0,0:0:0:0:
256,192,69225,1,2,0:0:0:0:
256,192,69317,1,0,0:0:0:0:
256,192,69408,1,2,0:0:0:0:
256,192,69500,1,2,0:0:0:0:
256,192,69591,1,0,0:0:0:0:
256,192,69774,5,0,0:0:0:0:
256,192,69957,1,2,0:0:0:0:
256,192,70140,1,0,0:0:0:0:
256,192,70231,1,0,0:0:0:0:
256,192,70323,1,2,0:0:0:0:
256,192,70506,1,2,0:0:0:0:
256,192,70689,1,2,0:0:0:0:
256,192,70780,1,2,0:0:0:0:
256,192,70871,1,0,0:0:0:0:
256,192,71054,1,2,0:0:0:0:
256,192,71237,1,0,0:0:0:0:
256,192,71329,1,0,0:0:0:0:
256,192,71420,1,2,0:0:0:0:
256,192,71603,1,0,0:0:0:0:
256,192,71786,1,2,0:0:0:0:
256,192,71969,1,0,0:0:0:0:
256,192,72152,1,0,0:0:0:0:
256,192,72335,1,0,0:0:0:0:
256,192,72518,1,2,0:0:0:0:
256,192,72701,1,0,0:0:0:0:
256,192,72884,1,2,0:0:0:0:
256,192,73067,1,2,0:0:0:0:
256,192,73158,1,2,0:0:0:0:
256,192,73250,1,2,0:0:0:0:
256,192,73432,1,0,0:0:0:0:
256,192,73615,1,2,0:0:0:0:
256,192,73707,1,2,0:0:0:0:
256,192,73798,1,2,0:0:0:0:
256,192,73981,1,0,0:0:0:0:
256,192,74164,1,2,0:0:0:0:
256,192,74256,1,0,0:0:0:0:
256,192,74347,1,2,0:0:0:0:
256,192,74530,1,0,0:0:0:0:
256,192,74713,1,2,0:0:0:0:
256,192,74896,1,0,0:0:0:0:
256,192,75079,1,2,0:0:0:0:
256,192,75262,1,0,0:0:0:0:
256,192,75353,1,2,0:0:0:0:
256,192,75445,1,2,0:0:0:0:
256,192,75628,5,0,0:0:0:0:
256,192,75810,1,2,0:0:0:0:
256,192,75993,1,0,0:0:0:0:
256,192,76085,1,0,0:0:0:0:
256,192,76176,1,2,0:0:0:0:
256,192,76359,1,2,0:0:0:0:
256,192,76542,1,2,0:0:0:0:
256,192,76634,1,2,0:0:0:0:
256,192,76725,1,0,0:0:0:0:
256,192,76908,1,2,0:0:0:0:
256,192,77091,1,0,0:0:0:0:
256,192,77182,1,0,0:0:0:0:
256,192,77274,1,2,0:0:0:0:
256,192,77457,1,0,0:0:0:0:
256,192,77640,1,2,0:0:0:0:
256,192,77823,1,0,0:0:0:0:
256,192,78006,1,0,0:0:0:0:
256,192,78189,1,0,0:0:0:0:
256,192,78371,1,0,0:0:0:0:
256,192,78554,1,2,0:0:0:0:
256,192,78737,1,0,0:0:0:0:
256,192,78920,1,2,0:0:0:0:
256,192,79103,1,2,0:0:0:0:
256,192,79286,1,2,0:0:0:0:
256,192,79469,1,0,0:0:0:0:
256,192,79652,1,2,0:0:0:0:
256,192,79835,1,2,0:0:0:0:
256,192,80018,1,0,0:0:0:0:
256,192,80201,1,2,0:0:0:0:
256,192,80384,1,2,0:0:0:0:
256,192,80567,1,0,0:0:0:0:
256,192,80750,1,2,0:0:0:0:
256,192,80932,1,2,0:0:0:0:
256,192,80993,1,2,0:0:0:0:
256,192,81054,1,2,0:0:0:0:
256,192,81115,1,2,0:0:0:0:
256,192,81176,1,2,0:0:0:0:
256,192,81237,1,2,0:0:0:0:
256,192,81298,1,0,0:0:0:0:
256,192,81664,1,0,0:0:0:0:
256,192,81847,1,0,0:0:0:0:
256,192,82030,1,2,0:0:0:0:
256,192,82213,1,0,0:0:0:0:
256,192,82396,1,2,0:0:0:0:
256,192,82579,1,2,0:0:0:0:
256,192,82762,1,0,0:0:0:0:
256,192,83128,1,2,0:0:0:0:
256,192,83310,1,2,0:0:0:0:
256,192,83493,1,0,0:0:0:0:
256,192,83676,1,2,0:0:0:0:
256,192,83859,1,2,0:0:0:0:
256,192,84042,1,0,0:0:0:0:
256,192,84134,1,0,0:0:0:0:
256,192,84225,1,0,0:0:0:0:
256,192,84591,1,0,0:0:0:0:
256,192,84774,1,0,0:0:0:0:
256,192,84957,1,2,0:0:0:0:
256,192,85140,1,0,0:0:0:0:
256,192,85323,1,2,0:0:0:0:
256,192,85506,1,2,0:0:0:0:
256,192,85689,1,0,0:0:0:0:
256,192,86054,1,2,0:0:0:0:
256,192,86237,1,2,0:0:0:0:
256,192,86420,1,0,0:0:0:0:
256,192,86603,1,2,0:0:0:0:
256,192,86786,1,2,0:0:0:0:
256,192,86969,1,0,0:0:0:0:
256,192,87060,1,0,0:0:0:0:
256,192,87152,1,0,0:0:0:0:
256,192,87518,1,0,0:0:0:0:
256,192,87701,1,0,0:0:0:0:
256,192,87884,1,2,0:0:0:0:
256,192,88067,1,0,0:0:0:0:
256,192,88250,1,2,0:0:0:0:
256,192,88432,1,2,0:0:0:0:
256,192,88615,1,0,0:0:0:0:
256,192,88798,1,0,0:0:0:0:
256,192,88890,1,0,0:0:0:0:
256,192,88981,1,0,0:0:0:0:
256,192,89164,1,2,0:0:0:0:
256,192,89256,1,0,0:0:0:0:
256,192,89347,1,0,0:0:0:0:
256,192,89439,1,0,0:0:0:0:
256,192,89530,1,0,0:0:0:0:
256,192,89713,1,2,0:0:0:0:
256,192,89896,1,2,0:0:0:0:
256,192,90079,1,0,0:0:0:0:
256,192,90170,1,0,0:0:0:0:
256,192,90262,1,2,0:0:0:0:
256,192,90353,1,0,0:0:0:0:
256,192,90445,1,2,0:0:0:0:
256,192,90536,1,2,0:0:0:0:
256,192,90628,1,0,0:0:0:0:
256,192,90719,1,0,0:0:0:0:
256,192,90810,1,0,0:0:0:0:
256,192,91176,1,0,0:0:0:0:
256,192,91359,1,0,0:0:0:0:
256,192,91542,1,2,0:0:0:0:
256,192,91634,1,0,0:0:0:0:
256,192,91725,1,0,0:0:0:0:
256,192,91817,1,0,0:0:0:0:
256,192,91908,1,2,0:0:0:0:
256,192,92000,1,0,0:0:0:0:
256,192,92091,1,2,0:0:0:0:
256,192,92457,1,2,0:0:0:0:
256,192,93006,1,2,0:0:0:0:
256,192,93189,1,0,0:0:0:0:
256,192,93280,1,0,0:0:0:0:
256,192,93371,1,2,0:0:0:0:
256,192,93554,1,0,0:0:0:0:
256,192,93737,1,2,0:0:0:0:
256,192,93920,1,0,0:0:0:0:
256,192,94012,1,0,0:0:0:0:
256,192,94103,1,2,0:0:0:0:
256,192,94286,1,0,0:0:0:0:
256,192,94469,1,0,0:0:0:0:
256,192,94652,1,0,0:0:0:0:
256,192,94743,1,0,0:0:0:0:
256,192,94835,1,2,0:0:0:0:
256,192,95018,1,0,0:0:0:0:
256,192,95201,1,0,0:0:0:0:
256,192,95384,1,2,0:0:0:0:
256,192,95475,1,0,0:0:0:0:
256,192,95567,1,2,0:0:0:0:
256,192,95750,1,0,0:0:0:0:
256,192,95932,1,2,0:0:0:0:
256,192,96115,1,2,0:0:0:0:
256,192,96207,1,2,0:0:0:0:
256,192,96298,1,2,0:0:0:0:
256,192,96481,1,2,0:0:0:0:
256,192,96573,1,0,0:0:0:0:
256,192,96664,1,2,0:0:0:0:
256,192,96847,1,2,0:0:0:0:
256,192,97030,1,2,0:0:0:0:
256,192,97213,1,0,0:0:0:0:
256,192,97304,1,0,0:0:0:0:
256,192,97396,1,2,0:0:0:0:
256,192,97579,1,0,0:0:0:0:
256,192,97762,1,0,0:0:0:0:
256,192,97945,1,2,0:0:0:0:
256,192,98128,1,2,0:0:0:0:
256,192,98219,1,2,0:0:0:0:
256,192,98310,1,0,0:0:0:0:
256,192,98493,1,2,0:0:0:0:
256,192,98859,1,2,0:0:0:0:
256,192,99042,1,0,0:0:0:0:
256,192,99134,1,0,0:0:0:0:
256,192,99225,1,2,0:0:0:0:
256,192,99408,1,0,0:0:0:0:
256,192,99591,1,2,0:0:0:0:
256,192,99774,1,0,0:0:0:0:
256,192,99865,1,0,0:0:0:0:
256,192,99957,1,2,0:0:0:0:
256,192,100140,1,0,0:0:0:0:
256,192,100323,1,0,0:0:0:0:
256,192,100506,1,0,0:0:0:0:
256,192,100597,1,0,0:0:0:0:
256,192,100689,1,2,0:0:0:0:
256,192,100871,1,0,0:0:0:0:
256,192,101054,1,0,0:0:0:0:
256,192,101237,1,2,0:0:0:0:
256,192,101329,1,0,0:0:0:0:
256,192,101420,1,2,0:0:0:0:
256,192,101603,1,0,0:0:0:0:
256,192,101786,1,2,0:0:0:0:
240,192,101878,1,0,0:0:0:0:
256,192,101969,1,2,0:0:0:0:
240,192,102060,1,2,0:0:0:0:
256,192,102152,1,0,0:0:0:0:
256,192,102335,1,2,0:0:0:0:
256,192,102426,1,0,0:0:0:0:
256,192,102518,1,2,0:0:0:0:
256,192,102701,1,2,0:0:0:0:
256,192,102884,1,2,0:0:0:0:
256,192,103067,1,0,0:0:0:0:
256,192,103250,1,2,0:0:0:0:
256,192,103432,1,0,0:0:0:0:
256,192,103615,1,0,0:0:0:0:
256,192,103798,1,2,0:0:0:0:
256,192,103981,1,2,0:0:0:0:
256,192,104164,1,0,0:0:0:0:
256,192,104347,1,2,0:0:0:0:
256,192,104439,1,0,0:0:0:0:
256,192,104530,1,2,0:0:0:0:
256,192,104713,1,0,0:0:0:0:
256,192,104896,1,0,0:0:0:0:
256,192,104987,1,2,0:0:0:0:
256,192,105079,1,0,0:0:0:0:
256,192,105262,1,2,0:0:0:0:
256,192,105445,1,6,0:0:0:0:
256,192,105811,1,6,0:0:0:0:
256,192,106177,1,2,0:0:0:0:
256,192,106268,1,0,0:0:0:0:
256,192,106360,1,2,0:0:0:0:
256,192,106452,1,2,0:0:0:0:
256,192,106543,1,0,0:0:0:0:
256,192,106634,1,0,0:0:0:0:
256,192,106725,1,0,0:0:0:0:
256,192,106817,1,0,0:0:0:0:
256,192,106908,1,2,0:0:0:0:
256,192,107000,1,0,0:0:0:0:
256,192,107091,1,0,0:0:0:0:
256,192,107183,1,0,0:0:0:0:
256,192,107274,1,2,0:0:0:0:
256,192,107366,1,0,0:0:0:0:
256,192,107457,1,2,0:0:0:0:
256,192,107549,1,0,0:0:0:0:
256,192,107640,1,0,0:0:0:0:
256,192,107732,1,2,0:0:0:0:
256,192,107823,1,2,0:0:0:0:
256,192,107914,1,0,0:0:0:0:
256,192,108006,1,0,0:0:0:0:
256,192,108098,1,0,0:0:0:0:
256,192,108189,1,2,0:0:0:0:
256,192,108281,1,2,0:0:0:0:
256,192,108372,1,0,0:0:0:0:
256,192,108464,1,2,0:0:0:0:
256,192,108555,1,0,0:0:0:0:
256,192,108647,1,0,0:0:0:0:
256,192,108738,1,2,0:0:0:0:
256,192,109103,1,0,0:0:0:0:
256,192,109195,1,2,0:0:0:0:
256,192,109287,1,0,0:0:0:0:
256,192,109378,1,0,0:0:0:0:
256,192,109469,1,2,0:0:0:0:
256,192,109561,1,0,0:0:0:0:
256,192,109652,1,2,0:0:0:0:
256,192,109744,1,2,0:0:0:0:
256,192,109835,1,2,0:0:0:0:
256,192,109927,1,0,0:0:0:0:
256,192,110018,1,2,0:0:0:0:
256,192,110201,1,0,0:0:0:0:
256,192,110384,1,0,0:0:0:0:
256,192,110567,1,2,0:0:0:0:
256,192,110658,1,0,0:0:0:0:
256,192,110750,1,2,0:0:0:0:
256,192,110841,1,0,0:0:0:0:
256,192,110933,1,0,0:0:0:0:
256,192,111116,1,2,0:0:0:0:
256,192,111207,1,0,0:0:0:0:
256,192,111299,1,2,0:0:0:0:
256,192,111391,1,0,0:0:0:0:
256,192,111482,1,0,0:0:0:0:
256,192,111574,1,0,0:0:0:0:
256,192,111665,1,2,0:0:0:0:
256,192,112030,1,0,0:0:0:0:
256,192,112122,1,0,0:0:0:0:
256,192,112213,1,0,0:0:0:0:
256,192,112396,1,2,0:0:0:0:
256,192,112579,1,0,0:0:0:0:
256,192,112762,1,2,0:0:0:0:
256,192,113128,1,2,0:0:0:0:
256,192,113219,1,2,0:0:0:0:
256,192,113311,1,0,0:0:0:0:
256,192,113494,1,0,0:0:0:0:
256,192,113677,1,0,0:0:0:0:
256,192,113768,1,0,0:0:0:0:
256,192,113860,1,0,0:0:0:0:
256,192,114043,1,2,0:0:0:0:
256,192,114134,1,2,0:0:0:0:
256,192,114225,1,0,0:0:0:0:
256,192,114408,1,0,0:0:0:0:
256,192,114591,1,2,0:0:0:0:
256,192,114774,1,0,0:0:0:0:
256,192,115140,1,0,0:0:0:0:
256,192,115232,1,0,0:0:0:0:
256,192,115323,1,2,0:0:0:0:
256,192,115689,1,0,0:0:0:0:
256,192,115780,1,0,0:0:0:0:
256,192,115872,1,2,0:0:0:0:
256,192,116055,1,2,0:0:0:0:
256,192,116146,1,2,0:0:0:0:
256,192,116238,1,0,0:0:0:0:
256,192,116421,1,0,0:0:0:0:
256,192,116512,1,2,0:0:0:0:
256,192,116603,1,2,0:0:0:0:
256,192,116786,1,2,0:0:0:0:
256,192,116878,1,2,0:0:0:0:
256,192,116969,1,0,0:0:0:0:
256,192,117152,1,6,0:0:0:0:
256,192,117518,1,6,0:0:0:0:
256,192,117884,1,2,0:0:0:0:
256,192,117975,1,0,0:0:0:0:
256,192,118067,1,2,0:0:0:0:
256,192,118159,1,2,0:0:0:0:
256,192,118250,1,0,0:0:0:0:
256,192,118342,1,2,0:0:0:0:
256,192,118433,1,0,0:0:0:0:
256,192,118525,1,0,0:0:0:0:
256,192,118616,1,2,0:0:0:0:
256,192,118707,1,0,0:0:0:0:
256,192,118798,1,2,0:0:0:0:
256,192,118890,1,2,0:0:0:0:
256,192,118982,1,2,0:0:0:0:
256,192,119073,1,0,0:0:0:0:
256,192,119164,1,2,0:0:0:0:
256,192,119256,1,2,0:0:0:0:
256,192,119347,1,0,0:0:0:0:
256,192,119439,1,0,0:0:0:0:
256,192,119530,1,2,0:0:0:0:
256,192,119621,1,0,0:0:0:0:
256,192,119713,1,0,0:0:0:0:
256,192,119805,1,0,0:0:0:0:
256,192,119896,1,2,0:0:0:0:
256,192,120079,1,2,0:0:0:0:
256,192,120171,1,2,0:0:0:0:
256,192,120262,1,0,0:0:0:0:
256,192,120445,1,2,0:0:0:0:
256,192,120811,1,2,0:0:0:0:
256,192,120902,1,0,0:0:0:0:
256,192,120994,1,0,0:0:0:0:
256,192,121086,1,2,0:0:0:0:
256,192,121177,1,0,0:0:0:0:
256,192,121269,1,0,0:0:0:0:
256,192,121360,1,2,0:0:0:0:
256,192,121452,1,2,0:0:0:0:
256,192,121543,1,2,0:0:0:0:
256,192,121634,1,0,0:0:0:0:
256,192,121725,1,2,0:0:0:0:
256,192,121908,1,0,0:0:0:0:
256,192,122091,1,0,0:0:0:0:
256,192,122274,1,2,0:0:0:0:
256,192,122366,1,0,0:0:0:0:
256,192,122457,1,2,0:0:0:0:
256,192,122549,1,0,0:0:0:0:
256,192,122640,1,0,0:0:0:0:
256,192,122823,1,2,0:0:0:0:
256,192,123006,1,2,0:0:0:0:
256,192,123098,1,2,0:0:0:0:
256,192,123189,1,0,0:0:0:0:
256,192,123372,1,2,0:0:0:0:
256,192,123464,1,2,0:0:0:0:
256,192,123555,1,0,0:0:0:0:
256,192,123737,1,6,0:0:0:0:
256,192,124104,5,0,0:0:0:0:
256,192,124287,1,0,0:0:0:0:
256,192,124470,1,2,0:0:0:0:
256,192,124653,1,0,0:0:0:0:
256,192,124836,1,2,0:0:0:0:
256,192,125019,1,0,0:0:0:0:
256,192,125202,1,2,0:0:0:0:
256,192,125384,1,0,0:0:0:0:
256,192,125567,1,0,0:0:0:0:
256,192,125750,1,2,0:0:0:0:
256,192,125842,5,0,0:0:0:0:
256,192,125933,1,0,0:0:0:0:
256,192,126025,1,0,0:0:0:0:
256,192,126116,1,2,0:0:0:0:
256,192,126208,1,0,0:0:0:0:
256,192,126299,1,2,0:0:0:0:
256,192,126391,1,0,0:0:0:0:
256,192,126482,1,2,0:0:0:0:
256,192,126574,1,2,0:0:0:0:
256,192,126665,1,0,0:0:0:0:
256,192,126847,5,2,0:0:0:0:
256,192,126939,1,0,0:0:0:0:
256,192,127030,1,0,0:0:0:0:
256,192,127213,1,0,0:0:0:0:
256,192,127304,1,0,0:0:0:0:
256,192,127396,1,2,0:0:0:0:
256,192,127487,1,2,0:0:0:0:
256,192,127579,1,0,0:0:0:0:
256,192,127762,1,0,0:0:0:0:
256,192,127853,1,0,0:0:0:0:
256,192,127945,1,2,0:0:0:0:
256,192,128036,1,0,0:0:0:0:
256,192,128128,1,0,0:0:0:0:
256,192,128219,1,2,0:0:0:0:
256,192,128310,1,2,0:0:0:0:
256,192,128402,1,2,0:0:0:0:
256,192,128493,1,0,0:0:0:0:
256,176,128585,1,2,0:0:0:0:
256,192,128676,1,0,0:0:0:0:
256,192,128859,1,2,0:0:0:0:
256,192,128951,1,0,0:0:0:0:
256,192,129042,1,0,0:0:0:0:
256,192,129134,1,2,0:0:0:0:
256,192,129225,1,0,0:0:0:0:
256,192,129317,1,2,0:0:0:0:
256,192,129408,1,2,0:0:0:0:
256,192,129500,1,0,0:0:0:0:
256,192,129591,1,2,0:0:0:0:
256,192,129682,1,0,0:0:0:0:
256,192,129774,1,2,0:0:0:0:
256,192,129865,1,0,0:0:0:0:
256,192,129957,1,2,0:0:0:0:
256,192,130048,1,2,0:0:0:0:
256,192,130140,1,0,0:0:0:0:
256,192,130231,1,0,0:0:0:0:
256,192,130506,1,2,0:0:0:0:
256,192,130597,1,2,0:0:0:0:
256,192,130689,1,0,0:0:0:0:
256,192,130780,1,2,0:0:0:0:
256,192,130871,1,0,0:0:0:0:
256,192,130963,1,0,0:0:0:0:
256,192,131054,1,2,0:0:0:0:
256,192,131146,1,0,0:0:0:0:
256,192,131237,1,2,0:0:0:0:
256,192,131329,1,0,0:0:0:0:
256,192,131603,1,2,0:0:0:0:
256,192,131695,1,2,0:0:0:0:
256,192,131786,1,0,0:0:0:0:
256,192,131878,1,2,0:0:0:0:
256,192,131969,1,0,0:0:0:0:
256,192,132060,1,2,0:0:0:0:
256,192,132152,1,0,0:0:0:0:
256,192,132243,1,0,0:0:0:0:
256,192,132335,1,2,0:0:0:0:
256,192,132426,1,0,0:0:0:0:
256,192,132518,1,0,0:0:0:0:
256,192,132609,1,2,0:0:0:0:
256,192,132701,1,0,0:0:0:0:
256,192,132792,1,2,0:0:0:0:
256,192,132884,1,2,0:0:0:0:
256,192,132975,1,0,0:0:0:0:
256,192,133250,1,6,0:0:0:0:
256,192,133524,1,4,0:0:0:0:
256,192,133798,1,4,0:0:0:0:
256,192,134347,1,2,0:0:0:0:
256,192,134621,1,0,0:0:0:0:
256,192,134713,1,0,0:0:0:0:
256,192,134804,1,0,0:0:0:0:
256,192,134896,1,2,0:0:0:0:
256,192,134987,1,0,0:0:0:0:
256,192,135079,1,2,0:0:0:0:
256,192,135170,1,2,0:0:0:0:
256,192,135262,1,0,0:0:0:0:
256,192,135353,1,0,0:0:0:0:
256,192,135445,1,0,0:0:0:0:
256,192,135628,1,0,0:0:0:0:
256,192,135810,1,2,0:0:0:0:
256,192,135993,1,0,0:0:0:0:
256,192,136176,1,2,0:0:0:0:
256,192,136359,1,0,0:0:0:0:
256,192,136542,1,2,0:0:0:0:
256,192,136725,1,0,0:0:0:0:
256,192,136908,1,2,0:0:0:0:
256,192,137091,1,2,0:0:0:0:
256,192,137274,1,0,0:0:0:0:
256,192,137457,1,2,0:0:0:0:
256,192,137640,1,0,0:0:0:0:
256,192,137823,1,0,0:0:0:0:
256,192,138006,1,2,0:0:0:0:
256,192,138189,1,0,0:0:0:0:
256,192,138554,1,0,0:0:0:0:
256,192,138737,1,2,0:0:0:0:
256,192,138920,1,0,0:0:0:0:
256,192,139103,1,2,0:0:0:0:
256,192,139286,1,0,0:0:0:0:
256,192,139469,1,2,0:0:0:0:
256,192,139652,1,0,0:0:0:0:
256,192,139835,1,2,0:0:0:0:
256,192,140018,1,2,0:0:0:0:
256,192,140201,1,0,0:0:0:0:
256,192,140384,1,2,0:0:0:0:
256,192,140567,1,0,0:0:0:0:
256,192,140750,1,0,0:0:0:0:
256,192,140932,1,2,0:0:0:0:
256,192,141115,1,2,0:0:0:0:
256,192,141481,1,2,0:0:0:0:
256,192,141847,1,0,0:0:0:0:
256,192,142213,1,0,0:0:0:0:
256,192,142579,1,2,0:0:0:0:
256,192,142945,1,0,0:0:0:0:
256,192,143310,1,0,0:0:0:0:
256,192,143493,1,0,0:0:0:0:
256,192,143585,1,0,0:0:0:0:
256,192,143676,1,0,0:0:0:0:
256,192,143768,1,2,0:0:0:0:
256,192,143859,1,0,0:0:0:0:
256,192,143951,1,2,0:0:0:0:
256,192,144042,1,0,0:0:0:0:
256,192,144134,1,0,0:0:0:0:
256,192,144225,1,2,0:0:0:0:
256,192,144408,1,0,0:0:0:0:
256,192,144591,1,0,0:0:0:0:
256,192,144774,1,2,0:0:0:0:
256,192,144957,1,0,0:0:0:0:
256,192,145048,1,2,0:0:0:0:
256,192,145140,1,0,0:0:0:0:
256,192,145323,1,0,0:0:0:0:
256,192,145506,1,2,0:0:0:0:
256,192,145597,1,2,0:0:0:0:
256,192,145689,1,0,0:0:0:0:
256,192,147884,1,2,0:0:0:0:
256,192,147975,1,0,0:0:0:0:
256,192,148067,1,2,0:0:0:0:
256,192,148159,1,2,0:0:0:0:
256,192,148250,1,0,0:0:0:0:
256,192,148341,1,0,0:0:0:0:
256,192,148432,1,0,0:0:0:0:
256,192,148524,1,0,0:0:0:0:
256,192,148615,1,2,0:0:0:0:
256,192,148707,1,0,0:0:0:0:
256,192,148798,1,0,0:0:0:0:
256,192,148890,1,0,0:0:0:0:
256,192,148981,1,2,0:0:0:0:
256,192,149073,1,0,0:0:0:0:
256,192,149164,1,2,0:0:0:0:
256,192,149256,1,0,0:0:0:0:
256,192,149347,1,0,0:0:0:0:
256,192,149439,1,2,0:0:0:0:
256,192,149530,1,2,0:0:0:0:
256,192,149621,1,0,0:0:0:0:
256,192,149713,1,0,0:0:0:0:
256,192,149805,1,0,0:0:0:0:
256,192,149896,1,2,0:0:0:0:
256,192,149988,1,2,0:0:0:0:
256,192,150079,1,0,0:0:0:0:
256,192,150171,1,2,0:0:0:0:
256,192,150262,1,0,0:0:0:0:
256,192,150354,1,0,0:0:0:0:
256,192,150445,1,2,0:0:0:0:
256,192,150810,1,0,0:0:0:0:
256,192,150902,1,2,0:0:0:0:
256,192,150994,1,0,0:0:0:0:
256,192,151085,1,0,0:0:0:0:
256,192,151176,1,2,0:0:0:0:
256,192,151268,1,0,0:0:0:0:
256,192,151359,1,2,0:0:0:0:
256,192,151451,1,2,0:0:0:0:
256,192,151542,1,2,0:0:0:0:
256,192,151634,1,0,0:0:0:0:
256,192,151725,1,2,0:0:0:0:
256,192,151908,1,0,0:0:0:0:
256,192,152091,1,0,0:0:0:0:
256,192,152274,1,2,0:0:0:0:
256,192,152365,1,0,0:0:0:0:
256,192,152457,1,2,0:0:0:0:
256,192,152548,1,0,0:0:0:0:
256,192,152640,1,0,0:0:0:0:
256,192,152823,1,2,0:0:0:0:
256,192,152914,1,0,0:0:0:0:
256,192,153006,1,2,0:0:0:0:
256,192,153098,1,0,0:0:0:0:
256,192,153189,1,0,0:0:0:0:
256,192,153281,1,0,0:0:0:0:
256,192,153372,1,2,0:0:0:0:
256,192,153737,1,0,0:0:0:0:
256,192,153829,1,0,0:0:0:0:
256,192,153920,1,0,0:0:0:0:
256,192,154103,1,2,0:0:0:0:
256,192,154286,1,0,0:0:0:0:
256,192,154469,1,2,0:0:0:0:
256,192,154835,1,2,0:0:0:0:
256,192,154926,1,2,0:0:0:0:
256,192,155018,1,0,0:0:0:0:
256,192,155201,1,0,0:0:0:0:
256,192,155384,1,0,0:0:0:0:
256,192,155475,1,0,0:0:0:0:
256,192,155567,1,0,0:0:0:0:
256,192,155750,1,2,0:0:0:0:
256,192,155841,1,2,0:0:0:0:
256,192,155932,1,0,0:0:0:0:
256,192,156115,1,0,0:0:0:0:
256,192,156298,1,2,0:0:0:0:
256,192,156481,1,0,0:0:0:0:
256,192,156847,1,0,0:0:0:0:
256,192,156939,1,0,0:0:0:0:
256,192,157030,1,2,0:0:0:0:
256,192,157396,1,0,0:0:0:0:
256,192,157487,1,0,0:0:0:0:
256,192,157579,1,2,0:0:0:0:
256,192,157762,1,2,0:0:0:0:
256,192,157853,1,2,0:0:0:0:
256,192,157945,1,0,0:0:0:0:
256,192,158128,1,0,0:0:0:0:
256,192,158219,1,2,0:0:0:0:
256,192,158310,1,2,0:0:0:0:
256,192,158493,1,2,0:0:0:0:
256,192,158585,1,2,0:0:0:0:
256,192,158676,1,0,0:0:0:0:
256,192,158859,1,6,0:0:0:0:
256,192,159225,1,6,0:0:0:0:
256,192,159591,1,2,0:0:0:0:
256,192,159682,1,0,0:0:0:0:
256,192,159774,1,2,0:0:0:0:
256,192,159866,1,2,0:0:0:0:
256,192,159957,1,0,0:0:0:0:
256,192,160049,1,2,0:0:0:0:
256,192,160140,1,0,0:0:0:0:
256,192,160232,1,0,0:0:0:0:
256,192,160323,1,2,0:0:0:0:
256,192,160689,1,2,0:0:0:0:
256,192,160780,1,0,0:0:0:0:
256,192,160871,1,2,0:0:0:0:
256,192,161054,1,0,0:0:0:0:
256,192,161146,1,0,0:0:0:0:
256,192,161237,1,2,0:0:0:0:
256,192,161420,1,0,0:0:0:0:
256,192,161512,1,0,0:0:0:0:
256,192,161603,1,2,0:0:0:0:
256,192,161695,1,0,0:0:0:0:
256,192,161786,1,2,0:0:0:0:
256,192,161878,1,2,0:0:0:0:
256,192,161969,1,0,0:0:0:0:
256,192,162061,1,0,0:0:0:0:
256,192,162152,1,2,0:0:0:0:
256,192,162518,1,2,0:0:0:0:
256,192,162609,1,0,0:0:0:0:
256,192,162701,1,0,0:0:0:0:
256,192,162793,1,2,0:0:0:0:
256,192,162884,1,0,0:0:0:0:
256,192,162976,1,0,0:0:0:0:
256,192,163067,1,2,0:0:0:0:
256,192,163159,1,2,0:0:0:0:
256,192,163250,1,2,0:0:0:0:
256,192,163341,1,0,0:0:0:0:
256,192,163432,1,2,0:0:0:0:
256,192,163615,1,0,0:0:0:0:
256,192,163798,1,0,0:0:0:0:
256,192,163981,1,2,0:0:0:0:
256,192,164073,1,0,0:0:0:0:
256,192,164164,1,2,0:0:0:0:
256,192,164256,1,0,0:0:0:0:
256,192,164347,1,0,0:0:0:0:
256,192,164530,1,2,0:0:0:0:
256,192,164713,1,2,0:0:0:0:
256,192,164805,1,2,0:0:0:0:
256,192,164896,1,0,0:0:0:0:
256,192,165079,1,2,0:0:0:0:
256,192,165171,1,2,0:0:0:0:
256,192,165262,1,0,0:0:0:0:
256,192,165445,1,6,0:0:0:0:
256,192,165810,5,0,0:0:0:0:
256,192,165811,5,0,0:0:0:0:
256,192,165994,1,0,0:0:0:0:
256,192,166176,1,2,0:0:0:0:
256,192,166360,1,0,0:0:0:0:
256,192,166543,1,2,0:0:0:0:
256,192,166725,1,0,0:0:0:0:
256,192,166817,1,0,0:0:0:0:
256,192,166909,1,2,0:0:0:0:
256,192,167091,1,2,0:0:0:0:
256,192,167274,1,0,0:0:0:0:
256,192,167457,1,2,0:0:0:0:
256,192,167549,1,0,0:0:0:0:
256,192,167640,1,0,0:0:0:0:
256,192,167731,1,0,0:0:0:0:
256,192,167823,1,2,0:0:0:0:
256,192,167915,1,0,0:0:0:0:
256,192,168006,1,2,0:0:0:0:
256,192,168098,1,0,0:0:0:0:
256,192,168189,1,2,0:0:0:0:
256,192,168280,1,2,0:0:0:0:
256,192,168371,1,0,0:0:0:0:
256,192,168554,1,2,0:0:0:0:
256,192,168737,1,0,0:0:0:0:
256,192,168920,1,2,0:0:0:0:
256,192,169012,1,0,0:0:0:0:
256,192,169103,1,2,0:0:0:0:
256,192,169286,1,0,0:0:0:0:
256,192,169469,1,2,0:0:0:0:
256,192,169652,1,0,0:0:0:0:
256,192,169743,1,0,0:0:0:0:
256,192,169835,1,0,0:0:0:0:
256,192,170018,1,0,0:0:0:0:
256,192,170201,1,2,0:0:0:0:
256,192,170384,1,2,0:0:0:0:
256,192,170475,1,0,0:0:0:0:
256,192,170567,1,0,0:0:0:0:
256,192,170750,1,2,0:0:0:0:
256,192,170932,1,2,0:0:0:0:
256,192,171115,1,2,0:0:0:0:
256,192,171207,1,0,0:0:0:0:
256,192,171298,1,2,0:0:0:0:
256,192,171390,1,2,0:0:0:0:
256,192,171481,1,2,0:0:0:0:
256,192,171573,1,0,0:0:0:0:
256,192,171664,1,2,0:0:0:0:
256,192,171756,1,2,0:0:0:0:
256,192,171847,1,2,0:0:0:0:
256,192,171939,1,2,0:0:0:0:
256,192,172030,1,0,0:0:0:0:
256,192,172121,1,0,0:0:0:0:
256,192,172213,1,2,0:0:0:0:
256,192,172304,1,2,0:0:0:0:
256,192,172396,1,0,0:0:0:0:
256,192,172487,1,0,0:0:0:0:
256,192,172579,1,2,0:0:0:0:
256,192,172670,1,0,0:0:0:0:
256,192,172762,1,2,0:0:0:0:
256,192,172853,1,2,0:0:0:0:
256,192,172945,1,2,0:0:0:0:
256,192,173036,1,0,0:0:0:0:
256,192,173128,1,2,0:0:0:0:
256,192,173219,1,2,0:0:0:0:
256,192,173310,1,0,0:0:0:0:
256,192,173402,1,0,0:0:0:0:
256,192,173493,1,2,0:0:0:0:
256,192,173585,1,0,0:0:0:0:
256,192,173676,1,2,0:0:0:0:
256,192,173768,1,0,0:0:0:0:
256,192,173859,1,2,0:0:0:0:
256,192,173951,1,0,0:0:0:0:
256,192,174042,1,2,0:0:0:0:
256,192,174134,1,2,0:0:0:0:
256,192,174225,1,2,0:0:0:0:
256,192,174317,1,0,0:0:0:0:
256,192,174408,1,2,0:0:0:0:
256,192,174500,1,2,0:0:0:0:
256,192,174591,1,2,0:0:0:0:
256,192,174682,1,2,0:0:0:0:
256,192,174774,1,0,0:0:0:0:
256,192,174865,1,0,0:0:0:0:
256,192,174957,1,2,0:0:0:0:
256,192,175048,1,2,0:0:0:0:
256,192,175140,1,0,0:0:0:0:
256,192,175231,1,0,0:0:0:0:
256,192,175323,1,2,0:0:0:0:
256,192,175414,1,0,0:0:0:0:
256,192,175506,1,2,0:0:0:0:
256,192,175597,1,2,0:0:0:0:
256,192,175689,1,2,0:0:0:0:
256,192,175780,1,0,0:0:0:0:
256,192,175871,1,2,0:0:0:0:
256,192,175963,1,2,0:0:0:0:
256,192,176054,1,0,0:0:0:0:
256,192,176146,1,0,0:0:0:0:
256,192,176237,1,2,0:0:0:0:
256,192,176329,1,0,0:0:0:0:
256,192,176420,1,2,0:0:0:0:
256,192,176512,1,0,0:0:0:0:
256,192,176603,1,2,0:0:0:0:
256,192,176786,1,2,0:0:0:0:
256,192,176969,1,0,0:0:0:0:
256,192,177152,1,2,0:0:0:0:
256,192,177243,1,2,0:0:0:0:
256,192,177335,1,2,0:0:0:0:
256,192,177426,1,0,0:0:0:0:
256,192,177518,1,2,0:0:0:0:
256,192,177609,1,2,0:0:0:0:
256,192,177701,1,2,0:0:0:0:
256,192,177792,1,2,0:0:0:0:
256,192,177884,1,0,0:0:0:0:
256,192,177975,1,0,0:0:0:0:
256,192,178067,1,2,0:0:0:0:
256,192,178158,1,2,0:0:0:0:
256,192,178250,1,2,0:0:0:0:
256,192,178341,1,0,0:0:0:0:
256,192,178432,1,2,0:0:0:0:
256,192,178524,1,0,0:0:0:0:
256,192,178615,1,2,0:0:0:0:
256,192,178707,1,2,0:0:0:0:
256,192,178798,1,2,0:0:0:0:
256,192,178890,1,0,0:0:0:0:
256,192,178981,1,2,0:0:0:0:
256,192,179073,1,2,0:0:0:0:
256,192,179164,1,0,0:0:0:0:
256,192,179256,1,0,0:0:0:0:
256,192,179347,1,2,0:0:0:0:
256,192,179713,1,2,0:0:0:0:
256,192,179804,1,0,0:0:0:0:
256,192,179896,1,2,0:0:0:0:
256,192,179987,1,2,0:0:0:0:
256,192,180079,1,2,0:0:0:0:
256,192,180170,1,0,0:0:0:0:
256,192,180262,1,2,0:0:0:0:
256,192,180353,1,2,0:0:0:0:
256,192,180445,1,2,0:0:0:0:
256,192,180536,1,2,0:0:0:0:
256,192,180628,1,0,0:0:0:0:
256,192,180719,1,0,0:0:0:0:
256,192,180810,1,2,0:0:0:0:
256,192,180902,1,2,0:0:0:0:
256,192,180993,1,0,0:0:0:0:
256,192,181085,1,0,0:0:0:0:
256,192,181176,1,2,0:0:0:0:
256,192,181268,1,0,0:0:0:0:
256,192,181359,1,2,0:0:0:0:
256,192,181451,1,2,0:0:0:0:
256,192,181542,1,2,0:0:0:0:
256,192,181634,1,0,0:0:0:0:
256,192,181725,1,2,0:0:0:0:
256,192,181817,1,2,0:0:0:0:
256,192,181908,1,0,0:0:0:0:
256,192,182000,1,0,0:0:0:0:
256,192,182091,1,2,0:0:0:0:
256,192,182182,1,0,0:0:0:0:
256,192,182274,1,2,0:0:0:0:
256,192,182365,1,0,0:0:0:0:
256,192,182457,1,2,0:0:0:0:
256,192,182640,1,0,0:0:0:0:
256,192,182731,1,2,0:0:0:0:
256,192,182823,1,0,0:0:0:0:
256,192,182914,1,0,0:0:0:0:
256,192,183006,1,2,0:0:0:0:
256,192,183097,1,2,0:0:0:0:
256,192,183189,1,2,0:0:0:0:
256,192,183280,1,0,0:0:0:0:
256,192,183371,1,2,0:0:0:0:
256,192,183463,1,2,0:0:0:0:
256,192,183554,1,2,0:0:0:0:
256,192,183646,1,2,0:0:0:0:
256,192,183737,1,0,0:0:0:0:
256,192,183829,1,0,0:0:0:0:
256,192,183920,1,2,0:0:0:0:
256,192,184012,1,2,0:0:0:0:
256,192,184103,1,0,0:0:0:0:
256,192,184195,1,0,0:0:0:0:
256,192,184286,1,2,0:0:0:0:
256,192,184378,1,0,0:0:0:0:
256,192,184469,1,2,0:0:0:0:
256,192,184560,1,2,0:0:0:0:
256,192,184652,1,2,0:0:0:0:
256,192,184743,1,0,0:0:0:0:
256,192,184835,1,2,0:0:0:0:
256,192,184926,1,2,0:0:0:0:
256,192,185018,1,0,0:0:0:0:
256,192,185109,1,0,0:0:0:0:
256,192,185201,1,2,0:0:0:0:
256,192,185292,1,0,0:0:0:0:
256,192,185384,1,2,0:0:0:0:
256,192,185475,1,0,0:0:0:0:
256,192,185567,1,2,0:0:0:0:
256,192,185658,1,0,0:0:0:0:
256,192,185750,1,2,0:0:0:0:
256,192,185841,1,2,0:0:0:0:
256,192,185932,1,2,0:0:0:0:
256,192,186024,1,0,0:0:0:0:
256,192,186115,1,2,0:0:0:0:
256,192,186207,1,2,0:0:0:0:
256,192,186298,1,2,0:0:0:0:
256,192,186390,1,2,0:0:0:0:
256,192,186481,1,0,0:0:0:0:
256,192,186573,1,0,0:0:0:0:
256,192,186664,1,2,0:0:0:0:
256,192,186756,1,2,0:0:0:0:
256,192,186847,1,0,0:0:0:0:
256,192,186939,1,0,0:0:0:0:
256,192,187030,1,2,0:0:0:0:
256,192,187121,1,0,0:0:0:0:
256,192,187213,1,2,0:0:0:0:
256,192,187304,1,2,0:0:0:0:
256,192,187396,1,2,0:0:0:0:
256,192,187487,1,0,0:0:0:0:
256,192,187579,1,2,0:0:0:0:
256,192,187670,1,2,0:0:0:0:
256,192,187762,1,0,0:0:0:0:
256,192,187853,1,0,0:0:0:0:
256,192,187945,1,2,0:0:0:0:
256,192,188036,1,0,0:0:0:0:
256,192,188128,1,2,0:0:0:0:
256,192,188219,1,0,0:0:0:0:
256,192,188310,1,2,0:0:0:0:
256,192,188493,1,0,0:0:0:0:
256,192,188676,1,0,0:0:0:0:
256,192,188859,1,2,0:0:0:0:
256,192,188951,1,2,0:0:0:0:
256,192,189042,1,2,0:0:0:0:
256,192,189134,1,0,0:0:0:0:
256,192,189225,1,2,0:0:0:0:
256,192,189317,1,2,0:0:0:0:
256,192,189408,1,2,0:0:0:0:
256,192,189500,1,2,0:0:0:0:
256,192,189591,1,0,0:0:0:0:
256,192,189682,1,0,0:0:0:0:
256,192,189774,1,2,0:0:0:0:
256,192,189865,1,2,0:0:0:0:
256,192,189957,1,2,0:0:0:0:
256,192,190048,1,0,0:0:0:0:
256,192,190140,1,2,0:0:0:0:
256,192,190231,1,0,0:0:0:0:
256,192,190323,1,2,0:0:0:0:
256,192,190414,1,2,0:0:0:0:
256,192,190506,1,2,0:0:0:0:
256,192,190597,1,0,0:0:0:0:
256,192,190689,1,2,0:0:0:0:
256,192,190780,1,2,0:0:0:0:
256,192,190871,1,0,0:0:0:0:
256,192,190963,1,0,0:0:0:0:
256,192,191054,1,2,0:0:0:0:
256,192,191146,1,2,0:0:0:0:
256,192,191237,1,0,0:0:0:0:
256,192,191329,1,2,0:0:0:0:
256,192,191420,1,2,0:0:0:0:
256,192,191512,1,0,0:0:0:0:
256,192,191603,1,2,0:0:0:0:
256,192,191695,1,2,0:0:0:0:
256,192,191786,1,2,0:0:0:0:
256,192,191878,1,0,0:0:0:0:
256,192,191969,1,2,0:0:0:0:
256,192,192060,1,2,0:0:0:0:
256,192,192152,1,2,0:0:0:0:
256,192,192243,1,2,0:0:0:0:
256,192,192335,1,0,0:0:0:0:
256,192,192426,1,0,0:0:0:0:
256,192,192518,1,2,0:0:0:0:
256,192,192609,1,2,0:0:0:0:
256,192,192701,1,0,0:0:0:0:
256,192,192792,1,0,0:0:0:0:
256,192,192884,1,2,0:0:0:0:
256,192,192975,1,0,0:0:0:0:
256,192,193067,1,2,0:0:0:0:
256,192,193158,1,0,0:0:0:0:
256,192,193250,1,2,0:0:0:0:
256,192,193341,1,0,0:0:0:0:
256,192,193432,1,2,0:0:0:0:
256,192,193524,1,2,0:0:0:0:
256,192,193615,1,0,0:0:0:0:
256,192,193707,1,0,0:0:0:0:
256,192,193798,1,2,0:0:0:0:
256,192,193890,1,0,0:0:0:0:
256,192,193981,1,2,0:0:0:0:
256,192,194073,1,0,0:0:0:0:
256,192,194164,1,2,0:0:0:0:
256,192,194256,1,2,0:0:0:0:
256,192,194347,1,0,0:0:0:0:
256,192,194439,1,2,0:0:0:0:
256,192,194530,1,0,0:0:0:0:
256,192,194621,1,2,0:0:0:0:
256,192,194713,1,2,0:0:0:0:
256,192,194774,1,2,0:0:0:0:
256,192,194835,1,2,0:0:0:0:
256,192,194896,1,2,0:0:0:0:
