osu file format v14

[General]
AudioFilename: audio.mp3
AudioLeadIn: 0
PreviewTime: -1
Countdown: 0
SampleSet: Normal
StackLeniency: 1
Mode: 1
LetterboxInBreaks: 0
WidescreenStoryboard: 1

[Editor]
DistanceSpacing: 1
BeatDivisor: 4
GridSize: 16
TimelineZoom: 1

[Metadata]
Title:MONSTER
TitleUnicode:MONSTER
Artist:Reol
ArtistUnicode:Reol
Creator:Raichu69
Version:Muzukashii
Source:
Tags:
BeatmapID:1284732
BeatmapSetID:604938

[Difficulty]
HPDrainRate:5
CircleSize:5
OverallDifficulty:5
ApproachRate:5
SliderMultiplier:1.4
SliderTickRate:1

[Events]
//Background and Video events
0,0,"14.jpg",0,0
//Break Periods
//Storyboard Layer 0 (Background)
//Storyboard Layer 1 (Fail)
//Storyboard Layer 2 (Pass)
//Storyboard Layer 3 (Foreground)
//Storyboard Layer 4 (Overlay)
//Storyboard Sound Samples

[TimingPoints]
811,365.853658536585,4,1,0,70,1,0
11786,-80,4,1,0,70,0,0
23859,-66.6666666666667,4,1,0,70,0,0
24591,-100,4,1,0,70,0,0
34469,-80,4,1,0,70,0,0
78371,-100,4,1,0,40,0,0
80932,-66.6666666666667,4,1,0,70,0,0
81664,-100,4,1,0,70,0,0
91542,-100,4,1,0,40,0,0
93006,-80,4,1,0,70,0,0
106176,-66.6666666666667,4,1,0,70,0,0
135628,-100,4,1,0,70,0,0
147884,-66.6666666666667,4,1,0,70,0,0

[HitObjects]
256,192,810,5,0,0:0:0:0:
256,192,1359,1,2,0:0:0:0:
256,192,1908,1,0,0:0:0:0:
256,192,2091,1,0,0:0:0:0:
256,192,2457,1,2,0:0:0:0:
256,192,3006,1,2,0:0:0:0:
256,192,3371,1,0,0:0:0:0:
256,192,3737,1,0,0:0:0:0:
256,192,4286,1,2,0:0:0:0:
256,192,5018,1,6,0:0:0:0:
256,192,6664,1,0,0:0:0:0:
256,192,7213,1,2,0:0:0:0:
256,192,7762,1,2,0:0:0:0:
256,192,7945,1,2,0:0:0:0:
256,192,8311,1,2,0:0:0:0:
256,192,8859,1,2,0:0:0:0:
256,192,9225,1,0,0:0:0:0:
256,192,9591,1,2,0:0:0:0:
256,192,10140,1,2,0:0:0:0:
256,192,10871,1,6,0:0:0:0:
256,192,11786,12,2,12518,0:0:0:0:
256,192,12701,5,0,0:0:0:0:
256,192,12884,1,2,0:0:0:0:
256,192,13067,1,0,0:0:0:0:
256,192,13250,1,2,0:0:0:0:
256,192,13432,1,2,0:0:0:0:
256,192,13615,1,2,0:0:0:0:
256,192,13798,1,0,0:0:0:0:
256,192,13981,1,2,0:0:0:0:
256,192,14164,1,0,0:0:0:0:
256,192,14347,1,2,0:0:0:0:
256,192,14530,1,0,0:0:0:0:
256,192,14713,1,2,0:0:0:0:
256,192,14896,1,0,0:0:0:0:
256,192,15079,1,0,0:0:0:0:
256,192,15262,1,0,0:0:0:0:
256,192,15445,1,2,0:0:0:0:
256,192,15628,1,0,0:0:0:0:
256,192,15811,1,2,0:0:0:0:
256,192,15993,1,2,0:0:0:0:
256,192,16176,1,2,0:0:0:0:
256,192,16359,1,0,0:0:0:0:
256,192,16542,1,2,0:0:0:0:
256,192,16725,1,2,0:0:0:0:
256,192,16908,1,0,0:0:0:0:
256,192,17091,1,2,0:0:0:0:
256,192,17274,1,2,0:0:0:0:
256,192,17457,1,0,0:0:0:0:
256,192,17640,1,2,0:0:0:0:
256,192,17823,1,0,0:0:0:0:
256,192,18006,1,2,0:0:0:0:
256,192,18188,1,0,0:0:0:0:
256,192,18279,1,2,0:0:0:0:
256,192,18371,1,2,0:0:0:0:
256,192,18554,1,0,0:0:0:0:
256,192,18737,1,2,0:0:0:0:
256,192,18920,1,2,0:0:0:0:
256,192,19103,1,0,0:0:0:0:
256,192,19286,1,2,0:0:0:0:
256,192,19469,1,0,0:0:0:0:
256,192,19652,1,2,0:0:0:0:
256,192,19835,1,0,0:0:0:0:
256,192,20018,1,0,0:0:0:0:
256,192,20201,1,2,0:0:0:0:
256,192,20384,1,2,0:0:0:0:
256,192,20567,1,0,0:0:0:0:
256,192,20750,1,2,0:0:0:0:
256,192,20932,1,0,0:0:0:0:
256,192,21115,1,0,0:0:0:0:
256,192,21298,1,0,0:0:0:0:
256,192,21481,1,2,0:0:0:0:
256,192,21664,1,0,0:0:0:0:
256,192,21847,1,2,0:0:0:0:
256,192,22030,1,2,0:0:0:0:
256,192,22213,1,2,0:0:0:0:
256,192,22396,1,0,0:0:0:0:
256,192,22579,1,2,0:0:0:0:
256,192,22762,5,2,0:0:0:0:
256,192,22945,1,0,0:0:0:0:
256,192,23128,1,2,0:0:0:0:
256,192,23311,1,2,0:0:0:0:
256,192,23493,1,0,0:0:0:0:
256,192,23676,1,2,0:0:0:0:
160,192,23859,6,2,L|416:192,1,210.000008010865
256,192,24591,1,0,0:0:0:0:
256,192,24957,1,2,0:0:0:0:
256,192,25323,1,2,0:0:0:0:
256,192,25689,1,0,0:0:0:0:
256,192,26054,1,2,0:0:0:0:
256,192,26420,1,0,0:0:0:0:
256,192,26786,1,0,0:0:0:0:
256,192,26969,1,2,0:0:0:0:
256,192,27518,1,2,0:0:0:0:
256,192,27884,1,0,0:0:0:0:
256,192,28250,1,0,0:0:0:0:
256,192,28615,1,2,0:0:0:0:
256,192,28981,1,0,0:0:0:0:
256,192,29347,1,2,0:0:0:0:
256,192,29713,1,0,0:0:0:0:
256,192,29896,1,2,0:0:0:0:
256,192,30445,1,0,0:0:0:0:
256,192,30810,1,2,0:0:0:0:
256,192,31176,1,0,0:0:0:0:
256,192,31359,1,2,0:0:0:0:
256,192,31542,1,0,0:0:0:0:
256,192,31908,1,2,0:0:0:0:
256,192,32091,1,0,0:0:0:0:
256,192,32457,1,0,0:0:0:0:
256,192,32640,1,2,0:0:0:0:
256,192,32823,1,0,0:0:0:0:
256,192,33006,1,2,0:0:0:0:
256,192,33371,1,2,0:0:0:0:
256,192,34103,1,0,0:0:0:0:
256,192,34286,1,2,0:0:0:0:
256,192,34469,12,0,35750,0:0:0:0:
256,192,35932,5,6,0:0:0:0:
256,192,36298,1,0,0:0:0:0:
256,192,36481,1,2,0:0:0:0:
256,192,36664,1,6,0:0:0:0:
256,192,37030,1,0,0:0:0:0:
256,192,37396,1,6,0:0:0:0:
256,192,37762,1,0,0:0:0:0:
256,192,37945,1,2,0:0:0:0:
256,192,38128,1,4,0:0:0:0:
256,192,38493,1,0,0:0:0:0:
256,192,38676,1,0,0:0:0:0:
256,192,38859,1,2,0:0:0:0:
256,192,39042,1,2,0:0:0:0:
256,192,39774,1,2,0:0:0:0:
256,192,39957,1,0,0:0:0:0:
256,192,40140,1,0,0:0:0:0:
256,192,40323,1,2,0:0:0:0:
256,192,40506,1,0,0:0:0:0:
256,192,40689,1,2,0:0:0:0:
256,192,40871,1,2,0:0:0:0:
256,192,41054,1,0,0:0:0:0:
256,192,41237,1,0,0:0:0:0:
256,192,41420,1,2,0:0:0:0:
256,192,41786,5,6,0:0:0:0:
256,192,42152,1,0,0:0:0:0:
256,192,42335,1,2,0:0:0:0:
256,192,42518,1,6,0:0:0:0:
256,192,42884,1,0,0:0:0:0:
256,192,43250,1,6,0:0:0:0:
256,192,43616,1,0,0:0:0:0:
256,192,43799,1,2,0:0:0:0:
256,192,43982,1,4,0:0:0:0:
256,192,44347,1,0,0:0:0:0:
256,192,44530,1,0,0:0:0:0:
256,192,44713,1,2,0:0:0:0:
256,192,44896,1,2,0:0:0:0:
256,192,45079,1,0,0:0:0:0:
256,192,45262,1,2,0:0:0:0:
256,192,45445,1,0,0:0:0:0:
256,192,45628,1,2,0:0:0:0:
256,192,45811,1,0,0:0:0:0:
256,192,45994,1,0,0:0:0:0:
256,192,46177,1,2,0:0:0:0:
256,192,46360,1,0,0:0:0:0:
256,192,46543,1,2,0:0:0:0:
256,192,46725,1,0,0:0:0:0:
256,192,46908,1,2,0:0:0:0:
256,192,47091,1,0,0:0:0:0:
256,192,47274,5,0,0:0:0:0:
256,192,47457,1,2,0:0:0:0:
256,192,48371,5,6,0:0:0:0:
256,192,48737,1,6,0:0:0:0:
256,192,49103,1,0,0:0:0:0:
256,192,49195,1,0,0:0:0:0:
256,192,49286,1,2,0:0:0:0:
256,192,49469,1,0,0:0:0:0:
256,192,49652,1,2,0:0:0:0:
256,192,49835,1,2,0:0:0:0:
256,192,49926,1,2,0:0:0:0:
256,192,50018,1,0,0:0:0:0:
256,192,50201,1,0,0:0:0:0:
256,192,50384,1,0,0:0:0:0:
256,192,50567,1,2,0:0:0:0:
256,192,50658,1,2,0:0:0:0:
256,192,50750,1,0,0:0:0:0:
256,192,50932,1,2,0:0:0:0:
256,192,51115,1,2,0:0:0:0:
256,192,51298,1,2,0:0:0:0:
256,192,51390,1,2,0:0:0:0:
256,192,51481,1,0,0:0:0:0:
256,192,51664,1,2,0:0:0:0:
256,192,52030,1,0,0:0:0:0:
256,192,52122,1,0,0:0:0:0:
256,192,52213,1,2,0:0:0:0:
256,192,52396,1,0,0:0:0:0:
256,192,52579,1,2,0:0:0:0:
256,192,52762,1,2,0:0:0:0:
256,192,52853,1,2,0:0:0:0:
256,192,52945,1,0,0:0:0:0:
256,192,53128,1,0,0:0:0:0:
256,192,53311,1,0,0:0:0:0:
256,192,53494,1,2,0:0:0:0:
256,192,53585,1,2,0:0:0:0:
256,192,53677,1,0,0:0:0:0:
256,192,53859,1,2,0:0:0:0:
256,192,54042,1,2,0:0:0:0:
256,192,54225,1,2,0:0:0:0:
256,192,54317,1,2,0:0:0:0:
256,192,54408,1,0,0:0:0:0:
256,192,54591,1,2,0:0:0:0:
256,192,54774,1,0,0:0:0:0:
256,192,54865,1,0,0:0:0:0:
256,192,54957,1,0,0:0:0:0:
256,192,55323,1,2,0:0:0:0:
256,192,55506,1,2,0:0:0:0:
256,192,55689,1,0,0:0:0:0:
256,192,56054,1,2,0:0:0:0:
256,192,56237,1,0,0:0:0:0:
256,192,56603,1,0,0:0:0:0:
256,192,56969,1,0,0:0:0:0:
256,192,57335,1,0,0:0:0:0:
256,192,57518,1,2,0:0:0:0:
256,192,57701,1,2,0:0:0:0:
256,192,58067,1,2,0:0:0:0:
256,192,58250,1,2,0:0:0:0:
256,192,58615,5,0,0:0:0:0:
256,192,58981,1,2,0:0:0:0:
256,192,59347,1,0,0:0:0:0:
256,192,59713,1,2,0:0:0:0:
256,192,60079,1,2,0:0:0:0:
256,192,60445,1,2,0:0:0:0:
256,192,60810,1,2,0:0:0:0:
256,192,60902,1,2,0:0:0:0:
256,192,60993,1,0,0:0:0:0:
256,192,61176,1,0,0:0:0:0:
256,192,61359,1,2,0:0:0:0:
256,192,61542,1,2,0:0:0:0:
256,192,61633,1,2,0:0:0:0:
256,192,61725,1,0,0:0:0:0:
256,192,61908,1,0,0:0:0:0:
256,192,62091,1,0,0:0:0:0:
256,192,62274,1,2,0:0:0:0:
256,192,62365,1,2,0:0:0:0:
256,192,62457,1,0,0:0:0:0:
256,192,62639,1,2,0:0:0:0:
256,192,62822,1,2,0:0:0:0:
256,192,63005,1,0,0:0:0:0:
256,192,63097,1,0,0:0:0:0:
256,192,63188,1,2,0:0:0:0:
256,192,63371,1,2,0:0:0:0:
256,192,63737,1,2,0:0:0:0:
256,192,63829,1,2,0:0:0:0:
256,192,63920,1,0,0:0:0:0:
256,192,64103,1,0,0:0:0:0:
256,192,64286,1,2,0:0:0:0:
256,192,64469,1,2,0:0:0:0:
256,192,64560,1,2,0:0:0:0:
256,192,64652,1,0,0:0:0:0:
256,192,64835,1,0,0:0:0:0:
256,192,65018,1,0,0:0:0:0:
256,192,65201,1,0,0:0:0:0:
256,192,65292,1,0,0:0:0:0:
256,192,65384,1,2,0:0:0:0:
256,192,65566,1,2,0:0:0:0:
256,192,65749,1,2,0:0:0:0:
256,192,65932,1,0,0:0:0:0:
256,192,66024,1,0,0:0:0:0:
256,192,66115,1,0,0:0:0:0:
256,192,66298,1,2,0:0:0:0:
256,192,66481,1,0,0:0:0:0:
256,192,66572,1,0,0:0:0:0:
256,192,66664,1,0,0:0:0:0:
256,192,67030,1,0,0:0:0:0:
256,192,67396,1,2,0:0:0:0:
256,192,67579,1,0,0:0:0:0:
256,192,67762,1,2,0:0:0:0:
256,192,67945,1,0,0:0:0:0:
256,192,68310,1,0,0:0:0:0:
256,192,68676,1,2,0:0:0:0:
256,192,68859,5,0,0:0:0:0:
256,192,68951,1,0,0:0:0:0:
256,192,69042,1,0,0:0:0:0:
256,192,69134,1,0,0:0:0:0:
256,192,69225,1,0,0:0:0:0:
256,192,69317,1,0,0:0:0:0:
256,192,69408,1,0,0:0:0:0:
256,192,69500,1,0,0:0:0:0:
256,192,69591,1,2,0:0:0:0:
256,192,69774,5,0,0:0:0:0:
256,192,69957,1,2,0:0:0:0:
256,192,70140,1,0,0:0:0:0:
256,192,70323,1,2,0:0:0:0:
256,192,70505,1,2,0:0:0:0:
256,192,70688,1,2,0:0:0:0:
256,192,70871,1,0,0:0:0:0:
256,192,71054,1,2,0:0:0:0:
256,192,71237,1,0,0:0:0:0:
256,192,71420,1,2,0:0:0:0:
256,192,71603,1,0,0:0:0:0:
256,192,71786,1,2,0:0:0:0:
256,192,71969,1,0,0:0:0:0:
256,192,72152,1,0,0:0:0:0:
256,192,72335,1,0,0:0:0:0:
256,192,72518,1,2,0:0:0:0:
256,192,72701,1,0,0:0:0:0:
256,192,72884,1,2,0:0:0:0:
256,192,73066,1,2,0:0:0:0:
256,192,73249,1,2,0:0:0:0:
256,192,73432,1,0,0:0:0:0:
256,192,73615,1,2,0:0:0:0:
256,192,73798,1,2,0:0:0:0:
256,192,73981,1,0,0:0:0:0:
256,192,74164,1,2,0:0:0:0:
256,192,74347,1,2,0:0:0:0:
256,192,74530,1,0,0:0:0:0:
256,192,74713,1,2,0:0:0:0:
256,192,74896,1,0,0:0:0:0:
256,192,75079,1,2,0:0:0:0:
256,192,75261,1,0,0:0:0:0:
256,192,75352,1,2,0:0:0:0:
256,192,75444,1,2,0:0:0:0:
256,192,75627,1,0,0:0:0:0:
256,192,75810,1,2,0:0:0:0:
256,192,75993,1,2,0:0:0:0:
256,192,76176,1,0,0:0:0:0:
256,192,76359,1,2,0:0:0:0:
256,192,76542,1,0,0:0:0:0:
256,192,76725,1,2,0:0:0:0:
256,192,76908,1,0,0:0:0:0:
256,192,77091,1,0,0:0:0:0:
256,192,77274,1,2,0:0:0:0:
256,192,77457,1,2,0:0:0:0:
256,192,77640,1,0,0:0:0:0:
256,192,77823,1,2,0:0:0:0:
256,192,78005,1,0,0:0:0:0:
256,192,78188,1,0,0:0:0:0:
256,192,78371,12,0,80567,0:0:0:0:
160,192,80932,6,2,L|416:192,1,210.000008010865
256,192,81664,1,0,0:0:0:0:
256,192,81847,1,0,0:0:0:0:
256,192,82030,1,2,0:0:0:0:
256,192,82213,1,0,0:0:0:0:
256,192,82396,1,2,0:0:0:0:
256,192,82579,1,2,0:0:0:0:
256,192,82762,1,0,0:0:0:0:
256,192,83127,1,2,0:0:0:0:
256,192,83310,1,2,0:0:0:0:
256,192,83493,1,0,0:0:0:0:
256,192,83676,1,0,0:0:0:0:
256,192,83859,1,0,0:0:0:0:
256,192,83951,1,0,0:0:0:0:
256,192,84042,1,2,0:0:0:0:
256,192,84591,1,2,0:0:0:0:
256,192,84774,1,2,0:0:0:0:
256,192,84957,1,0,0:0:0:0:
256,192,85140,1,2,0:0:0:0:
256,192,85323,1,0,0:0:0:0:
256,192,85506,1,2,0:0:0:0:
256,192,85688,1,2,0:0:0:0:
256,192,86054,1,2,0:0:0:0:
256,192,86237,1,2,0:0:0:0:
256,192,86420,1,0,0:0:0:0:
256,192,86603,1,0,0:0:0:0:
256,192,86786,1,2,0:0:0:0:
256,192,86878,1,2,0:0:0:0:
256,192,86969,1,0,0:0:0:0:
256,192,87518,1,0,0:0:0:0:
256,192,87701,1,0,0:0:0:0:
256,192,87883,1,2,0:0:0:0:
256,192,88249,1,0,0:0:0:0:
256,192,88432,1,2,0:0:0:0:
256,192,88615,1,0,0:0:0:0:
256,192,88981,1,2,0:0:0:0:
256,192,89164,1,0,0:0:0:0:
256,192,89530,1,0,0:0:0:0:
256,192,89713,1,2,0:0:0:0:
256,192,89896,1,0,0:0:0:0:
256,192,90079,1,2,0:0:0:0:
256,192,90444,1,2,0:0:0:0:
256,192,91176,1,0,0:0:0:0:
256,192,91359,1,2,0:0:0:0:
256,192,91542,12,0,92823,0:0:0:0:
256,192,93005,5,6,0:0:0:0:
256,192,93371,1,0,0:0:0:0:
256,192,93554,1,2,0:0:0:0:
256,192,93737,1,6,0:0:0:0:
256,192,94103,1,0,0:0:0:0:
256,192,94469,1,6,0:0:0:0:
256,192,94835,1,0,0:0:0:0:
256,192,95018,1,2,0:0:0:0:
256,192,95201,1,4,0:0:0:0:
256,192,95566,1,0,0:0:0:0:
256,192,95749,1,0,0:0:0:0:
256,192,95932,1,2,0:0:0:0:
256,192,96115,1,0,0:0:0:0:
256,192,96847,1,2,0:0:0:0:
256,192,97030,1,0,0:0:0:0:
256,192,97213,1,0,0:0:0:0:
256,192,97396,1,2,0:0:0:0:
256,192,97579,1,0,0:0:0:0:
256,192,97762,1,2,0:0:0:0:
256,192,97944,1,0,0:0:0:0:
256,192,98127,1,2,0:0:0:0:
256,192,98310,1,0,0:0:0:0:
256,192,98493,1,0,0:0:0:0:
256,192,98676,1,0,0:0:0:0:
256,192,98768,1,0,0:0:0:0:
256,192,98859,5,6,0:0:0:0:
256,192,99225,1,0,0:0:0:0:
256,192,99408,1,2,0:0:0:0:
256,192,99591,1,6,0:0:0:0:
256,192,99957,1,0,0:0:0:0:
256,192,100323,1,6,0:0:0:0:
256,192,100689,1,0,0:0:0:0:
256,192,100872,1,2,0:0:0:0:
256,192,101055,1,4,0:0:0:0:
256,192,101420,1,0,0:0:0:0:
256,192,101603,1,0,0:0:0:0:
256,192,101786,1,2,0:0:0:0:
256,192,101969,1,2,0:0:0:0:
256,192,102152,1,0,0:0:0:0:
256,192,102518,1,0,0:0:0:0:
256,192,102884,1,0,0:0:0:0:
256,192,103067,1,0,0:0:0:0:
256,192,103250,1,2,0:0:0:0:
256,192,103616,1,2,0:0:0:0:
256,192,103981,1,2,0:0:0:0:
256,192,104347,5,0,0:0:0:0:
256,192,104530,1,2,0:0:0:0:
256,192,104713,1,0,0:0:0:0:
256,192,104896,1,2,0:0:0:0:
256,192,105079,1,0,0:0:0:0:
256,192,105262,1,2,0:0:0:0:
256,192,105444,5,6,0:0:0:0:
256,192,105810,1,6,0:0:0:0:
256,192,106176,1,0,0:0:0:0:
256,192,106268,1,0,0:0:0:0:
256,192,106359,1,2,0:0:0:0:
256,192,106542,1,0,0:0:0:0:
256,192,106725,1,2,0:0:0:0:
256,192,106908,1,2,0:0:0:0:
256,192,106999,1,2,0:0:0:0:
256,192,107091,1,0,0:0:0:0:
256,192,107274,1,0,0:0:0:0:
256,192,107457,1,0,0:0:0:0:
256,192,107640,1,2,0:0:0:0:
256,192,107731,1,2,0:0:0:0:
256,192,107823,1,0,0:0:0:0:
256,192,108005,1,2,0:0:0:0:
256,192,108188,1,2,0:0:0:0:
256,192,108371,1,2,0:0:0:0:
256,192,108463,1,2,0:0:0:0:
256,192,108554,1,0,0:0:0:0:
256,192,108737,1,2,0:0:0:0:
256,192,109103,1,0,0:0:0:0:
256,192,109195,1,0,0:0:0:0:
256,192,109286,1,2,0:0:0:0:
256,192,109469,1,0,0:0:0:0:
256,192,109652,1,2,0:0:0:0:
256,192,109835,1,2,0:0:0:0:
256,192,109926,1,2,0:0:0:0:
256,192,110018,1,0,0:0:0:0:
256,192,110201,1,0,0:0:0:0:
256,192,110384,1,0,0:0:0:0:
256,192,110567,1,2,0:0:0:0:
256,192,110658,1,2,0:0:0:0:
256,192,110750,1,0,0:0:0:0:
256,192,110932,1,2,0:0:0:0:
256,192,111115,1,2,0:0:0:0:
256,192,111298,1,2,0:0:0:0:
256,192,111390,1,2,0:0:0:0:
256,192,111481,1,0,0:0:0:0:
256,192,111664,1,2,0:0:0:0:
256,192,111847,1,0,0:0:0:0:
256,192,111938,1,0,0:0:0:0:
256,192,112030,1,2,0:0:0:0:
256,192,112396,1,2,0:0:0:0:
256,192,112579,1,2,0:0:0:0:
256,192,112762,1,0,0:0:0:0:
256,192,113127,1,2,0:0:0:0:
256,192,113310,1,0,0:0:0:0:
256,192,113676,1,0,0:0:0:0:
256,192,114042,1,0,0:0:0:0:
256,192,114408,1,0,0:0:0:0:
256,192,114591,1,2,0:0:0:0:
256,192,114774,1,2,0:0:0:0:
256,192,115140,1,2,0:0:0:0:
256,192,115323,1,2,0:0:0:0:
256,192,115688,5,0,0:0:0:0:
256,192,116054,1,2,0:0:0:0:
256,192,116420,1,0,0:0:0:0:
256,192,116786,1,2,0:0:0:0:
256,192,117152,1,2,0:0:0:0:
256,192,117518,1,2,0:0:0:0:
256,192,117883,1,2,0:0:0:0:
256,192,117975,1,2,0:0:0:0:
256,192,118067,1,0,0:0:0:0:
256,192,118249,1,0,0:0:0:0:
256,192,118432,1,2,0:0:0:0:
256,192,118615,1,2,0:0:0:0:
256,192,118706,1,2,0:0:0:0:
256,192,118798,1,0,0:0:0:0:
256,192,118981,1,0,0:0:0:0:
256,192,119164,1,0,0:0:0:0:
256,192,119347,1,2,0:0:0:0:
256,192,119438,1,2,0:0:0:0:
256,192,119530,1,0,0:0:0:0:
256,192,119712,1,2,0:0:0:0:
256,192,119895,1,2,0:0:0:0:
256,192,120078,1,2,0:0:0:0:
256,192,120170,1,2,0:0:0:0:
256,192,120261,1,0,0:0:0:0:
256,192,120444,1,2,0:0:0:0:
256,192,120810,1,2,0:0:0:0:
256,192,120902,1,2,0:0:0:0:
256,192,120993,1,0,0:0:0:0:
256,192,121176,1,0,0:0:0:0:
256,192,121359,1,2,0:0:0:0:
256,192,121542,1,2,0:0:0:0:
256,192,121633,1,2,0:0:0:0:
256,192,121725,1,0,0:0:0:0:
256,192,121908,1,0,0:0:0:0:
256,192,122091,1,0,0:0:0:0:
256,192,122274,1,2,0:0:0:0:
256,192,122365,1,2,0:0:0:0:
256,192,122457,1,0,0:0:0:0:
256,192,122639,1,2,0:0:0:0:
256,192,122822,1,2,0:0:0:0:
256,192,123005,5,0,0:0:0:0:
256,192,123097,1,0,0:0:0:0:
256,192,123188,1,0,0:0:0:0:
256,192,123371,1,2,0:0:0:0:
256,192,123554,1,0,0:0:0:0:
256,192,123645,1,0,0:0:0:0:
256,192,123737,1,0,0:0:0:0:
256,192,124103,1,0,0:0:0:0:
256,192,124286,1,0,0:0:0:0:
256,192,124469,1,2,0:0:0:0:
256,192,124652,1,0,0:0:0:0:
256,192,124835,1,2,0:0:0:0:
256,192,125018,1,0,0:0:0:0:
256,192,125383,1,2,0:0:0:0:
256,192,125749,1,2,0:0:0:0:
256,192,125932,5,0,0:0:0:0:
256,192,126024,1,0,0:0:0:0:
256,192,126115,1,0,0:0:0:0:
256,192,126207,1,0,0:0:0:0:
256,192,126298,1,0,0:0:0:0:
256,192,126390,1,0,0:0:0:0:
256,192,126481,1,0,0:0:0:0:
192,192,126664,2,0,L|416:192,1,210.000008010865
256,192,127213,1,0,0:0:0:0:
256,192,127396,1,2,0:0:0:0:
256,192,127579,1,0,0:0:0:0:
192,192,127762,2,0,L|416:192,1,210.000008010865
256,192,128310,1,0,0:0:0:0:
256,192,128493,1,2,0:0:0:0:
256,192,128676,1,2,0:0:0:0:
96,192,128859,2,0,L|432:192,1,315.000012016297
256,192,129591,1,2,0:0:0:0:
256,192,129774,1,0,0:0:0:0:
256,192,129957,1,2,0:0:0:0:
256,192,130048,1,2,0:0:0:0:
256,192,130140,1,2,0:0:0:0:
256,192,130231,1,2,0:0:0:0:
256,192,130323,1,0,0:0:0:0:
256,192,130506,1,2,0:0:0:0:
256,192,130597,1,0,0:0:0:0:
256,192,130689,1,2,0:0:0:0:
256,192,130871,1,0,0:0:0:0:
192,192,131054,2,0,L|416:192,1,210.000008010865
256,192,131603,1,2,0:0:0:0:
256,192,131786,1,0,0:0:0:0:
240,192,131878,1,0,0:0:0:0:
240,192,131969,1,0,0:0:0:0:
240,192,132152,1,2,0:0:0:0:
240,192,132243,1,2,0:0:0:0:
240,192,132335,1,2,0:0:0:0:
240,192,132518,1,0,0:0:0:0:
240,192,132701,1,2,0:0:0:0:
240,192,132792,1,2,0:0:0:0:
240,192,132884,1,0,0:0:0:0:
240,192,133250,1,2,0:0:0:0:
240,192,133524,1,2,0:0:0:0:
240,192,133798,1,2,0:0:0:0:
256,192,134347,1,0,0:0:0:0:
256,192,134621,1,2,0:0:0:0:
256,192,134896,1,2,0:0:0:0:
256,192,135079,1,0,0:0:0:0:
256,192,135170,1,0,0:0:0:0:
256,192,135262,1,0,0:0:0:0:
256,192,135353,1,0,0:0:0:0:
256,192,135445,1,0,0:0:0:0:
256,192,135628,5,0,0:0:0:0:
256,192,135810,1,2,0:0:0:0:
256,192,135993,1,0,0:0:0:0:
256,192,136176,1,2,0:0:0:0:
256,192,136359,1,0,0:0:0:0:
256,192,136542,1,2,0:0:0:0:
256,192,136725,1,2,0:0:0:0:
256,192,136908,1,0,0:0:0:0:
256,192,137091,1,0,0:0:0:0:
256,192,137274,1,2,0:0:0:0:
256,192,137457,1,0,0:0:0:0:
256,192,137640,1,2,0:0:0:0:
256,192,137823,1,2,0:0:0:0:
256,192,138006,1,0,0:0:0:0:
256,192,138189,1,2,0:0:0:0:
256,192,138554,1,0,0:0:0:0:
256,192,138737,1,2,0:0:0:0:
256,192,138920,1,2,0:0:0:0:
256,192,139103,1,0,0:0:0:0:
256,192,139286,1,2,0:0:0:0:
256,192,139469,1,2,0:0:0:0:
256,192,139652,1,0,0:0:0:0:
256,192,139835,1,2,0:0:0:0:
256,192,140018,1,2,0:0:0:0:
256,192,140201,1,0,0:0:0:0:
256,192,140384,1,2,0:0:0:0:
256,192,140567,1,2,0:0:0:0:
256,192,140750,1,0,0:0:0:0:
256,192,140932,1,2,0:0:0:0:
256,192,141115,1,2,0:0:0:0:
256,192,141481,1,6,0:0:0:0:
256,192,141847,1,4,0:0:0:0:
256,192,142213,1,6,0:0:0:0:
256,192,142579,1,6,0:0:0:0:
256,192,142945,1,2,0:0:0:0:
256,192,143310,1,0,0:0:0:0:
256,192,143402,1,0,0:0:0:0:
256,192,143493,1,0,0:0:0:0:
256,192,143676,1,0,0:0:0:0:
256,192,143859,1,2,0:0:0:0:
256,192,144042,1,0,0:0:0:0:
256,192,144225,1,2,0:0:0:0:
256,192,144408,1,2,0:0:0:0:
256,192,144591,1,0,0:0:0:0:
256,192,144957,1,2,0:0:0:0:
256,192,145323,5,2,0:0:0:0:
256,192,145506,1,0,0:0:0:0:
256,192,147884,1,0,0:0:0:0:
256,192,147976,1,0,0:0:0:0:
256,192,148067,1,2,0:0:0:0:
256,192,148250,1,0,0:0:0:0:
256,192,148433,1,2,0:0:0:0:
256,192,148616,1,2,0:0:0:0:
256,192,148707,1,2,0:0:0:0:
256,192,148799,1,0,0:0:0:0:
256,192,148982,1,0,0:0:0:0:
256,192,149165,1,0,0:0:0:0:
256,192,149348,1,2,0:0:0:0:
256,192,149439,1,2,0:0:0:0:
256,192,149531,1,0,0:0:0:0:
256,192,149713,1,2,0:0:0:0:
256,192,149896,1,2,0:0:0:0:
256,192,150079,1,2,0:0:0:0:
256,192,150171,1,2,0:0:0:0:
256,192,150262,1,0,0:0:0:0:
256,192,150445,1,2,0:0:0:0:
256,192,150811,1,2,0:0:0:0:
256,192,150903,1,2,0:0:0:0:
256,192,150994,1,0,0:0:0:0:
256,192,151177,1,0,0:0:0:0:
256,192,151360,1,2,0:0:0:0:
256,192,151543,1,2,0:0:0:0:
256,192,151634,1,2,0:0:0:0:
256,192,151726,1,0,0:0:0:0:
256,192,151909,1,0,0:0:0:0:
256,192,152092,1,0,0:0:0:0:
256,192,152275,1,2,0:0:0:0:
256,192,152366,1,2,0:0:0:0:
256,192,152458,1,0,0:0:0:0:
256,192,152640,1,2,0:0:0:0:
256,192,152823,1,2,0:0:0:0:
256,192,153006,1,2,0:0:0:0:
256,192,153098,1,2,0:0:0:0:
256,192,153189,1,0,0:0:0:0:
256,192,153372,1,2,0:0:0:0:
256,192,153555,1,0,0:0:0:0:
256,192,153646,1,0,0:0:0:0:
256,192,153738,1,2,0:0:0:0:
256,192,154104,1,2,0:0:0:0:
256,192,154287,1,2,0:0:0:0:
256,192,154470,1,0,0:0:0:0:
256,192,154835,1,2,0:0:0:0:
256,192,155018,1,0,0:0:0:0:
256,192,155384,1,0,0:0:0:0:
256,192,155750,1,0,0:0:0:0:
256,192,156116,1,0,0:0:0:0:
256,192,156299,1,2,0:0:0:0:
256,192,156482,1,2,0:0:0:0:
256,192,156848,1,2,0:0:0:0:
256,192,157031,1,2,0:0:0:0:
256,192,157396,5,0,0:0:0:0:
256,192,157762,1,2,0:0:0:0:
256,192,158128,1,0,0:0:0:0:
256,192,158494,1,2,0:0:0:0:
256,192,158860,1,2,0:0:0:0:
256,192,159226,1,2,0:0:0:0:
256,192,159591,1,2,0:0:0:0:
256,192,159682,1,2,0:0:0:0:
256,192,159774,1,0,0:0:0:0:
256,192,159957,1,0,0:0:0:0:
256,192,160140,1,2,0:0:0:0:
256,192,160323,1,2,0:0:0:0:
256,192,160414,1,2,0:0:0:0:
256,192,160506,1,0,0:0:0:0:
256,192,160689,1,0,0:0:0:0:
256,192,160872,1,0,0:0:0:0:
256,192,161055,1,2,0:0:0:0:
256,192,161146,1,2,0:0:0:0:
256,192,161238,1,0,0:0:0:0:
256,192,161420,1,2,0:0:0:0:
256,192,161603,1,2,0:0:0:0:
256,192,161786,1,2,0:0:0:0:
256,192,161878,1,2,0:0:0:0:
256,192,161969,1,0,0:0:0:0:
256,192,162152,1,2,0:0:0:0:
256,192,162518,1,2,0:0:0:0:
256,192,162610,1,2,0:0:0:0:
256,192,162701,1,0,0:0:0:0:
256,192,162884,1,0,0:0:0:0:
256,192,163067,1,2,0:0:0:0:
256,192,163250,1,2,0:0:0:0:
256,192,163341,1,2,0:0:0:0:
256,192,163433,1,0,0:0:0:0:
256,192,163616,1,0,0:0:0:0:
256,192,163799,1,0,0:0:0:0:
256,192,163982,1,2,0:0:0:0:
256,192,164073,1,2,0:0:0:0:
256,192,164165,1,0,0:0:0:0:
256,192,164347,1,2,0:0:0:0:
256,192,164530,1,2,0:0:0:0:
256,192,164713,5,0,0:0:0:0:
256,192,164805,1,0,0:0:0:0:
256,192,164896,1,0,0:0:0:0:
256,192,165079,1,2,0:0:0:0:
256,192,165262,1,0,0:0:0:0:
256,192,165353,1,0,0:0:0:0:
256,192,165445,1,0,0:0:0:0:
256,192,165811,1,0,0:0:0:0:
256,192,165994,1,0,0:0:0:0:
256,192,166177,1,2,0:0:0:0:
256,192,166359,1,0,0:0:0:0:
256,192,166543,1,2,0:0:0:0:
256,192,166726,1,0,0:0:0:0:
256,192,167091,1,2,0:0:0:0:
256,192,167457,1,2,0:0:0:0:
256,192,167823,1,0,0:0:0:0:
256,192,168006,1,2,0:0:0:0:
256,192,168097,1,2,0:0:0:0:
256,192,168189,1,2,0:0:0:0:
256,192,168280,1,2,0:0:0:0:
256,192,168371,1,0,0:0:0:0:
256,192,168737,1,0,0:0:0:0:
256,192,168920,1,0,0:0:0:0:
256,192,169103,1,2,0:0:0:0:
256,192,169285,1,0,0:0:0:0:
256,192,169469,1,2,0:0:0:0:
256,192,169652,1,2,0:0:0:0:
256,192,169743,1,2,0:0:0:0:
256,192,169835,1,0,0:0:0:0:
256,192,170017,1,2,0:0:0:0:
256,192,170201,1,0,0:0:0:0:
256,192,170383,1,2,0:0:0:0:
256,192,170567,1,2,0:0:0:0:
256,192,170658,1,2,0:0:0:0:
256,192,170749,1,0,0:0:0:0:
256,192,170932,1,2,0:0:0:0:
256,192,171115,1,2,0:0:0:0:
256,192,171298,1,0,0:0:0:0:
256,192,171390,1,0,0:0:0:0:
256,192,171481,1,0,0:0:0:0:
256,192,171664,1,2,0:0:0:0:
256,192,171756,1,2,0:0:0:0:
256,192,171847,1,2,0:0:0:0:
256,192,172030,1,2,0:0:0:0:
256,192,172121,1,2,0:0:0:0:
256,192,172213,1,0,0:0:0:0:
256,192,172396,1,0,0:0:0:0:
256,192,172762,1,0,0:0:0:0:
256,192,173128,1,2,0:0:0:0:
256,192,173493,1,2,0:0:0:0:
256,192,173859,1,0,0:0:0:0:
256,192,174042,1,0,0:0:0:0:
256,192,174225,1,2,0:0:0:0:
256,192,174317,1,2,0:0:0:0:
256,192,174408,1,2,0:0:0:0:
256,192,174591,1,0,0:0:0:0:
256,192,174682,1,0,0:0:0:0:
256,192,174774,1,0,0:0:0:0:
256,192,174957,1,2,0:0:0:0:
256,192,175048,1,2,0:0:0:0:
256,192,175140,1,2,0:0:0:0:
256,192,175323,1,0,0:0:0:0:
256,192,175414,1,0,0:0:0:0:
256,192,175506,1,0,0:0:0:0:
256,192,175689,1,0,0:0:0:0:
256,192,175780,1,0,0:0:0:0:
256,192,175871,1,0,0:0:0:0:
256,192,176054,1,2,0:0:0:0:
256,192,176146,1,2,0:0:0:0:
256,192,176237,1,0,0:0:0:0:
256,192,176420,1,2,0:0:0:0:
256,192,176603,1,0,0:0:0:0:
256,192,176786,1,2,0:0:0:0:
256,192,177152,1,2,0:0:0:0:
256,192,177518,1,2,0:0:0:0:
256,192,177884,1,0,0:0:0:0:
256,192,178250,1,0,0:0:0:0:
256,192,178432,1,0,0:0:0:0:
256,192,178615,1,2,0:0:0:0:
256,192,178981,1,2,0:0:0:0:
256,192,179347,1,0,0:0:0:0:
256,192,179713,1,0,0:0:0:0:
256,192,179896,1,2,0:0:0:0:
256,192,180079,1,0,0:0:0:0:
256,192,180445,1,2,0:0:0:0:
256,192,180810,1,0,0:0:0:0:
256,192,181176,1,2,0:0:0:0:
256,192,181359,1,0,0:0:0:0:
256,192,181542,1,2,0:0:0:0:
256,192,181725,1,2,0:0:0:0:
256,192,181908,1,2,0:0:0:0:
256,192,182091,1,0,0:0:0:0:
256,192,182274,1,0,0:0:0:0:
256,192,182457,1,2,0:0:0:0:
256,192,182640,1,0,0:0:0:0:
256,192,183006,1,0,0:0:0:0:
256,192,183097,1,0,0:0:0:0:
256,192,183189,1,0,0:0:0:0:
256,192,183371,1,2,0:0:0:0:
256,192,183463,1,2,0:0:0:0:
256,192,183554,1,2,0:0:0:0:
256,192,183737,1,2,0:0:0:0:
256,192,183829,1,2,0:0:0:0:
256,192,183920,1,2,0:0:0:0:
256,192,184103,1,2,0:0:0:0:
256,192,184195,1,2,0:0:0:0:
256,192,184286,1,0,0:0:0:0:
256,192,184469,1,0,0:0:0:0:
256,192,184560,1,0,0:0:0:0:
256,192,184652,1,0,0:0:0:0:
256,192,184835,1,0,0:0:0:0:
256,192,184926,1,0,0:0:0:0:
256,192,185018,1,2,0:0:0:0:
256,192,185201,1,2,0:0:0:0:
256,192,185292,1,2,0:0:0:0:
256,192,185384,1,0,0:0:0:0:
256,192,185567,1,0,0:0:0:0:
256,192,185658,1,0,0:0:0:0:
256,192,185750,1,0,0:0:0:0:
256,192,185841,1,0,0:0:0:0:
256,192,185932,1,2,0:0:0:0:
256,192,186298,1,2,0:0:0:0:
256,192,186390,1,2,0:0:0:0:
256,192,186481,1,0,0:0:0:0:
256,192,186664,1,0,0:0:0:0:
256,192,186756,1,0,0:0:0:0:
256,192,186847,1,0,0:0:0:0:
256,192,187030,1,0,0:0:0:0:
256,192,187121,1,0,0:0:0:0:
256,192,187213,1,2,0:0:0:0:
256,192,187396,1,2,0:0:0:0:
256,192,187487,1,2,0:0:0:0:
256,192,187579,1,2,0:0:0:0:
256,192,187762,1,2,0:0:0:0:
256,192,187853,1,2,0:0:0:0:
256,192,187945,1,0,0:0:0:0:
256,192,188128,1,2,0:0:0:0:
256,192,188310,1,0,0:0:0:0:
256,192,188493,1,2,0:0:0:0:
256,192,188676,1,2,0:0:0:0:
256,192,188859,1,0,0:0:0:0:
256,192,188951,1,0,0:0:0:0:
256,192,189042,1,0,0:0:0:0:
256,192,189225,1,0,0:0:0:0:
256,192,189317,1,0,0:0:0:0:
256,192,189408,1,0,0:0:0:0:
256,192,189591,1,2,0:0:0:0:
256,192,189682,1,2,0:0:0:0:
256,192,189774,1,0,0:0:0:0:
256,192,189957,1,0,0:0:0:0:
256,192,190048,1,0,0:0:0:0:
256,192,190140,1,0,0:0:0:0:
256,192,190231,1,0,0:0:0:0:
256,192,190323,1,2,0:0:0:0:
256,192,190689,1,2,0:0:0:0:
256,192,190780,1,2,0:0:0:0:
256,192,190871,1,2,0:0:0:0:
256,192,191054,1,2,0:0:0:0:
256,192,191146,1,2,0:0:0:0:
256,192,191237,1,0,0:0:0:0:
256,192,191420,1,0,0:0:0:0:
256,192,191786,1,2,0:0:0:0:
256,192,191878,1,2,0:0:0:0:
256,192,191969,1,2,0:0:0:0:
256,192,192152,1,2,0:0:0:0:
256,192,192243,1,2,0:0:0:0:
256,192,192335,1,0,0:0:0:0:
256,192,192518,1,2,0:0:0:0:
256,192,192609,1,0,0:0:0:0:
256,192,192701,1,0,0:0:0:0:
256,192,192884,1,0,0:0:0:0:
256,192,192975,1,0,0:0:0:0:
256,192,193067,1,0,0:0:0:0:
256,192,193158,1,0,0:0:0:0:
256,192,193250,1,2,0:0:0:0:
256,192,193615,1,2,0:0:0:0:
256,192,193707,1,2,0:0:0:0:
256,192,193798,1,2,0:0:0:0:
256,192,193981,1,2,0:0:0:0:
256,192,194073,1,2,0:0:0:0:
256,192,194164,1,0,0:0:0:0:
256,192,194347,1,0,0:0:0:0:
256,192,194439,1,0,0:0:0:0:
256,192,194530,1,0,0:0:0:0:
256,192,194713,5,2,0:0:0:0:
