osu file format v14

[General]
AudioFilename: audio.mp3
AudioLeadIn: 0
PreviewTime: 162412
Countdown: 0
SampleSet: Soft
StackLeniency: 0.4
Mode: 0
LetterboxInBreaks: 0
WidescreenStoryboard: 0

[Editor]
Bookmarks: 233662
DistanceSpacing: 1.7
BeatDivisor: 8
GridSize: 4
TimelineZoom: 4.399999

[Metadata]
Title:Lost Paradise
TitleUnicode:失楽園
Artist:Reol
ArtistUnicode:れをる
Creator:Nahnee
Version:Redemption of the Angels
Source:
Tags:Lost Paradise Bunmei EP reol Reol Giga P Okiku electronic dance rap
BeatmapID:2158987
BeatmapSetID:1032570

[Difficulty]
HPDrainRate:5
CircleSize:4
OverallDifficulty:9
ApproachRate:9.3
SliderMultiplier:2.7
SliderTickRate:1

[Events]
//Background and Video events
0,0,"breaking_point_by_nanomortis_daykubk.png",0,0
//Break Periods
2,216078,217269
//Storyboard Layer 0 (Background)
//Storyboard Layer 1 (Fail)
//Storyboard Layer 2 (Pass)
//Storyboard Layer 3 (Foreground)
//Storyboard Layer 4 (Overlay)
//Storyboard Sound Samples

[TimingPoints]
323,555.555555555556,4,2,1,40,1,0
323,-111.111111111111,4,2,1,40,0,0
392,-100,4,2,30,5,0,0
2545,-125,4,2,1,40,0,0
2614,-125,4,2,30,5,0,0
4211,-125,4,2,1,40,0,0
4836,-125,4,2,30,5,0,0
5878,-125,4,2,1,40,0,0
7059,-125,4,2,30,5,0,0
8100,-125,4,2,1,40,0,0
9281,-125,4,2,30,5,0,0
9767,-125,4,2,1,40,0,0
10392,-125,4,2,30,5,0,0
10600,-200,4,2,1,40,0,0
10878,-125,4,2,1,40,0,0
11225,-125,4,2,30,5,0,0
11434,-125,4,2,1,40,0,0
11503,-125,4,2,30,5,0,0
11989,-125,4,2,1,40,0,0
12614,-125,4,2,30,5,0,0
12823,-125,4,2,1,40,0,0
14559,-125,4,2,30,5,0,0
14767,-125,4,2,1,40,0,0
14836,-125,4,2,30,5,0,0
15323,-125,4,2,1,40,0,0
15739,-125,4,2,30,5,0,0
15878,-125,4,2,1,40,0,0
16017,-125,4,2,30,5,0,0
16434,-125,4,2,1,40,0,0
16920,-125,4,2,30,5,0,0
16989,-125,4,2,1,40,0,0
17753,-125,4,2,30,5,0,0
17823,-125,4,2,1,40,0,0
18100,-83.3333333333333,4,2,31,40,0,0
26920,-83.3333333333333,4,2,30,5,0,0
26989,-83.3333333333333,4,2,31,40,0,0
29109,-83.3333333333333,4,2,30,5,0,0
29211,-83.3333333333333,4,2,31,40,0,0
43864,-83.3333333333333,4,2,30,5,0,0
43934,-83.3333333333333,4,2,31,40,0,0
44211,-83.3333333333333,4,2,39,50,0,0
44281,-83.3333333333333,4,2,30,5,0,0
44767,-83.3333333333333,4,2,35,45,0,0
53239,-83.3333333333333,4,2,31,40,0,0
53517,-83.3333333333333,4,2,30,5,0,0
53656,-83.3333333333333,4,2,35,45,0,0
62128,-83.3333333333333,4,2,31,40,0,0
62406,-83.3333333333333,4,2,30,5,0,0
62545,-83.3333333333333,4,2,34,40,0,0
63100,-83.3333333333333,4,2,33,60,0,0
63656,-76.9230769230769,4,2,32,60,0,1
65809,-76.9230769230769,4,2,30,5,0,1
65878,-76.9230769230769,4,2,32,60,0,1
72406,-76.9230769230769,4,2,30,5,0,1
72545,-76.9230769230769,4,2,32,60,0,1
74698,-76.9230769230769,4,2,30,5,0,1
74767,-76.9230769230769,4,2,32,60,0,1
76920,-76.9230769230769,4,2,30,5,0,1
76989,-76.9230769230769,4,2,32,60,0,1
80878,-76.9230769230769,4,2,38,60,0,1
81295,-76.9230769230769,4,2,30,5,0,1
81434,-83.3333333333333,4,2,31,40,0,0
90253,-83.3333333333333,4,2,30,5,0,0
90323,-83.3333333333333,4,2,1,40,0,0
91711,-250,4,2,1,40,0,0
98934,-83.3333333333333,4,2,1,40,0,0
99211,-83.3333333333333,4,2,31,40,0,0
107406,-83.3333333333333,4,2,1,40,0,0
107475,-83.3333333333333,4,2,30,5,0,0
107684,-83.3333333333333,4,2,31,40,0,0
107753,-83.3333333333333,4,2,30,5,0,0
108100,-76.9230769230769,4,2,32,60,0,1
110045,-76.9230769230769,4,2,1,60,0,1
110253,-76.9230769230769,4,2,30,5,0,1
110323,-76.9230769230769,4,2,32,60,0,1
115878,-66.6666666666667,4,2,32,60,0,1
116920,-66.6666666666667,4,2,30,5,0,1
116989,-76.9230769230769,4,2,32,60,0,1
118934,-76.9230769230769,4,2,1,60,0,1
119142,-76.9230769230769,4,2,30,5,0,1
119211,-76.9230769230769,4,2,1,60,0,1
119767,-76.9230769230769,4,2,32,60,0,1
121156,-76.9230769230769,4,2,1,60,0,1
121364,-76.9230769230769,4,2,30,5,0,1
121434,-76.9230769230769,4,2,32,60,0,1
123656,-76.9230769230769,4,2,32,60,0,1
125323,-76.9230769230769,4,2,33,60,0,1
125809,-76.9230769230769,4,2,30,5,0,1
125878,-76.9230769230769,4,2,32,65,0,0
128864,-76.9230769230769,4,2,30,5,0,0
128934,-76.9230769230769,4,2,1,65,0,0
129003,-76.9230769230769,4,2,30,5,0,0
129211,-76.9230769230769,4,2,1,65,0,0
129281,-76.9230769230769,4,2,30,5,0,0
129489,-76.9230769230769,4,2,1,65,0,0
129698,-76.9230769230769,4,2,30,5,0,0
129767,-76.9230769230769,4,2,32,65,0,0
134350,-76.9230769230769,4,2,1,65,0,0
134767,-76.9230769230769,4,2,32,65,0,0
137545,-76.9230769230769,4,2,1,65,0,0
137753,-76.9230769230769,4,2,30,5,0,0
137823,-76.9230769230769,4,2,1,65,0,0
137892,-76.9230769230769,4,2,30,5,0,0
138100,-76.9230769230769,4,2,1,65,0,0
138170,-76.9230769230769,4,2,30,5,0,0
138378,-76.9230769230769,4,2,1,65,0,0
138586,-76.9230769230769,4,2,30,5,0,0
138656,-76.9230769230769,4,2,32,65,0,0
143239,-76.9230769230769,4,2,1,65,0,0
143586,-76.9230769230769,4,2,30,5,0,0
143656,-76.9230769230769,4,2,1,65,0,0
150600,-76.9230769230769,4,2,1,40,0,0
161434,-76.9230769230769,4,2,34,40,0,0
161989,-76.9230769230769,4,2,33,50,0,0
162267,-76.9230769230769,4,2,1,40,0,0
162475,-76.9230769230769,4,2,30,5,0,0
162545,-76.9230769230769,4,2,32,60,0,1
164628,-76.9230769230769,4,2,30,5,0,1
164767,-76.9230769230769,4,2,32,60,0,1
171295,-76.9230769230769,4,2,30,5,0,1
171434,-76.9230769230769,4,2,32,60,0,1
173378,-76.9230769230769,4,2,1,60,0,1
173586,-76.9230769230769,4,2,30,5,0,1
173656,-76.9230769230769,4,2,32,60,0,1
178100,-76.9230769230769,4,2,32,60,0,1
180323,-76.9230769230769,4,2,32,65,0,0
183100,-76.9230769230769,4,2,1,65,0,0
183309,-76.9230769230769,4,2,30,5,0,0
183378,-76.9230769230769,4,2,1,65,0,0
183448,-76.9230769230769,4,2,30,5,0,0
183656,-76.9230769230769,4,2,1,65,0,0
183725,-76.9230769230769,4,2,30,5,0,0
183934,-76.9230769230769,4,2,1,65,0,0
184142,-76.9230769230769,4,2,30,5,0,0
184211,-76.9230769230769,4,2,32,65,0,0
188795,-76.9230769230769,4,2,1,65,0,0
189211,-76.9230769230769,4,2,32,65,0,0
191989,-76.9230769230769,4,2,1,65,0,0
192198,-76.9230769230769,4,2,30,5,0,0
192267,-76.9230769230769,4,2,1,65,0,0
192336,-76.9230769230769,4,2,30,5,0,0
192545,-76.9230769230769,4,2,1,65,0,0
192614,-76.9230769230769,4,2,30,65,0,0
192823,-76.9230769230769,4,2,1,65,0,0
193031,-76.9230769230769,4,2,30,5,0,0
193100,-76.9230769230769,4,2,32,65,0,0
198031,-76.9230769230769,4,2,30,5,0,0
198100,-76.9230769230769,4,2,32,65,0,0
200878,-76.9230769230769,4,2,1,65,0,0
201086,-76.9230769230769,4,2,30,5,0,0
201156,-76.9230769230769,4,2,1,65,0,0
201225,-76.9230769230769,4,2,30,5,0,0
201434,-76.9230769230769,4,2,1,65,0,0
201503,-76.9230769230769,4,2,30,5,0,0
201711,-76.9230769230769,4,2,1,65,0,0
201850,-76.9230769230769,4,2,30,5,0,0
201989,-76.9230769230769,4,2,32,65,0,0
206573,-76.9230769230769,4,2,1,65,0,0
206989,-76.9230769230769,4,2,32,65,0,0
209767,-76.9230769230769,4,2,1,65,0,0
209975,-76.9230769230769,4,2,30,5,0,0
210045,-76.9230769230769,4,2,1,65,0,0
210114,-76.9230769230769,4,2,30,5,0,0
210323,-76.9230769230769,4,2,1,65,0,0
210392,-76.9230769230769,4,2,30,5,0,0
210600,-76.9230769230769,4,2,1,65,0,0
210809,-76.9230769230769,4,2,30,5,0,0
210878,-76.9230769230769,4,2,32,65,0,0
215323,-76.9230769230769,4,2,38,65,0,0
215878,-76.9230769230769,4,2,31,40,0,0
217684,-76.9230769230769,4,2,30,5,0,0
217823,-76.9230769230769,4,2,31,30,0,0
218100,-76.9230769230769,4,2,31,40,0,0
224628,-76.9230769230769,4,2,30,5,0,0
224767,-76.9230769230769,4,2,31,40,0,0
233517,-76.9230769230769,4,2,30,5,0,0
233656,-76.9230769230769,4,2,35,40,0,0
242128,-76.9230769230769,4,2,1,40,0,0
242475,-76.9230769230769,4,2,30,5,0,0
242545,-76.9230769230769,4,2,35,40,0,0
250045,-76.9230769230769,4,2,1,40,0,0
250878,-76.9230769230769,4,2,31,40,0,0
251295,-76.9230769230769,4,2,30,5,0,0

[HitObjects]
64,168,323,6,0,B|-1:46|90:-31|301:4|155:241|93:336|93:336|229:277|226:380|356:285|356:285|297:292|268:284,1,850.499974044801,0|0,0:0|0:0,0:0:0:0:
308,208,2545,2,0,P|367:212|266:177,1,540,0|0,0:0|0:0,0:0:0:0:
272,152,4211,1,0,0:0:0:0:
176,108,4489,1,0,0:0:0:0:
80,60,4767,2,0,B|56:76|-8:72|-8:72|40:100|76:128|76:128|40:128|16:160|16:160|48:184|40:232|40:232,1,324,0|0,0:0|0:0,0:0:0:0:
40,280,5878,2,0,B|196:236|196:336|368:264,1,324,0|0,0:0|0:0,0:0:0:0:
440,212,6989,6,0,B|384:208|280:108|328:4|440:4|488:108|376:148|376:148|268:168|268:168,1,432,0|0,0:0|0:0,0:0:0:0:
296,156,8656,2,0,L|252:156,6,27,0|0|0|0|0|0|0,0:0|0:0|0:0|0:0|0:0|0:0|0:0,0:0:0:0:
164,96,9211,5,0,0:0:0:0:
107,175,10045,1,0,0:0:0:0:
128,280,10323,1,0,0:0:0:0:
276,260,10600,2,0,L|196:272,1,67.5,0|0,0:0|0:0,0:0:0:0:
396,80,11156,1,0,0:0:0:0:
400,100,11434,5,0,0:0:0:0:
404,120,12267,1,0,0:0:0:0:
408,140,12545,5,0,0:0:0:0:
416,184,12823,1,0,0:0:0:0:
428,248,13100,1,0,0:0:0:0:
444,332,13378,1,0,0:0:0:0:
444,332,13656,5,0,0:0:0:0:
316,320,14489,1,0,0:0:0:0:
272,316,14767,1,0,0:0:0:0:
188,308,15323,1,0,0:0:0:0:
104,300,15878,5,0,0:0:0:0:
104,300,16434,6,0,L|120:136,1,162,0|0,0:0|0:0,0:0:0:0:
128,52,16989,1,0,0:0:0:0:
128,52,17406,1,0,0:0:0:0:
332,136,17545,6,0,B|288:128|220:148,1,108,0|0,0:0|0:0,0:0:0:0:
196,157,17961,1,0,0:0:0:0:
120,332,18100,6,0,B|160:304|240:360|292:320,1,161.999995056153,4|0,0:0|0:0,0:0:0:0:
336,188,18517,1,0,0:0:0:0:
364,296,18656,1,8,0:0:0:0:
288,68,18795,6,0,P|336:68|372:36,1,80.9999975280763,0|0,0:0|0:0,0:0:0:0:
224,256,19073,2,0,P|224:224|184:176,1,80.9999975280763,0|0,0:0|0:0,0:0:0:0:
92,64,19350,6,0,L|108:196,1,121.499996292114,0|0,0:0|0:0,0:0:0:0:
120,272,19628,1,0,0:0:0:0:
188,152,19767,1,8,0:0:0:0:
204,248,19906,1,0,0:0:0:0:
56,112,20045,1,0,0:0:0:0:
56,236,20184,1,0,0:0:0:0:
176,80,20323,6,0,B|260:60|260:60|352:80,1,161.999995056153,4|0,0:0|0:0,0:0:0:0:
316,188,20739,1,0,0:0:0:0:
408,60,20878,1,8,0:0:0:0:
424,272,21017,2,0,B|428:228|428:228|416:164,1,80.9999975280763,0|0,0:0|0:0,0:0:0:0:
324,356,21295,2,0,B|320:312|320:312|332:248,1,80.9999975280763,0|0,0:0|0:0,0:0:0:0:
224,256,21573,6,0,P|152:280|92:276,1,121.499996292114,0|0,0:0|0:0,0:0:0:0:
68,272,21850,1,0,0:0:0:0:
76,112,21989,2,0,P|68:168|44:200,1,80.9999975280763,8|0,0:0|0:0,0:0:0:0:
82,24,22267,2,0,P|146:36|178:60,1,80.9999975280763,0|0,0:0|0:0,0:0:0:0:
288,220,22545,5,4,0:0:0:0:
332,64,22684,1,0,0:0:0:0:
400,216,22823,2,0,P|408:260|404:304,1,80.9999975280763,0|0,0:0|0:0,0:0:0:0:
292,344,23100,2,0,P|264:340|236:340,1,40.4999987640381,8|0,0:0|0:0,0:0:0:0:
112,264,23239,2,0,P|160:256|200:264,1,80.9999975280763,0|0,0:0|0:0,0:0:0:0:
240,192,23517,2,0,P|209:154|196:115,1,80.9999975280763,0|0,0:0|0:0,0:0:0:0:
228,32,23795,2,0,P|176:52|116:52,1,80.9999975280763,0|4,0:0|0:0,0:0:0:0:
72,40,24073,5,0,0:0:0:0:
112,184,24211,2,0,P|148:176|200:176,1,80.9999975280763,8|0,0:0|0:0,0:0:0:0:
168,320,24489,2,0,P|116:328|64:320,1,80.9999975280763,0|0,0:0|0:0,0:0:0:0:
188,240,24767,5,4,0:0:0:0:
256,152,24906,1,0,0:0:0:0:
324,244,25045,2,0,P|380:224|408:184,1,80.9999975280763,0|0,0:0|0:0,0:0:0:0:
472,44,25323,2,0,P|412:84|316:64,1,161.999995056153,8|0,0:0|0:0,0:0:0:0:
184,32,25739,2,0,P|232:52|256:112,1,80.9999975280763,0|0,0:0|0:0,0:0:0:0:
143,195,26017,1,0,0:0:0:0:
70,117,26156,1,4,0:0:0:0:
101,297,26295,6,0,L|193:281,1,80.9999975280763,0|8,0:0|0:0,0:0:0:0:
268,320,26573,1,0,0:0:0:0:
268,320,26711,2,0,L|384:296,1,80.9999975280763,2|0,0:0|0:0,0:0:0:0:
464,296,26989,6,0,L|472:176,1,80.9999975280763,4|0,0:0|0:0,0:0:0:0:
444,128,27267,2,0,L|448:40,1,80.9999975280763,0|0,0:0|0:0,0:0:0:0:
328,72,27545,2,0,B|272:64|220:76,1,80.9999975280763,8|0,0:0|0:0,0:0:0:0:
176,84,27823,1,0,0:0:0:0:
176,84,27961,1,0,0:0:0:0:
152,188,28100,5,0,0:0:0:0:
104,344,28239,2,0,L|136:244,1,80.9999975280763,0|4,0:0|0:0,0:0:0:0:
152,188,28517,2,0,B|237:173|239:213|321:189,1,161.999995056153,0|0,0:0|0:0,0:0:0:0:
362,265,28934,6,0,P|358:297|386:369,1,80.9999975280763,0|0,0:0|0:0,0:0:0:0:
360,144,29211,2,0,P|364:112|336:40,1,80.9999975280763,4|0,0:0|0:0,0:0:0:0:
206,91,29489,2,0,P|243:104|284:104,1,80.9999975280763,0|0,0:0|0:0,0:0:0:0:
236,179,29767,6,0,P|224:215|240:289,1,80.9999975280763,8|0,0:0|0:0,0:0:0:0:
325,302,30045,6,0,P|328:262|316:224,1,80.9999975280763,0|0,0:0|0:0,0:0:0:0:
58,129,30323,5,0,0:0:0:0:
70,293,30461,2,0,L|57:149,1,121.499996292114,0|0,0:0|0:0,0:0:0:0:
58,129,30739,2,0,P|110:112|219:117,1,161.999995056153,0|0,0:0|0:0,0:0:0:0:
340,148,31156,6,0,P|368:136|424:128,1,80.9999975280763,0|0,0:0|0:0,0:0:0:0:
436,132,31434,2,0,P|448:208|444:236,1,80.9999975280763,4|0,0:0|0:0,0:0:0:0:
376,304,31711,2,0,P|320:292|264:304,1,80.9999975280763,0|0,0:0|0:0,0:0:0:0:
204,304,31989,2,0,P|164:248|176:204,1,80.9999975280763,8|0,0:0|0:0,0:0:0:0:
172,56,32267,1,0,0:0:0:0:
160,180,32406,1,0,0:0:0:0:
278,64,32545,6,0,P|330:55|348:56,3,40.4999987640381,0|0|0|0,0:0|0:0|0:0|0:0,0:0:0:0:
467,159,32823,2,0,P|417:150|392:152,4,40.4999987640381,4|0|0|0|8,0:0|0:0|0:0|0:0|0:0,0:0:0:0:
344,336,33239,1,0,0:0:0:0:
344,336,33378,2,0,L|248:336,1,80.9999975280763,0|0,0:0|0:0,0:0:0:0:
68,124,33656,5,4,0:0:0:0:
164,256,33795,1,0,0:0:0:0:
164,76,33934,1,0,0:0:0:0:
52,232,34073,1,0,0:0:0:0:
256,164,34211,1,8,0:0:0:0:
80,92,34350,1,0,0:0:0:0:
160,296,34489,1,0,0:0:0:0:
264,72,34628,5,0,0:0:0:0:
348,144,34767,2,0,L|288:316,1,161.999995056153,2|4,0:0|0:0,0:0:0:0:
184,296,35184,2,0,L|224:192,1,80.9999975280763,0|8,0:0|0:0,0:0:0:0:
240,68,35461,5,0,0:0:0:0:
112,168,35600,1,0,0:0:0:0:
280,152,35739,1,0,0:0:0:0:
124,48,35878,5,4,0:0:0:0:
208,236,36017,1,0,0:0:0:0:
200,116,36156,1,0,0:0:0:0:
144,316,36295,1,0,0:0:0:0:
144,316,36434,2,0,L|240:316,1,80.9999975280763,8|0,0:0|0:0,0:0:0:0:
356,236,36711,2,0,L|264:236,1,80.9999975280763,0|0,0:0|0:0,0:0:0:0:
432,72,36989,5,0,0:0:0:0:
440,176,37128,2,0,L|435:79,1,80.9999975280763,0|4,0:0|0:0,0:0:0:0:
432,72,37406,2,8,B|379:79|379:79|317:68,1,80.9999975280763,0|8,0:0|0:0,0:0:0:0:
304,336,37684,5,0,0:0:0:0:
308,144,37823,1,0,0:0:0:0:
396,256,37961,1,0,0:0:0:0:
236,224,38100,6,0,P|168:216|124:224,1,80.9999975280763,4|0,0:0|0:0,0:0:0:0:
192,120,38378,2,0,P|152:104|88:100,1,80.9999975280763,0|0,0:0|0:0,0:0:0:0:
288,48,38656,2,0,P|328:40|380:40,1,80.9999975280763,8|0,0:0|0:0,0:0:0:0:
416,188,38934,2,0,P|360:200|304:196,1,80.9999975280763,0|0,0:0|0:0,0:0:0:0:
216,188,39211,2,0,P|156:172|92:176,2,80.9999975280763,0|0|4,0:0|0:0|0:0,0:0:0:0:
230,296,39628,2,0,P|270:307|334:297,1,80.9999975280763,0|8,0:0|0:0,0:0:0:0:
300,80,39906,6,0,P|260:72|192:84,1,80.9999975280763,0|0,0:0|0:0,0:0:0:0:
316,188,40184,1,0,0:0:0:0:
332,292,40323,2,0,P|371:299|411:297,1,80.9999975280763,4|0,0:0|0:0,0:0:0:0:
464,128,40600,2,0,P|424:120|384:122,1,80.9999975280763,0|0,0:0|0:0,0:0:0:0:
332,248,40878,2,0,P|328:308|308:344,1,80.9999975280763,8|0,0:0|0:0,0:0:0:0:
216,320,41156,2,0,P|184:316|128:308,1,80.9999975280763,0|0,0:0|0:0,0:0:0:0:
68,72,41434,6,0,P|64:92|60:168,1,80.9999975280763,0|0,0:0|0:0,0:0:0:0:
63,238,41711,1,4,0:0:0:0:
245,81,41850,2,0,B|312:66|350:93|426:69,1,161.999995056153,0|0,0:0|0:0,0:0:0:0:
409,180,42267,2,0,L|412:273,1,80.9999975280763,0|0,0:0|0:0,0:0:0:0:
139,320,42545,5,4,0:0:0:0:
99,238,42684,1,0,0:0:0:0:
147,164,42823,1,0,0:0:0:0:
86,107,42961,1,0,0:0:0:0:
143,31,43100,2,0,B|202:53|252:11|348:37,1,161.999995056153,8|0,0:0|0:0,0:0:0:0:
278,171,43517,1,0,0:0:0:0:
439,154,43656,6,0,B|443:203|443:203|420:267,1,80.9999975280763,2|0,0:0|0:0,0:0:0:0:
285,308,43934,2,0,B|334:304|334:304|398:327,1,80.9999975280763,4|0,0:0|0:0,0:0:0:0:
177,265,44211,2,0,L|114:258,1,40.4999987640381,2|0,0:0|0:0,0:0:0:0:
50,82,44767,5,4,0:0:0:0:
47,171,44906,1,0,0:0:0:0:
43,260,45045,1,4,0:0:0:0:
40,349,45184,1,0,0:0:0:0:
40,349,45323,2,0,B|120:336|178:361|263:328,1,161.999995056153,8|0,0:0|0:0,0:0:0:0:
267,200,45739,1,4,0:0:0:0:
294,337,45878,1,0,0:0:0:0:
267,200,46156,1,4,0:0:0:0:
267,200,46434,6,0,P|352:180|391:189,1,80.9999975280763,8|0,0:0|0:0,0:0:0:0:
412,196,46711,2,0,P|472:196|520:144,1,80.9999975280763,8|8,0:0|0:0,0:0:0:0:
380,312,46989,1,4,0:0:0:0:
292,320,47128,1,0,0:0:0:0:
204,328,47267,1,4,0:0:0:0:
116,336,47406,1,0,0:0:0:0:
116,336,47545,2,0,L|20:344,2,80.9999975280763,8|4|0,0:0|0:0|0:0,0:0:0:0:
96,108,47961,1,8,0:0:0:0:
40,208,48100,6,0,L|24:296,2,80.9999975280763,0|8|4,0:0|0:0|0:0,0:0:0:0:
96,96,48517,1,0,0:0:0:0:
220,156,48656,2,0,L|228:264,1,80.9999975280763,0|0,0:0|0:0,0:0:0:0:
344,172,48934,2,0,L|348:128,2,40.4999987640381,8|0|0,0:0|0:0|0:0,0:0:0:0:
472,184,49211,6,0,L|460:280,2,80.9999975280763,4|0|4,0:0|0:0|0:0,0:0:0:0:
376,320,49628,1,0,0:0:0:0:
204,248,49767,6,0,P|168:280|112:296,2,80.9999975280763,0|8|0,0:0|0:0|0:0,0:0:0:0:
192,144,50184,2,0,P|232:108|276:104,1,80.9999975280763,4|0,0:0|0:0,0:0:0:0:
320,212,50461,5,4,0:0:0:0:
352,328,50600,1,4,0:0:0:0:
352,328,50739,2,8,L|260:328,1,80.9999975280763,0|0,0:0|0:0,0:0:0:0:
136,252,51017,2,0,L|224:248,2,80.9999975280763,0|8|8,0:0|0:0|0:0,0:0:0:0:
176,108,51434,5,4,0:0:0:0:
96,95,51572,1,0,0:0:0:0:
276,164,51711,1,4,0:0:0:0:
356,159,51849,1,0,0:0:0:0:
416,268,51989,2,0,P|416:216|428:164,1,80.9999975280763,8|4,0:0|0:0,0:0:0:0:
448,84,52267,5,0,0:0:0:0:
448,84,52406,1,8,0:0:0:0:
448,84,52545,2,0,B|404:60|336:60,1,80.9999975280763,0|8,0:0|0:0,0:0:0:0:
256,164,52823,5,4,0:0:0:0:
256,164,52962,1,0,0:0:0:0:
256,164,53101,2,0,B|300:188|368:188,1,80.9999975280763,0|0,0:0|0:0,0:0:0:0:
164,64,53378,1,0,0:0:0:0:
161,161,53517,2,0,P|164:205|184:262,1,80.9999975280763,0|4,0:0|0:0,0:0:0:0:
204,319,53795,1,0,0:0:0:0:
292,299,53934,1,4,0:0:0:0:
380,279,54073,1,0,0:0:0:0:
437,84,54211,2,0,L|455:175,1,80.9999975280763,8|8,0:0|0:0,0:0:0:0:
298,173,54489,1,0,0:0:0:0:
298,173,54628,1,4,0:0:0:0:
435,265,54767,6,0,P|438:200|431:166,1,80.9999975280763,0|4,0:0|0:0,0:0:0:0:
345,70,55045,1,4,0:0:0:0:
345,70,55184,1,0,0:0:0:0:
217,31,55323,2,0,P|201:100|213:133,1,80.9999975280763,0|0,0:0|0:0,0:0:0:0:
275,222,55600,2,0,L|184:224,1,80.9999975280763,8|8,0:0|0:0,0:0:0:0:
40,344,55878,5,4,0:0:0:0:
128,192,56017,1,0,0:0:0:0:
140,308,56156,1,4,0:0:0:0:
32,180,56295,1,0,0:0:0:0:
112,64,56434,2,0,P|152:61|192:65,2,80.9999975280763,8|4|0,0:0|0:0|0:0,0:0:0:0:
269,207,56850,1,8,0:0:0:0:
319,65,56989,2,0,P|359:61|400:64,1,80.9999975280763,0|8,0:0|0:0,0:0:0:0:
425,229,57267,5,4,0:0:0:0:
425,229,57406,1,0,0:0:0:0:
358,319,57545,2,0,P|286:328|243:324,1,80.9999975280763,0|0,0:0|0:0,0:0:0:0:
151,224,57823,2,0,P|205:218|247:227,1,80.9999975280763,8|8,0:0|0:0,0:0:0:0:
58,322,58100,5,4,0:0:0:0:
30,237,58239,1,0,0:0:0:0:
74,159,58378,1,4,0:0:0:0:
47,73,58517,1,0,0:0:0:0:
178,181,58656,2,0,L|150:71,1,80.9999975280763,0|8,0:0|0:0,0:0:0:0:
218,273,58934,5,0,0:0:0:0:
311,90,59073,1,4,0:0:0:0:
386,257,59211,2,0,B|410:210|410:210|399:153,1,80.9999975280763,0|4,0:0|0:0,0:0:0:0:
376,31,59489,2,0,L|502:71,1,121.499996292114,4|0,0:0|0:0,0:0:0:0:
501,71,59767,2,0,L|414:100,1,80.9999975280763,0|0,0:0|0:0,0:0:0:0:
319,215,60045,6,0,L|279:218,2,40.4999987640381,8|0|8,0:0|0:0|0:0,0:0:0:0:
107,104,60323,6,0,P|70:182|79:275,1,161.999995056153,4|4,0:0|0:0,0:0:0:0:
112,333,60739,1,0,0:0:0:0:
112,333,60878,2,0,B|188:309|188:309|279:331,1,161.999995056153,8|0,0:0|0:0,0:0:0:0:
341,357,61295,5,8,0:0:0:0:
412,270,61434,2,0,P|416:202|401:165,1,80.9999975280763,0|8,0:0|0:0,0:0:0:0:
320,189,61712,2,0,P|315:121|330:84,1,80.9999975280763,4|0,0:0|0:0,0:0:0:0:
237,53,61989,2,0,P|157:67|68:42,2,161.999995056153,0|0|0,0:0|0:0|0:0,0:0:0:0:
139,244,63100,5,8,0:0:0:0:
283,139,63378,1,0,0:0:0:0:
296,227,63517,1,0,0:0:0:0:
420,293,63656,6,0,P|363:313|319:313,1,87.749995983124,4|0,0:0|0:0,0:0:0:0:
356,117,63934,2,0,P|413:97|457:97,1,87.749995983124,0|0,0:0|0:0,0:0:0:0:
219,253,64211,2,0,P|208:182|215:144,1,87.749995983124,8|0,0:0|0:0,0:0:0:0:
230,75,64489,1,0,0:0:0:0:
230,75,64628,1,0,0:0:0:0:
104,152,64767,2,0,P|52:152|-4:140,1,87.749995983124,0|0,0:0|0:0,0:0:0:0:
81,46,65045,5,4,0:0:0:0:
81,46,65184,1,0,0:0:0:0:
68,232,65323,2,0,L|64:331,1,87.749995983124,8|0,0:0|0:0,0:0:0:0:
190,315,65600,2,0,L|192:220,1,87.749995983124,0|0,0:0|0:0,0:0:0:0:
220,126,65878,6,0,P|279:118|334:133,2,87.749995983124,4|0|0,0:0|0:0|0:0,0:0:0:0:
310,255,66295,1,0,0:0:0:0:
428,91,66434,2,0,B|413:139|413:139|425:202,1,87.749995983124,8|0,0:0|0:0,0:0:0:0:
475,257,66711,1,0,0:0:0:0:
386,315,66850,2,0,P|332:328|285:323,1,87.749995983124,0|0,0:0|0:0,0:0:0:0:
158,222,67128,2,0,P|212:209|259:214,1,87.749995983124,0|4,0:0|0:0,0:0:0:0:
92,335,67406,1,0,0:0:0:0:
92,335,67545,2,0,B|69:295|69:295|74:224,1,87.749995983124,8|0,0:0|0:0,0:0:0:0:
152,116,67823,2,0,B|112:139|112:139|41:134,1,87.749995983124,0|0,0:0|0:0,0:0:0:0:
244,32,68100,5,4,0:0:0:0:
262,126,68239,1,0,0:0:0:0:
281,220,68378,2,0,L|292:323,1,87.749995983124,0|0,0:0|0:0,0:0:0:0:
444,172,68656,6,0,P|395:172|350:194,1,87.749995983124,8|0,0:0|0:0,0:0:0:0:
464,304,68934,2,0,P|488:261|491:211,1,87.749995983124,0|0,0:0|0:0,0:0:0:0:
376,72,69211,2,0,B|428:80|428:80|496:64,1,87.749995983124,0|0,0:0|0:0,0:0:0:0:
268,36,69489,5,4,0:0:0:0:
268,36,69628,1,0,0:0:0:0:
240,124,69767,2,0,B|232:180|232:180|256:248,1,87.749995983124,8|0,0:0|0:0,0:0:0:0:
376,284,70045,2,0,B|320:276|320:276|252:300,1,87.749995983124,0|0,0:0|0:0,0:0:0:0:
200,344,70323,5,4,0:0:0:0:
200,344,70461,1,0,0:0:0:0:
56,256,70600,2,0,P|120:264|156:288,1,87.749995983124,0|0,0:0|0:0,0:0:0:0:
100,168,70878,2,0,P|96:108|112:68,1,87.749995983124,8|0,0:0|0:0,0:0:0:0:
260,52,71156,2,0,P|196:68|144:52,1,87.749995983124,0|0,0:0|0:0,0:0:0:0:
384,36,71434,5,0,0:0:0:0:
444,132,71573,1,0,0:0:0:0:
356,220,71711,2,0,B|332:176|332:176|348:100,1,87.749995983124,4|0,0:0|0:0,0:0:0:0:
424,312,71989,2,0,B|380:320|380:320|304:304,1,87.749995983124,8|0,0:0|0:0,0:0:0:0:
172,200,72267,2,0,B|216:192|216:192|292:208,1,87.749995983124,0|0,0:0|0:0,0:0:0:0:
44,268,72545,6,0,P|24:204|32:144,1,87.749995983124,4|0,0:0|0:0,0:0:0:0:
112,84,72823,2,0,P|45:86|-10:63,1,87.749995983124,0|0,0:0|0:0,0:0:0:0:
252,24,73100,2,0,P|254:90|231:146,1,87.749995983124,8|0,0:0|0:0,0:0:0:0:
182,237,73378,5,0,0:0:0:0:
269,245,73516,1,0,0:0:0:0:
356,253,73655,1,0,0:0:0:0:
404,120,73795,2,0,B|352:112|352:112|284:128,1,87.749995983124,0|4,0:0|0:0,0:0:0:0:
440,256,74073,5,0,0:0:0:0:
384,340,74211,2,0,B|336:348|336:348|297:340,1,87.749995983124,8|0,0:0|0:0,0:0:0:0:
176,196,74489,2,0,P|244:188|284:204,1,87.749995983124,0|0,0:0|0:0,0:0:0:0:
92,288,74767,5,4,0:0:0:0:
80,212,74906,1,0,0:0:0:0:
64,144,75045,2,0,L|44:36,1,87.749995983124,0|0,0:0|0:0,0:0:0:0:
264,72,75323,2,0,P|216:84|164:72,1,87.749995983124,8|0,0:0|0:0,0:0:0:0:
348,120,75600,2,0,P|360:168|348:220,1,87.749995983124,0|0,0:0|0:0,0:0:0:0:
248,208,75878,5,0,0:0:0:0:
428,168,76017,1,0,0:0:0:0:
224,52,76156,1,4,0:0:0:0:
392,28,76295,1,0,0:0:0:0:
344,244,76434,6,0,P|272:272|240:272,1,87.749995983124,8|0,0:0|0:0,0:0:0:0:
120,216,76711,2,0,P|192:188|224:188,1,87.749995983124,0|0,0:0|0:0,0:0:0:0:
248,344,76989,5,4,0:0:0:0:
156,348,77128,1,0,0:0:0:0:
64,356,77267,2,0,B|40:316|40:316|36:248,1,87.749995983124,0|0,0:0|0:0,0:0:0:0:
172,160,77545,2,0,B|88:132|88:192|-8:148,1,175.499991966248,8|0,0:0|0:0,0:0:0:0:
72,56,77961,5,0,0:0:0:0:
192,48,78100,2,0,P|256:40|288:44,1,87.749995983124,0|0,0:0|0:0,0:0:0:0:
360,160,78378,2,0,P|296:168|264:164,1,87.749995983124,4|0,0:0|0:0,0:0:0:0:
416,28,78656,2,0,P|424:92|420:124,1,87.749995983124,8|0,0:0|0:0,0:0:0:0:
280,284,78934,2,0,P|272:220|276:188,1,87.749995983124,0|0,0:0|0:0,0:0:0:0:
444,312,79211,5,4,0:0:0:0:
400,224,79350,1,0,0:0:0:0:
440,136,79489,2,0,L|528:136,1,87.749995983124,0|0,0:0|0:0,0:0:0:0:
328,304,79767,2,0,L|220:304,1,87.749995983124,8|0,0:0|0:0,0:0:0:0:
324,144,80045,6,0,L|324:264,1,87.749995983124,0|4,0:0|0:0,0:0:0:0:
160,312,80323,2,0,L|160:204,1,87.749995983124,0|0,0:0|0:0,0:0:0:0:
160,152,80600,2,0,L|36:152,1,87.749995983124,4|0,0:0|0:0,0:0:0:0:
180,32,80878,2,0,L|296:32,1,87.749995983124,4|0,0:0|0:0,0:0:0:0:
351,221,81434,6,0,L|432:216,2,80.9999975280763,4|0|0,0:0|0:0|0:0,0:0:0:0:
244,332,81850,1,0,0:0:0:0:
372,312,81989,1,8,0:0:0:0:
204,180,82128,6,0,P|196:216|204:260,1,80.9999975280763,0|0,0:0|0:0,0:0:0:0:
336,108,82406,2,0,P|300:100|256:108,1,80.9999975280763,0|0,0:0|0:0,0:0:0:0:
320,216,82684,6,0,P|364:232|448:208,1,121.499996292114,0|0,0:0|0:0,0:0:0:0:
420,72,82961,1,0,0:0:0:0:
484,208,83100,1,8,0:0:0:0:
484,36,83239,1,0,0:0:0:0:
404,168,83378,1,0,0:0:0:0:
348,28,83517,1,0,0:0:0:0:
248,168,83656,6,0,P|192:172|144:160,2,80.9999975280763,4|0|0,0:0|0:0|0:0,0:0:0:0:
108,52,84073,1,0,0:0:0:0:
108,52,84211,1,8,0:0:0:0:
8,132,84350,6,0,L|100:148,1,80.9999975280763,0|0,0:0|0:0,0:0:0:0:
128,272,84628,2,0,L|36:256,1,80.9999975280763,0|0,0:0|0:0,0:0:0:0:
280,188,84906,6,0,P|292:232|272:316,1,121.499996292114,0|0,0:0|0:0,0:0:0:0:
260,328,85184,1,0,0:0:0:0:
260,328,85323,2,0,P|320:320|352:328,1,80.9999975280763,8|0,0:0|0:0,0:0:0:0:
424,332,85600,2,0,P|420:268|432:232,1,80.9999975280763,0|0,0:0|0:0,0:0:0:0:
444,172,85878,5,4,0:0:0:0:
376,92,86017,1,0,0:0:0:0:
328,192,86156,2,0,L|288:264,1,80.9999975280763,0|0,0:0|0:0,0:0:0:0:
224,312,86434,6,0,P|184:312|148:320,1,40.4999987640381,8|0,0:0|0:0,0:0:0:0:
36,216,86573,2,0,P|76:208|132:216,1,80.9999975280763,0|0,0:0|0:0,0:0:0:0:
196,232,86850,2,0,P|216:172|208:136,1,80.9999975280763,0|0,0:0|0:0,0:0:0:0:
124,56,87128,6,0,P|168:68|220:48,1,80.9999975280763,0|4,0:0|0:0,0:0:0:0:
288,32,87406,1,0,0:0:0:0:
384,92,87545,2,0,P|396:144|380:192,1,80.9999975280763,8|0,0:0|0:0,0:0:0:0:
276,296,87823,2,0,P|264:244|280:196,1,80.9999975280763,0|0,0:0|0:0,0:0:0:0:
96,116,88100,5,4,0:0:0:0:
112,196,88239,1,0,0:0:0:0:
132,280,88378,2,0,B|176:288|176:288|232:248,1,80.9999975280763,0|0,0:0|0:0,0:0:0:0:
204,32,88656,6,0,B|184:76|184:76|200:204,1,161.999995056153,8|0,0:0|0:0,0:0:0:0:
304,236,89073,2,0,P|312:176|296:128,1,80.9999975280763,0|0,0:0|0:0,0:0:0:0:
196,324,89350,2,0,P|256:332|304:316,1,80.9999975280763,0|4,0:0|0:0,0:0:0:0:
368,304,89628,2,0,P|412:296|460:304,1,80.9999975280763,0|8,0:0|0:0,0:0:0:0:
488,340,89906,1,0,0:0:0:0:
488,340,90045,2,0,L|488:196,1,121.499996292114,2|0,0:0|0:0,0:0:0:0:
488,192,90323,1,0,0:0:0:0:
488,188,91711,6,0,L|480:128,1,54,0|0,0:0|0:0,0:0:0:0:
340,152,92545,2,0,L|344:96,1,54,0|0,0:0|0:0,0:0:0:0:
220,232,93934,6,0,L|224:172,1,54,0|0,0:0|0:0,0:0:0:0:
112,300,94767,2,0,L|104:236,1,54,0|0,0:0|0:0,0:0:0:0:
32,208,96156,6,0,L|36:152,1,54,0|0,0:0|0:0,0:0:0:0:
152,164,96989,2,0,L|140:104,1,54,0|0,0:0|0:0,0:0:0:0:
248,56,98378,6,0,L|268:112,1,54,0|0,0:0|0:0,0:0:0:0:
240,224,98795,1,0,0:0:0:0:
240,224,98934,2,0,L|292:224,2,40.4999987640381,0|0|0,0:0|0:0|0:0,0:0:0:0:
58,153,99211,5,4,0:0:0:0:
124,304,99350,1,0,0:0:0:0:
152,116,99489,1,0,0:0:0:0:
28,285,99628,1,0,0:0:0:0:
34,53,99767,2,0,B|75:44|75:44|125:53,1,80.9999975280763,8|0,0:0|0:0,0:0:0:0:
182,205,100045,2,0,B|141:214|141:214|91:205,1,80.9999975280763,0|0,0:0|0:0,0:0:0:0:
296,64,100323,5,0,0:0:0:0:
330,208,100461,2,0,L|309:102,1,80.9999975280763,0|4,0:0|0:0,0:0:0:0:
384,36,100739,2,0,L|404:146,1,80.9999975280763,0|8,0:0|0:0,0:0:0:0:
432,276,101017,6,0,P|368:300|248:276,1,161.999995056153,0|0,0:0|0:0,0:0:0:0:
176,112,101434,5,4,0:0:0:0:
224,256,101573,1,0,0:0:0:0:
272,112,101711,2,0,L|296:24,1,80.9999975280763,0|0,0:0|0:0,0:0:0:0:
144,236,101989,2,0,P|88:248|44:248,1,80.9999975280763,8|0,0:0|0:0,0:0:0:0:
96,132,102267,2,0,P|152:124|184:128,1,80.9999975280763,0|0,0:0|0:0,0:0:0:0:
204,320,102545,5,0,0:0:0:0:
276,284,102684,1,0,0:0:0:0:
344,324,102823,1,4,0:0:0:0:
412,280,102961,2,0,B|428:232|428:232|412:176,1,80.9999975280763,0|8,0:0|0:0,0:0:0:0:
312,132,103239,2,0,P|364:108|488:132,1,161.999995056153,0|0,0:0|0:0,0:0:0:0:
144,28,103656,5,0,0:0:0:0:
196,176,103795,1,0,0:0:0:0:
40,160,103934,2,0,P|76:148|128:148,1,80.9999975280763,0|0,0:0|0:0,0:0:0:0:
116,316,104211,2,0,P|80:328|28:328,1,80.9999975280763,8|0,0:0|0:0,0:0:0:0:
240,248,104489,2,0,P|242:285|228:336,1,80.9999975280763,0|0,0:0|0:0,0:0:0:0:
336,64,104767,5,0,0:0:0:0:
384,216,104906,2,0,B|428:220|428:220|476:200,1,80.9999975280763,0|4,0:0|0:0,0:0:0:0:
272,112,105184,2,0,B|228:108|228:108|180:128,1,80.9999975280763,0|8,0:0|0:0,0:0:0:0:
168,212,105461,1,0,0:0:0:0:
168,212,105600,2,0,B|212:216|212:216|260:196,1,80.9999975280763,0|0,0:0|0:0,0:0:0:0:
40,64,105878,5,4,0:0:0:0:
112,204,106017,1,0,0:0:0:0:
120,76,106156,1,0,0:0:0:0:
60,304,106295,1,0,0:0:0:0:
200,152,106434,1,8,0:0:0:0:
24,176,106573,1,0,0:0:0:0:
216,316,106711,2,0,P|280:320|312:308,1,80.9999975280763,0|0,0:0|0:0,0:0:0:0:
400,128,106989,5,0,0:0:0:0:
428,240,107128,2,0,L|448:324,1,80.9999975280763,0|0,0:0|0:0,0:0:0:0:
336,224,107406,2,0,L|352:316,1,80.9999975280763,0|0,0:0|0:0,0:0:0:0:
240,200,107684,2,0,L|256:296,1,80.9999975280763,4|0,0:0|0:0,0:0:0:0:
156,56,108100,6,0,P|116:44|56:68,1,87.749995983124,4|0,0:0|0:0,0:0:0:0:
48,204,108378,2,0,P|88:216|148:192,1,87.749995983124,0|0,0:0|0:0,0:0:0:0:
200,148,108656,2,0,P|224:196|220:264,1,87.749995983124,8|0,0:0|0:0,0:0:0:0:
168,332,108934,2,0,P|232:328|276:336,1,87.749995983124,0|0,0:0|0:0,0:0:0:0:
400,172,109211,5,0,0:0:0:0:
416,264,109350,2,0,L|436:368,1,87.749995983124,0|4,0:0|0:0,0:0:0:0:
320,64,109628,5,0,0:0:0:0:
304,156,109767,2,0,L|284:252,1,87.749995983124,8|0,0:0|0:0,0:0:0:0:
188,180,110045,2,0,L|205:94,1,87.749995983124,0|0,0:0|0:0,0:0:0:0:
128,40,110323,6,0,L|44:12,2,87.749995983124,4|0|0,0:0|0:0|0:0,0:0:0:0:
32,244,110739,1,0,0:0:0:0:
168,288,110878,2,0,P|104:296|60:276,1,87.749995983124,8|0,0:0|0:0,0:0:0:0:
284,180,111156,1,0,0:0:0:0:
288,340,111295,2,0,P|304:296|300:228,1,87.749995983124,0|0,0:0|0:0,0:0:0:0:
336,56,111573,5,0,0:0:0:0:
372,184,111711,1,4,0:0:0:0:
448,84,111850,1,0,0:0:0:0:
480,260,111989,2,0,B|432:276|432:276|380:264,1,87.749995983124,8|0,0:0|0:0,0:0:0:0:
272,152,112267,2,0,B|320:136|320:136|372:148,1,87.749995983124,0|0,0:0|0:0,0:0:0:0:
128,336,112545,5,4,0:0:0:0:
168,124,112684,1,0,0:0:0:0:
288,284,112823,2,0,B|236:292|236:292|180:280,1,87.749995983124,0|0,0:0|0:0,0:0:0:0:
96,208,113100,6,0,B|140:200|140:200|204:212,1,87.749995983124,8|0,0:0|0:0,0:0:0:0:
12,268,113378,2,0,B|4:224|4:224|16:160,1,87.749995983124,0|0,0:0|0:0,0:0:0:0:
88,56,113656,5,0,0:0:0:0:
200,32,113795,1,0,0:0:0:0:
300,60,113934,2,0,B|308:104|308:104|296:168,1,87.749995983124,4|0,0:0|0:0,0:0:0:0:
188,236,114211,2,0,B|180:192|180:192|192:128,1,87.749995983124,8|0,0:0|0:0,0:0:0:0:
336,304,114489,2,0,B|292:312|292:312|228:300,1,87.749995983124,0|0,0:0|0:0,0:0:0:0:
460,160,114767,5,4,0:0:0:0:
448,288,114906,1,0,0:0:0:0:
404,112,115045,2,0,P|389:55|350:19,1,87.749995983124,0|0,0:0|0:0,0:0:0:0:
280,176,115323,2,0,P|336:192|387:176,1,87.749995983124,8|0,0:0|0:0,0:0:0:0:
288,32,115600,2,0,P|246:72|234:124,1,87.749995983124,0|0,0:0|0:0,0:0:0:0:
276,332,115878,6,0,B|180:304|184:360|64:312,1,202.500007724762,0|4,0:0|0:0,0:0:0:0:
84,220,116295,5,0,0:0:0:0:
84,220,116434,2,0,P|136:248|116:156,1,202.500007724762,8|0,0:0|0:0,0:0:0:0:
44,64,116850,5,0,0:0:0:0:
156,56,116989,2,0,L|260:48,1,87.749995983124,4|0,0:0|0:0,0:0:0:0:
340,188,117267,2,0,L|236:196,1,87.749995983124,0|0,0:0|0:0,0:0:0:0:
408,32,117545,2,0,L|416:136,1,87.749995983124,8|0,0:0|0:0,0:0:0:0:
432,248,117823,1,0,0:0:0:0:
432,248,117961,1,0,0:0:0:0:
248,216,118101,5,0,0:0:0:0:
360,328,118240,1,0,0:0:0:0:
352,188,118379,1,4,0:0:0:0:
216,336,118517,1,0,0:0:0:0:
144,228,118656,2,0,B|125:185|125:185|136:108,1,87.749995983124,8|0,0:0|0:0,0:0:0:0:
332,152,118934,2,0,B|280:168|280:168|212:160,1,87.749995983124,0|0,0:0|0:0,0:0:0:0:
308,40,119211,5,4,0:0:0:0:
408,24,119350,1,0,0:0:0:0:
492,80,119489,2,0,B|500:136|500:136|476:208,1,87.749995983124,0|0,0:0|0:0,0:0:0:0:
272,248,119767,6,0,P|316:236|380:244,1,87.749995983124,8|0,0:0|0:0,0:0:0:0:
416,332,120045,2,0,P|372:344|308:336,1,87.749995983124,0|0,0:0|0:0,0:0:0:0:
132,200,120323,5,0,0:0:0:0:
212,336,120461,1,0,0:0:0:0:
204,164,120600,1,4,0:0:0:0:
112,312,120739,1,0,0:0:0:0:
24,92,120878,2,0,P|92:64|240:88,1,175.499991966248,8|0,0:0|0:0,0:0:0:0:
296,136,121295,1,0,0:0:0:0:
260,320,121434,5,4,0:0:0:0:
384,256,121573,1,0,0:0:0:0:
144,208,121711,2,0,P|84:204|32:220,1,87.749995983124,0|0,0:0|0:0,0:0:0:0:
184,312,121989,6,0,P|228:224|184:104,1,175.499991966248,8|0,0:0|0:0,0:0:0:0:
88,72,122406,5,0,0:0:0:0:
216,60,122545,2,0,P|280:64|348:104,1,87.749995983124,0|0,0:0|0:0,0:0:0:0:
384,120,122823,2,0,P|433:111|477:86,1,87.749995983124,4|0,0:0|0:0,0:0:0:0:
320,192,123100,2,0,P|296:252|300:300,1,87.749995983124,8|0,0:0|0:0,0:0:0:0:
484,256,123378,2,0,P|444:205|400:184,1,87.749995983124,0|0,0:0|0:0,0:0:0:0:
87,123,123656,5,4,0:0:0:0:
87,224,123795,1,0,0:0:0:0:
184,92,123934,1,0,0:0:0:0:
243,174,124072,1,0,0:0:0:0:
77,118,124211,5,12,0:0:0:0:
77,234,124350,1,0,0:0:0:0:
189,82,124489,1,0,0:0:0:0:
256,177,124627,1,4,0:0:0:0:
66,113,124767,5,4,0:0:0:0:
66,246,124906,1,0,0:0:0:0:
194,72,125045,1,4,0:0:0:0:
272,180,125183,1,0,0:0:0:0:
53,107,125323,5,8,0:0:0:0:
53,259,125600,1,8,0:0:0:0:
332,296,125878,6,0,P|268:296|224:248,1,87.749995983124,4|0,0:0|0:0,0:0:0:0:
432,280,126156,1,0,0:0:0:0:
432,280,126295,1,0,0:0:0:0:
464,160,126434,2,0,B|472:112|424:58,1,87.749995983124,8|0,0:0|0:0,0:0:0:0:
308,236,126711,5,0,0:0:0:0:
308,236,126850,1,4,0:0:0:0:
276,116,126989,2,0,B|268:68|315:14,1,87.749995983124,0|0,0:0|0:0,0:0:0:0:
168,104,127267,5,4,0:0:0:0:
168,104,127406,1,0,0:0:0:0:
108,252,127545,2,0,P|56:264|-16:228,1,87.749995983124,8|0,0:0|0:0,0:0:0:0:
216,168,127823,2,0,P|223:210|211:252,1,87.749995983124,0|0,0:0|0:0,0:0:0:0:
120,352,128100,6,0,P|200:344|280:360,1,87.749995983124,4|0,0:0|0:0,0:0:0:0:
288,360,128378,2,0,P|344:360|420:336,1,87.749995983124,0|0,0:0|0:0,0:0:0:0:
444,280,128656,6,0,L|448:160,1,87.749995983124,8|0,0:0|0:0,0:0:0:0:
332,120,128934,2,0,L|328:240,1,87.749995983124,0|0,0:0|0:0,0:0:0:0:
480,92,129211,2,0,B|456:56|456:56|368:48,1,87.749995983124,0|0,0:0|0:0,0:0:0:0:
176,164,129489,2,0,B|200:200|200:200|288:208,1,87.749995983124,0|0,0:0|0:0,0:0:0:0:
96,80,129767,2,0,P|64:148|60:228,1,87.749995983124,8|0,0:0|0:0,0:0:0:0:
56,256,130045,1,0,0:0:0:0:
56,256,130184,1,0,0:0:0:0:
240,328,130323,6,0,P|260:292|240:200,1,87.749995983124,4|0,0:0|0:0,0:0:0:0:
260,156,130600,5,0,0:0:0:0:
260,156,130739,2,0,P|243:115|210:86,1,87.749995983124,0|8,0:0|0:0,0:0:0:0:
116,48,131017,5,0,0:0:0:0:
144,152,131156,1,0,0:0:0:0:
36,104,131295,1,4,0:0:0:0:
28,272,131434,2,0,B|76:288|76:288|176:260,1,87.749995983124,0|0,0:0|0:0,0:0:0:0:
200,228,131711,1,4,0:0:0:0:
200,228,131850,1,0,0:0:0:0:
324,344,131989,6,0,P|332:312|316:216,1,87.749995983124,8|0,0:0|0:0,0:0:0:0:
252,152,132267,2,0,P|284:160|380:144,1,87.749995983124,0|0,0:0|0:0,0:0:0:0:
400,48,132545,2,0,P|368:40|272:56,1,87.749995983124,4|0,0:0|0:0,0:0:0:0:
464,192,132823,2,0,P|473:149|470:105,1,87.749995983124,0|0,0:0|0:0,0:0:0:0:
312,224,133100,6,0,P|304:284|316:336,1,87.749995983124,8|0,0:0|0:0,0:0:0:0:
416,344,133378,2,0,P|419:300|411:257,1,87.749995983124,0|4,0:0|0:0,0:0:0:0:
368,140,133656,2,0,P|300:128|244:144,1,87.749995983124,0|0,0:0|0:0,0:0:0:0:
232,252,133934,5,4,0:0:0:0:
168,128,134073,1,0,0:0:0:0:
128,248,134211,2,0,L|96:336,1,87.749995983124,8|0,0:0|0:0,0:0:0:0:
24,224,134489,2,0,L|53:141,1,87.749995983124,0|0,0:0|0:0,0:0:0:0:
72,68,134767,6,0,P|116:52|196:60,1,87.749995983124,4|0,0:0|0:0,0:0:0:0:
240,176,135045,1,0,0:0:0:0:
240,176,135184,1,0,0:0:0:0:
312,32,135323,2,0,B|314:84|314:84|280:142,1,87.749995983124,8|0,0:0|0:0,0:0:0:0:
408,28,135600,2,0,B|460:26|460:26|518:60,1,87.749995983124,0|4,0:0|0:0,0:0:0:0:
432,204,135878,5,0,0:0:0:0:
476,112,136017,1,0,0:0:0:0:
372,344,136155,1,4,0:0:0:0:
344,156,136294,1,0,0:0:0:0:
480,276,136434,6,0,P|404:280|360:272,1,87.749995983124,8|0,0:0|0:0,0:0:0:0:
280,228,136711,1,0,0:0:0:0:
280,228,136850,1,0,0:0:0:0:
156,344,136989,6,0,P|149:279|166:224,1,87.749995983124,4|0,0:0|0:0,0:0:0:0:
208,148,137267,2,0,P|152:160|104:144,1,87.749995983124,0|0,0:0|0:0,0:0:0:0:
80,92,137545,6,0,P|97:37|135:3,1,87.749995983124,0|0,0:0|0:0,0:0:0:0:
204,16,137823,2,0,P|242:58|252:108,1,87.749995983124,0|0,0:0|0:0,0:0:0:0:
272,196,138100,2,0,P|320:156|364:136,1,87.749995983124,0|0,0:0|0:0,0:0:0:0:
492,172,138378,2,0,P|425:116|424:92,1,87.749995983124,0|0,0:0|0:0,0:0:0:0:
384,316,138656,5,8,0:0:0:0:
384,316,138795,1,0,0:0:0:0:
296,311,138934,2,0,L|168:296,1,87.749995983124,0|0,0:0|0:0,0:0:0:0:
56,128,139211,6,0,P|40:172|60:308,1,175.499991966248,4|0,0:0|0:0,0:0:0:0:
188,296,139767,2,0,P|207:211|186:126,1,175.499991966248,8|0,0:0|0:0,0:0:0:0:
124,68,140323,2,0,P|228:88|312:60,1,175.499991966248,0|4,0:0|0:0,0:0:0:0:
296,312,140878,6,0,P|224:328|176:320,1,87.749995983124,8|0,0:0|0:0,0:0:0:0:
112,220,141156,2,0,P|184:204|232:212,1,87.749995983124,0|4,0:0|0:0,0:0:0:0:
52,320,141434,1,4,0:0:0:0:
48,324,141573,2,0,B|24:292|24:292|24:144,1,175.499991966248,0|0,0:0|0:0,0:0:0:0:
112,76,141989,2,0,P|60:84|12:76,1,87.749995983124,8|0,0:0|0:0,0:0:0:0:
220,44,142267,5,0,0:0:0:0:
220,44,142406,1,4,0:0:0:0:
256,136,142545,2,0,P|268:196|264:228,1,87.749995983124,4|0,0:0|0:0,0:0:0:0:
152,316,142823,2,0,P|208:304|268:308,1,87.749995983124,4|0,0:0|0:0,0:0:0:0:
352,344,143100,2,0,P|352:288|376:224,1,87.749995983124,8|0,0:0|0:0,0:0:0:0:
476,152,143378,2,0,P|404:156|364:148,1,87.749995983124,0|0,0:0|0:0,0:0:0:0:
348,56,143656,5,0,0:0:0:0:
280,148,143795,1,0,0:0:0:0:
212,52,143934,1,0,0:0:0:0:
128,140,144073,1,0,0:0:0:0:
48,40,144211,2,0,P|36:88|40:136,2,87.749995983124,0|0|0,0:0|0:0|0:0,0:0:0:0:
176,284,144628,1,0,0:0:0:0:
294,213,144767,2,0,P|321:208|342:206,2,43.874997991562,0|0|0,0:0|0:0|0:0,0:0:0:0:
412,136,145045,6,0,P|448:128|504:132,1,87.749995983124,0|0,0:0|0:0,0:0:0:0:
420,284,145323,2,0,P|395:256|370:206,1,87.749995983124,0|0,0:0|0:0,0:0:0:0:
336,88,145600,1,0,0:0:0:0:
216,152,145739,1,0,0:0:0:0:
76,296,145878,5,0,0:0:0:0:
264,264,146017,1,0,0:0:0:0:
64,176,146156,1,0,0:0:0:0:
184,344,146295,1,0,0:0:0:0:
128,96,146434,2,0,L|152:216,2,87.749995983124,0|0|0,0:0|0:0|0:0,0:0:0:0:
240,32,146850,6,0,L|252:144,1,87.749995983124,0|0,0:0|0:0,0:0:0:0:
264,216,147128,1,0,0:0:0:0:
416,192,147267,2,0,L|400:292,1,87.749995983124,0|0,0:0|0:0,0:0:0:0:
344,120,147545,2,0,L|360:28,2,87.749995983124,0|0|0,0:0|0:0|0:0,0:0:0:0:
304,256,147961,2,0,L|296:292,2,21.937498995781,0|0|0,0:0|0:0|0:0,0:0:0:0:
176,120,148100,5,0,0:0:0:0:
32,132,148239,1,0,0:0:0:0:
192,204,148378,1,0,0:0:0:0:
32,252,148517,1,0,0:0:0:0:
116,60,148656,2,0,P|176:40|228:40,1,87.749995983124,0|0,0:0|0:0,0:0:0:0:
192,284,148934,1,0,0:0:0:0:
192,284,149073,6,0,P|144:296|88:288,1,87.749995983124,0|0,0:0|0:0,0:0:0:0:
224,172,149350,2,0,P|284:164|336:172,1,87.749995983124,0|0,0:0|0:0,0:0:0:0:
424,320,149767,2,0,B|448:240|448:240|436:132,1,175.499991966248,0|0,0:0|0:0,0:0:0:0:
412,56,150184,1,0,0:0:0:0:
412,56,150323,2,0,B|296:48,1,87.749995983124,0|0,0:0|0:0,0:0:0:0:
340,232,150600,6,0,P|352:196|348:144,1,87.749995983124,0|0,0:0|0:0,0:0:0:0:
163,242,150878,2,0,P|159:286|172:328,1,87.749995983124,0|0,0:0|0:0,0:0:0:0:
252,240,151156,2,0,P|264:204|260:152,1,87.749995983124,0|0,0:0|0:0,0:0:0:0:
75,250,151434,2,0,P|71:293|83:335,1,87.749995983124,0|0,0:0|0:0,0:0:0:0:
88,120,151711,5,0,0:0:0:0:
88,120,151850,1,0,0:0:0:0:
88,120,151989,2,0,P|148:112|192:116,1,87.749995983124,0|0,0:0|0:0,0:0:0:0:
356,40,152267,2,0,P|295:47|254:63,1,87.749995983124,0|0,0:0|0:0,0:0:0:0:
208,244,152545,5,0,0:0:0:0:
252,144,152684,1,0,0:0:0:0:
304,240,152823,1,0,0:0:0:0:
356,136,152961,1,0,0:0:0:0:
436,276,153100,2,0,B|460:236|460:236|452:176,2,87.749995983124,0|0|0,0:0|0:0|0:0,0:0:0:0:
324,360,153517,5,0,0:0:0:0:
160,324,153656,2,0,L|121:303,2,43.874997991562,0|0|0,0:0|0:0|0:0,0:0:0:0:
36,240,153934,2,0,P|32:172|48:148,1,87.749995983124,0|0,0:0|0:0,0:0:0:0:
208,60,154211,6,0,P|128:76|36:44,1,175.499991966248,0|0,0:0|0:0,0:0:0:0:
296,28,154628,1,0,0:0:0:0:
316,200,154767,5,0,0:0:0:0:
396,84,154906,1,0,0:0:0:0:
400,252,155045,1,0,0:0:0:0:
248,132,155184,1,0,0:0:0:0:
244,320,155323,2,0,B|220:284|220:284|224:188,1,87.749995983124,0|0,0:0|0:0,0:0:0:0:
324,168,155600,2,0,B|337:210|337:210|323:251,2,87.749995983124,0|0|0,0:0|0:0|0:0,0:0:0:0:
144,128,156017,5,0,0:0:0:0:
144,128,156156,2,0,L|144:220,1,87.749995983124,0|0,0:0|0:0,0:0:0:0:
32,320,156434,2,0,B|30:249|30:249|45:224|45:224|48:96,1,175.499991966248,0|0,0:0|0:0,0:0:0:0:
44,56,156850,2,0,L|32:36,2,21.937498995781,0|0|0,0:0|0:0|0:0,0:0:0:0:
176,56,156989,5,0,0:0:0:0:
180,171,157128,1,0,0:0:0:0:
330,34,157267,1,0,0:0:0:0:
392,132,157406,1,0,0:0:0:0:
340,292,157545,2,0,P|328:236|344:176,1,87.749995983124,0|0,0:0|0:0,0:0:0:0:
248,356,157823,1,0,0:0:0:0:
248,356,157961,2,0,L|240:296,2,43.874997991562,0|0|0,0:0|0:0|0:0,0:0:0:0:
184,128,158239,1,0,0:0:0:0:
120,232,158378,6,0,P|104:284|112:328,1,87.749995983124,0|0,0:0|0:0,0:0:0:0:
168,52,158656,2,0,P|96:40|-16:68,1,175.499991966248,0|0,0:0|0:0,0:0:0:0:
56,160,159073,1,0,0:0:0:0:
56,160,159211,2,0,P|128:156|184:160,1,87.749995983124,0|0,0:0|0:0,0:0:0:0:
316,264,159489,6,0,P|320:212|304:164,1,87.749995983124,0|0,0:0|0:0,0:0:0:0:
212,240,159767,2,0,P|202:282|206:325,1,87.749995983124,0|0,0:0|0:0,0:0:0:0:
392,44,160045,6,0,P|340:40|292:56,1,87.749995983124,0|0,0:0|0:0,0:0:0:0:
396,172,160323,2,0,P|438:181|481:177,1,87.749995983124,0|0,0:0|0:0,0:0:0:0:
220,100,160600,2,0,P|177:90|134:94,1,87.749995983124,0|0,0:0|0:0,0:0:0:0:
288,192,160878,2,0,P|331:182|374:186,1,87.749995983124,0|0,0:0|0:0,0:0:0:0:
208,272,161156,2,0,P|165:262|122:266,1,87.749995983124,0|0,0:0|0:0,0:0:0:0:
361,277,161989,5,8,0:0:0:0:
140,280,162545,6,0,L|260:268,1,87.749995983124,4|0,0:0|0:0,0:0:0:0:
152,136,162823,2,0,L|40:144,1,87.749995983124,0|0,0:0|0:0,0:0:0:0:
280,48,163100,2,0,L|376:40,1,87.749995983124,8|0,0:0|0:0,0:0:0:0:
352,204,163378,2,0,L|256:212,1,87.749995983124,0|0,0:0|0:0,0:0:0:0:
452,60,163656,5,0,0:0:0:0:
472,140,163795,2,0,L|488:248,1,87.749995983124,0|4,0:0|0:0,0:0:0:0:
320,320,164073,5,0,0:0:0:0:
304,240,164211,2,0,L|288:132,1,87.749995983124,8|0,0:0|0:0,0:0:0:0:
168,80,164489,2,0,L|180:166,1,87.749995983124,0|0,0:0|0:0,0:0:0:0:
112,292,164767,6,0,P|86:256|79:213,2,87.749995983124,4|0|0,0:0|0:0|0:0,0:0:0:0:
144,48,165184,1,0,0:0:0:0:
304,144,165323,2,0,B|256:156|256:156|204:144,1,87.749995983124,8|0,0:0|0:0,0:0:0:0:
356,208,165600,1,0,0:0:0:0:
248,64,165739,2,0,B|296:52|296:52|333:60,1,87.749995983124,0|0,0:0|0:0,0:0:0:0:
148,172,166017,2,0,B|136:220|136:220|144:257,1,87.749995983124,0|4,0:0|0:0,0:0:0:0:
88,72,166295,5,0,0:0:0:0:
89,71,166434,2,0,P|58:102|42:143,1,87.749995983124,8|0,0:0|0:0,0:0:0:0:
220,132,166711,2,0,P|251:101|267:60,1,87.749995983124,0|0,0:0|0:0,0:0:0:0:
272,320,166989,5,4,0:0:0:0:
244,196,167128,1,0,0:0:0:0:
160,304,167267,2,0,B|108:304|108:304|56:280,1,87.749995983124,0|0,0:0|0:0,0:0:0:0:
72,96,167545,6,0,L|64:224,1,87.749995983124,8|0,0:0|0:0,0:0:0:0:
168,32,167823,2,0,L|176:160,1,87.749995983124,0|0,0:0|0:0,0:0:0:0:
180,240,168100,5,0,0:0:0:0:
180,240,168239,1,0,0:0:0:0:
304,172,168378,1,4,0:0:0:0:
304,172,168517,1,0,0:0:0:0:
324,336,168656,6,0,P|308:296|304:224,1,87.749995983124,8|0,0:0|0:0,0:0:0:0:
400,176,168934,2,0,P|416:216|423:259,1,87.749995983124,0|0,0:0|0:0,0:0:0:0:
444,56,169211,5,4,0:0:0:0:
356,72,169350,1,0,0:0:0:0:
268,88,169489,2,0,L|156:116,1,87.749995983124,0|0,0:0|0:0,0:0:0:0:
112,320,169767,6,0,P|84:276|92:132,1,175.499991966248,8|0,0:0|0:0,0:0:0:0:
188,200,170184,1,0,0:0:0:0:
292,256,170323,2,0,P|308:170|278:89,1,175.499991966248,0|4,0:0|0:0,0:0:0:0:
212,300,170739,1,0,0:0:0:0:
384,284,170878,2,0,P|434:276|476:291,1,87.749995983124,8|0,0:0|0:0,0:0:0:0:
328,88,171156,5,0,0:0:0:0:
328,88,171295,1,0,0:0:0:0:
224,148,171434,6,0,P|172:160|112:144,1,87.749995983124,4|0,0:0|0:0,0:0:0:0:
80,40,171711,2,0,P|132:28|192:44,1,87.749995983124,0|0,0:3|0:3,0:0:0:0:
96,232,171989,2,0,P|59:192|43:133,1,87.749995983124,8|0,0:0|0:0,0:0:0:0:
206,304,172267,5,0,0:0:0:0:
206,304,172406,1,0,0:0:0:0:
206,304,172545,2,0,P|281:289|332:289,1,87.749995983124,0|0,0:0|0:0,0:0:0:0:
395,354,172823,6,0,P|381:270|388:238,1,87.749995983124,4|0,0:0|0:0,0:0:0:0:
446,168,173100,2,0,P|397:180|333:164,1,87.749995983124,8|0,0:0|0:0,0:0:0:0:
428,32,173378,2,0,P|462:68|481:131,1,87.749995983124,0|0,0:0|0:0,0:0:0:0:
204,64,173656,5,4,0:0:0:0:
292,152,173795,1,0,0:0:0:0:
172,188,173934,2,0,L|64:200,1,87.749995983124,0|0,0:0|0:0,0:0:0:0:
52,332,174211,6,0,L|152:320,1,87.749995983124,8|0,0:0|0:0,0:0:0:0:
312,256,174489,2,0,L|212:268,1,87.749995983124,0|0,0:0|0:0,0:0:0:0:
416,336,174767,5,0,0:0:0:0:
436,252,174906,1,0,0:0:0:0:
424,164,175045,1,4,0:0:0:0:
424,76,175184,1,0,0:0:0:0:
240,172,175323,2,0,B|220:128|220:128|240:64,1,87.749995983124,8|0,0:0|0:0,0:0:0:0:
336,144,175600,2,0,B|347:181|347:181|327:225,1,87.749995983124,0|0,0:0|0:0,0:0:0:0:
208,292,175878,6,0,P|156:300|116:296,2,87.749995983124,4|0|0,0:0|0:0|0:0,0:0:0:0:
48,104,176295,1,0,0:0:0:0:
36,280,176434,2,0,L|44:152,1,87.749995983124,8|0,0:0|0:0,0:0:0:0:
136,348,176711,1,0,0:0:0:0:
224,336,176850,2,0,P|280:328|332:324,1,87.749995983124,0|0,0:0|0:0,0:0:0:0:
408,340,177128,5,0,0:0:0:0:
408,340,177267,2,0,L|412:224,1,87.749995983124,4|0,0:0|0:0,0:0:0:0:
328,116,177545,2,0,L|324:236,1,87.749995983124,8|0,0:0|0:0,0:0:0:0:
196,308,177823,2,0,L|196:204,1,87.749995983124,0|0,0:0|0:0,0:0:0:0:
39,46,178100,5,4,0:0:0:0:
57,168,178239,1,0,0:0:0:0:
142,35,178378,1,0,0:0:0:0:
160,155,178517,1,0,0:0:0:0:
32,40,178656,5,12,0:0:0:0:
52,174,178795,1,0,0:0:0:0:
146,28,178934,1,0,0:0:0:0:
166,160,179073,1,4,0:0:0:0:
28,36,179211,5,4,0:0:0:0:
49,179,179350,1,0,0:0:0:0:
149,23,179489,1,4,0:0:0:0:
170,164,179628,1,0,0:0:0:0:
37,35,179767,5,0,0:0:0:0:
58,178,180045,5,0,0:0:0:0:
240,120,180323,6,0,P|304:141|345:144,1,87.749995983124,4|0,0:0|0:0,0:0:0:0:
436,140,180600,1,0,0:0:0:0:
416,44,180739,1,0,0:0:0:0:
372,264,180878,2,0,P|303:268|263:259,1,87.749995983124,8|0,0:0|0:0,0:0:0:0:
184,248,181156,5,0,0:0:0:0:
184,248,181295,1,4,0:0:0:0:
60,324,181434,2,0,P|44:248|52:208,1,87.749995983124,0|0,0:0|0:0,0:0:0:0:
172,144,181711,1,4,0:0:0:0:
56,140,181850,1,0,0:0:0:0:
176,52,181989,6,0,B|220:40|220:40|262:40,1,87.749995983124,8|0,0:0|0:0,0:0:0:0:
312,168,182267,2,0,B|268:180|268:180|225:180,1,87.749995983124,0|0,0:0|0:0,0:0:0:0:
432,32,182545,2,0,B|444:76|444:76|444:118,1,87.749995983124,4|0,0:0|0:0,0:0:0:0:
392,180,182823,2,0,B|391:225|391:225|402:266,1,87.749995983124,0|0,0:0|0:0,0:0:0:0:
316,328,183100,6,0,P|248:336|200:328,1,87.749995983124,0|0,0:0|0:0,0:0:0:0:
160,244,183378,2,0,P|228:236|276:244,1,87.749995983124,0|0,0:0|0:0,0:0:0:0:
60,292,183656,6,0,P|52:224|60:176,1,87.749995983124,0|0,0:0|0:0,0:0:0:0:
168,104,183934,2,0,P|176:172|168:220,1,87.749995983124,0|0,0:0|0:0,0:0:0:0:
52,48,184211,1,8,0:0:0:0:
52,48,184350,1,0,0:0:0:0:
52,48,184489,2,0,P|124:36|176:40,1,87.749995983124,0|0,0:0|0:0,0:0:0:0:
284,172,184767,6,0,P|272:120|276:56,1,87.749995983124,4|0,0:0|0:0,0:0:0:0:
388,144,185045,1,0,0:0:0:0:
392,40,185184,1,0,0:0:0:0:
320,252,185323,2,0,P|308:312|308:360,1,87.749995983124,8|0,0:0|0:0,0:0:0:0:
164,200,185600,5,0,0:0:0:0:
164,200,185739,1,4,0:0:0:0:
148,344,185878,2,0,L|158:256,1,87.749995983124,0|0,0:0|0:0,0:0:0:0:
44,248,186156,1,4,0:0:0:0:
44,248,186295,1,0,0:0:0:0:
44,248,186434,2,0,L|33:160,1,87.749995983124,8|0,0:0|0:0,0:0:0:0:
216,140,186712,2,0,L|226:52,1,87.749995983124,0|0,0:0|0:0,0:0:0:0:
380,288,186989,6,0,B|360:216|408:176|376:80,1,175.499991966248,4|0,0:0|0:0,0:0:0:0:
336,40,187406,1,0,0:0:0:0:
272,240,187545,2,0,P|224:252|168:248,1,87.749995983124,8|0,0:0|0:0,0:0:0:0:
80,140,187823,2,0,P|128:128|184:132,1,87.749995983124,0|4,0:0|0:0,0:0:0:0:
136,316,188100,2,0,P|88:328|32:324,1,87.749995983124,0|0,0:0|0:0,0:0:0:0:
152,208,188378,5,4,0:0:0:0:
304,188,188517,1,0,0:0:0:0:
52,164,188656,2,0,P|12:184|-4:239,1,87.749995983124,8|0,0:0|0:0,0:0:0:0:
104,80,188934,2,0,P|102:35|59:-3,1,87.749995983124,0|0,0:0|0:0,0:0:0:0:
164,148,189211,6,0,P|227:173|275:165,1,87.749995983124,4|0,0:0|0:0,0:0:0:0:
368,144,189489,1,0,0:0:0:0:
324,56,189628,1,0,0:0:0:0:
327,251,189767,2,0,P|334:295|353:334,1,87.749995983124,8|0,0:0|0:0,0:0:0:0:
460,280,190045,1,0,0:0:0:0:
460,280,190184,1,4,0:0:0:0:
460,280,190323,6,0,P|472:224|464:176,2,87.749995983124,0|0|4,0:0|0:0|0:0,0:0:0:0:
240,144,190739,1,0,0:0:0:0:
240,144,190878,6,0,P|228:186|230:229,2,87.749995983124,8|0|0,0:0|0:0|0:0,0:0:0:0:
252,328,191295,1,0,0:0:0:0:
252,328,191434,6,0,P|184:336|148:336,1,87.749995983124,4|0,0:0|0:0,0:0:0:0:
88,316,191711,2,0,P|80:248|80:212,1,87.749995983124,0|0,0:0|0:0,0:0:0:0:
136,80,191989,6,0,P|88:88|40:80,1,87.749995983124,0|0,0:0|0:0,0:0:0:0:
272,52,192267,2,0,P|216:44|168:52,1,87.749995983124,0|0,0:0|0:0,0:0:0:0:
356,124,192545,2,0,P|292:136|244:124,1,87.749995983124,0|0,0:0|0:0,0:0:0:0:
464,56,192823,2,0,P|412:48|360:48,1,87.749995983124,0|0,0:0|0:0,0:0:0:0:
284,240,193100,5,8,0:0:0:0:
365,272,193239,1,0,0:0:0:0:
446,305,193378,2,0,L|330:326,1,87.749995983124,0|0,0:0|0:0,0:0:0:0:
60,264,193656,6,0,P|33:174|53:60,1,175.499991966248,4|0,0:0|0:0,0:0:0:0:
272,188,194211,2,0,P|207:256|98:296,1,175.499991966248,8|0,0:0|0:0,0:0:0:0:
96,48,194767,2,0,P|187:69|276:143,1,175.499991966248,0|4,0:0|0:0,0:0:0:0:
344,208,195184,1,0,0:0:0:0:
468,56,195323,2,0,P|476:112|464:240,1,175.499991966248,8|0,0:0|0:0,0:0:0:0:
384,328,195739,5,4,0:0:0:0:
384,328,195878,2,0,P|312:308|284:312,1,87.749995983124,4|0,0:0|0:0,0:0:0:0:
196,320,196156,2,0,P|233:255|237:227,1,87.749995983124,0|0,0:0|0:0,0:0:0:0:
128,132,196434,2,0,P|192:169|220:173,1,87.749995983124,8|0,0:0|0:0,0:0:0:0:
200,56,196711,6,0,P|135:18|107:14,1,87.749995983124,0|4,0:0|0:0,0:0:0:0:
272,152,196989,2,0,P|336:189|364:193,1,87.749995983124,4|0,0:0|0:0,0:0:0:0:
352,24,197267,2,0,P|286:60|269:83,1,87.749995983124,4|0,0:0|0:0,0:0:0:0:
424,156,197545,1,8,0:0:0:0:
424,156,197684,2,0,P|424:81|413:55,1,87.749995983124,0|0,0:0|0:0,0:0:0:0:
408,296,197961,2,0,L|456:288,1,43.874997991562,0|0,0:0|0:0,0:0:0:0:
248,252,198100,6,0,P|208:252|144:264,1,87.749995983124,4|0,0:0|0:0,0:0:0:0:
48,208,198378,1,0,0:0:0:0:
84,312,198517,1,0,0:0:0:0:
128,96,198656,2,0,P|152:48|188:16,1,87.749995983124,8|0,0:0|0:0,0:0:0:0:
384,120,198934,5,0,0:0:0:0:
196,156,199073,1,4,0:0:0:0:
312,52,199211,2,0,P|368:40|436:32,1,87.749995983124,0|0,0:0|0:0,0:0:0:0:
440,224,199489,5,4,0:0:0:0:
440,224,199628,1,0,0:0:0:0:
348,312,199767,2,0,P|288:320|240:312,1,87.749995983124,8|0,0:0|0:0,0:0:0:0:
172,196,200045,2,0,P|232:188|280:196,1,87.749995983124,0|0,0:0|0:0,0:0:0:0:
88,336,200323,6,0,P|72:272|76:212,1,87.749995983124,4|0,0:0|0:0,0:0:0:0:
76,168,200600,2,0,P|123:122|177:95,1,87.749995983124,0|0,0:0|0:0,0:0:0:0:
316,64,200878,6,0,L|216:112,1,87.749995983124,0|0,0:0|0:0,0:0:0:0:
384,132,201156,2,0,L|276:105,1,87.749995983124,0|0,0:0|0:0,0:0:0:0:
392,228,201434,2,0,L|327:138,1,87.749995983124,0|0,0:0|0:0,0:0:0:0:
336,307,201711,2,0,L|345:197,1,87.749995983124,0|0,0:0|0:0,0:0:0:0:
244,352,201989,1,8,0:0:0:0:
244,352,202128,1,0,0:0:0:0:
244,352,202267,6,0,P|176:356|124:336,1,87.749995983124,0|0,0:0|0:0,0:0:0:0:
64,184,202545,1,4,0:0:0:0:
48,304,202684,1,0,0:0:0:0:
148,124,202823,2,0,P|192:108|232:108,1,87.749995983124,0|0,0:0|0:0,0:0:0:0:
240,288,203100,2,0,P|224:244|224:204,2,87.749995983124,8|0|0,0:0|0:0|0:0,0:0:0:0:
320,64,203517,1,4,0:0:0:0:
372,232,203656,2,0,P|364:168|344:120,1,87.749995983124,0|0,0:0|0:0,0:0:0:0:
296,328,203934,5,4,0:0:0:0:
296,328,204073,1,0,0:0:0:0:
296,328,204211,2,0,P|359:336|411:329,1,87.749995983124,8|0,0:0|0:0,0:0:0:0:
232,224,204489,2,0,P|168:215|116:222,1,87.749995983124,0|0,0:0|0:0,0:0:0:0:
60,336,204767,6,0,P|40:268|48:224,1,87.749995983124,4|0,0:0|0:0,0:0:0:0:
124,152,205045,2,0,P|72:160|28:156,1,87.749995983124,0|0,0:0|0:0,0:0:0:0:
232,36,205323,6,0,L|228:156,1,87.749995983124,8|0,0:0|0:0,0:0:0:0:
228,216,205600,1,0,0:0:0:0:
228,216,205739,1,4,0:0:0:0:
352,40,205878,2,0,L|348:128,1,87.749995983124,0|0,0:0|0:0,0:0:0:0:
348,224,206156,5,4,0:0:0:0:
348,224,206295,1,0,0:0:0:0:
464,40,206434,2,0,L|460:127,1,87.749995983124,8|0,0:0|0:0,0:0:0:0:
456,228,206711,2,0,L|452:328,1,87.749995983124,0|0,0:0|0:0,0:0:0:0:
256,344,206989,5,4,0:0:0:0:
176,268,207128,1,0,0:0:0:0:
336,196,207267,1,0,0:0:0:0:
144,104,207406,1,0,0:0:0:0:
276,64,207545,2,0,P|332:56|384:56,1,87.749995983124,8|0,0:0|0:0,0:0:0:0:
236,204,207823,5,0,0:0:0:0:
236,204,207961,1,4,0:0:0:0:
236,204,208100,2,0,P|180:211|127:212,1,87.749995983124,0|0,0:0|0:0,0:0:0:0:
48,168,208378,5,4,0:0:0:0:
96,308,208517,1,0,0:0:0:0:
144,108,208656,2,0,L|160:12,1,87.749995983124,8|0,0:0|0:0,0:0:0:0:
272,84,208934,1,0,0:0:0:0:
272,84,209073,1,0,0:0:0:0:
384,48,209211,6,0,P|408:104|408:156,1,87.749995983124,4|0,0:0|0:0,0:0:0:0:
324,252,209489,2,0,P|380:244|420:248,1,87.749995983124,0|0,0:0|0:0,0:0:0:0:
216,348,209767,2,0,P|208:304|220:248,1,87.749995983124,0|0,0:0|0:0,0:0:0:0:
284,172,210045,2,0,P|240:180|184:168,1,87.749995983124,0|0,0:0|0:0,0:0:0:0:
96,124,210323,2,0,P|124:184|120:232,1,87.749995983124,0|0,0:0|0:0,0:0:0:0:
48,320,210600,2,0,P|20:260|24:212,1,87.749995983124,0|0,0:0|0:0,0:0:0:0:
16,148,210878,5,8,0:0:0:0:
16,148,211017,2,0,L|24:52,2,87.749995983124,0|0|0,0:0|0:0|0:0,0:0:0:0:
92,84,211434,6,0,P|148:72|272:100,1,175.499991966248,4|0,0:0|0:0,0:0:0:0:
112,308,211989,2,0,P|73:265|35:144,1,175.499991966248,8|0,0:0|0:0,0:0:0:0:
296,176,212545,2,0,P|278:230|192:323,1,175.499991966248,4|4,0:0|0:0,0:0:0:0:
452,260,213100,2,0,P|452:172|418:92,1,175.499991966248,8|0,0:0|0:0,0:0:0:0:
348,32,213517,1,4,0:0:0:0:
348,32,213656,6,0,B|320:76|320:76|340:204,1,175.499991966248,4|0,0:0|0:0,0:0:0:0:
372,292,214073,1,0,0:0:0:0:
196,308,214211,2,0,P|244:288|304:284,1,87.749995983124,8|4,0:0|0:0,0:0:0:0:
180,204,214489,6,0,P|137:212|99:234,1,87.749995983124,0|0,0:0|0:0,0:0:0:0:
77,156,214767,2,0,P|120:155|162:170,1,87.749995983124,4|0,0:0|0:0,0:0:0:0:
185,125,215045,2,0,P|157:92|118:71,1,87.749995983124,0|0,0:0|0:0,0:0:0:0:
197,19,215323,2,0,P|219:56|228:99,1,87.749995983124,4|0,0:0|0:0,0:0:0:0:
228,96,215878,5,4,0:0:0:0:
408,192,217823,5,4,0:0:0:0:
386,193,217892,1,4,0:0:0:0:
364,195,217961,1,4,0:0:0:0:
342,197,218031,1,4,0:0:0:0:
320,200,218100,6,0,L|216:208,1,87.749995983124,4|0,0:0|0:0,0:0:0:0:
148,88,218378,2,0,L|256:80,1,87.749995983124,4|0,0:0|0:0,0:0:0:0:
128,264,218656,1,8,0:0:0:0:
48,216,218795,2,0,P|40:144|48:104,1,87.749995983124,0|0,0:0|0:0,0:0:0:0:
223,324,219073,2,0,P|232:281|230:237,1,87.749995983124,0|0,0:0|0:0,0:0:0:0:
224,136,219350,6,0,P|280:144|376:120,1,131.624993974686,0|0,0:0|0:0,0:0:0:0:
408,40,219628,2,0,P|368:32|340:40,1,43.874997991562,0|0,0:0|0:0,0:0:0:0:
352,216,219767,2,0,P|404:232|472:216,1,87.749995983124,8|0,0:0|0:0,0:0:0:0:
284,304,220045,2,0,P|336:320|404:304,1,87.749995983124,0|0,0:0|0:0,0:0:0:0:
120,136,220323,5,4,0:0:0:0:
156,240,220461,1,0,0:0:0:0:
108,112,220600,2,0,L|72:24,1,87.749995983124,0|0,0:0|0:0,0:0:0:0:
28,308,220878,6,0,P|81:296|127:316,1,87.749995983124,8|0,0:0|0:0,0:0:0:0:
180,328,221156,2,0,P|222:337|264:326,1,87.749995983124,0|0,0:0|0:0,0:0:0:0:
312,268,221434,2,0,P|365:256|411:276,1,87.749995983124,0|0,0:0|0:0,0:0:0:0:
480,332,221711,2,0,P|480:252|488:216,1,87.749995983124,4|0,0:0|0:0,0:0:0:0:
424,80,221989,2,0,P|424:160|416:196,1,87.749995983124,8|0,0:0|0:0,0:0:0:0:
336,160,222267,2,0,P|272:148|220:152,1,87.749995983124,0|0,0:0|0:0,0:0:0:0:
168,156,222545,6,0,P|116:172|76:192,1,87.749995983124,4|0,0:0|0:0,0:0:0:0:
0,112,222823,2,0,P|40:88|88:72,1,87.749995983124,0|0,0:0|0:0,0:0:0:0:
256,36,223100,2,0,P|211:23|160:20,1,87.749995983124,8|0,0:0|0:0,0:0:0:0:
328,96,223378,2,0,P|370:108|413:112,1,87.749995983124,0|0,0:0|0:0,0:0:0:0:
496,48,223656,2,0,L|496:140,1,87.749995983124,0|0,0:0|0:0,0:0:0:0:
432,192,223934,2,0,L|432:296,1,87.749995983124,4|0,0:0|0:0,0:0:0:0:
344,356,224211,2,0,L|344:256,1,87.749995983124,8|0,0:0|0:0,0:0:0:0:
340,168,224489,1,2,0:0:0:0:
340,168,224628,1,0,0:0:0:0:
236,284,224767,6,0,P|152:304|52:284,1,175.499991966248,4|0,0:0|0:0,0:0:0:0:
32,96,225184,1,0,0:0:0:0:
88,216,225323,1,8,0:0:0:0:
152,108,225461,2,0,P|126:70|74:32,1,87.749995983124,0|0,0:0|0:0,0:0:0:0:
236,164,225739,2,0,P|240:118|225:56,1,87.749995983124,0|0,0:0|0:0,0:0:0:0:
276,264,226017,6,0,P|344:272|432:248,1,131.624993974686,0|0,0:0|0:0,0:0:0:0:
456,252,226295,1,0,0:0:0:0:
504,132,226434,1,8,0:0:0:0:
368,160,226573,1,0,0:0:0:0:
432,48,226711,1,0,0:0:0:0:
380,320,226850,1,0,0:0:0:0:
380,320,226989,6,0,P|330:328|260:312,2,87.749995983124,4|0|0,0:0|0:0|0:0,0:0:0:0:
213,289,227406,1,0,0:0:0:0:
197,204,227545,1,8,0:0:0:0:
48,152,227684,2,0,P|96:136|144:128,1,87.749995983124,0|0,0:0|0:0,0:0:0:0:
88,32,227961,2,0,P|137:42|183:59,1,87.749995983124,0|0,0:0|0:0,0:0:0:0:
272,100,228239,6,0,P|312:116|404:104,1,131.624993974686,0|0,0:0|0:0,0:0:0:0:
432,88,228517,2,0,P|456:68|484:64,1,43.874997991562,0|0,0:0|0:0,0:0:0:0:
444,256,228656,2,0,P|396:268|348:256,1,87.749995983124,8|0,0:0|0:0,0:0:0:0:
204,200,228934,2,0,P|264:196|312:208,1,87.749995983124,0|0,0:0|0:0,0:0:0:0:
256,336,229211,6,0,P|196:340|152:328,2,87.749995983124,4|0|0,0:0|0:0|0:0,0:0:0:0:
60,208,229628,1,0,0:0:0:0:
32,80,229767,6,0,P|80:88|128:76,1,87.749995983124,8|0,0:0|0:0,0:0:0:0:
192,48,230045,2,0,P|252:40|304:44,1,87.749995983124,0|0,0:0|0:0,0:0:0:0:
368,72,230323,2,0,P|416:80|464:72,1,87.749995983124,0|0,0:0|0:0,0:0:0:0:
492,176,230600,2,0,P|432:196|400:188,1,87.749995983124,4|0,0:0|0:0,0:0:0:0:
328,304,230878,2,0,P|389:291|413:268,1,87.749995983124,8|0,0:0|0:0,0:0:0:0:
228,352,231156,2,0,P|180:310|171:278,1,87.749995983124,0|0,0:0|0:0,0:0:0:0:
248,164,231434,6,0,P|184:192|140:200,1,87.749995983124,4|0,0:0|0:0,0:0:0:0:
80,196,231711,2,0,P|24:184|0:168,1,87.749995983124,0|0,0:0|0:0,0:0:0:0:
24,48,231989,2,0,P|80:60|104:76,1,87.749995983124,8|0,0:0|0:0,0:0:0:0:
199,76,232267,2,0,P|236:54|280:48,1,87.749995983124,0|0,0:0|0:0,0:0:0:0:
355,55,232545,2,0,P|398:61|436:84,1,87.749995983124,0|0,0:0|0:0,0:0:0:0:
416,260,232823,2,0,P|416:200|424:168,1,87.749995983124,4|0,0:0|0:0,0:0:0:0:
336,336,233100,2,0,P|336:264|344:232,1,87.749995983124,8|0,0:0|0:0,0:0:0:0:
204,176,233378,1,2,0:0:0:0:
208,272,233517,1,0,0:0:0:0:
152,100,233656,6,0,L|36:124,1,87.749995983124,4|0,0:0|0:0,0:0:0:0:
40,240,233934,2,0,L|128:216,1,87.749995983124,4|0,0:0|0:0,0:0:0:0:
252,172,234211,1,0,0:0:0:0:
252,172,234350,1,8,0:0:0:0:
252,172,234628,2,0,L|352:156,1,87.749995983124,4|0,0:0|0:0,0:0:0:0:
324,308,234906,2,0,L|232:328,1,87.749995983124,4|4,0:0|0:0,0:0:0:0:
424,208,235184,5,0,0:0:0:0:
480,328,235323,2,0,P|496:264|488:216,1,87.749995983124,0|0,0:0|0:0,0:0:0:0:
412,112,235600,2,0,P|448:120|500:108,1,87.749995983124,8|8,0:0|0:0,0:0:0:0:
220,40,235878,6,0,P|208:100|216:160,1,87.749995983124,4|0,0:0|0:0,0:0:0:0:
313,210,236156,2,0,P|323:167|324:124,1,87.749995983124,4|0,0:0|0:0,0:0:0:0:
184,228,236434,1,8,0:0:0:0:
184,228,236573,1,4,0:0:0:0:
60,328,236850,2,0,P|48:272|52:232,1,87.749995983124,8|0,0:0|0:0,0:0:0:0:
136,144,237128,2,0,P|72:156|24:144,1,87.749995983124,8|4,0:0|0:0,0:0:0:0:
124,12,237406,5,0,0:0:0:0:
124,12,237545,2,0,P|166:61|180:108,1,87.749995983124,0|0,0:0|0:0,0:0:0:0:
260,136,237823,2,0,P|288:77|288:27,1,87.749995983124,8|8,0:0|0:0,0:0:0:0:
160,280,238100,6,0,P|204:296|280:288,1,87.749995983124,4|0,0:0|0:0,0:0:0:0:
392,216,238378,2,0,P|348:232|272:224,1,87.749995983124,4|0,0:0|0:0,0:0:0:0:
444,64,238656,1,0,0:0:0:0:
444,64,238795,1,8,0:0:0:0:
480,240,239073,2,0,B|488:184|488:184|476:132,1,87.749995983124,4|0,0:0|0:0,0:0:0:0:
344,312,239350,2,0,B|400:320|400:320|452:308,1,87.749995983124,4|4,0:0|0:0,0:0:0:0:
204,180,239628,5,0,0:0:0:0:
188,336,239767,2,0,P|180:272|184:248,1,87.749995983124,0|0,0:0|0:0,0:0:0:0:
256,108,240045,2,0,P|200:96|160:100,1,87.749995983124,8|8,0:0|0:0,0:0:0:0:
56,268,240323,6,0,L|48:160,1,87.749995983124,4|0,0:0|0:0,0:0:0:0:
104,44,240600,2,0,L|112:152,1,87.749995983124,4|0,0:0|0:0,0:0:0:0:
20,20,240878,1,8,0:0:0:0:
20,20,241017,1,4,0:0:0:0:
208,80,241295,2,0,P|264:80|312:68,1,87.749995983124,8|0,0:0|0:0,0:0:0:0:
412,192,241573,2,0,P|344:208|304:200,1,87.749995983124,8|4,0:0|0:0,0:0:0:0:
232,184,241850,5,0,0:0:0:0:
244,312,241989,2,0,P|184:324|144:320,1,87.749995983124,0|0,0:0|0:0,0:0:0:0:
72,320,242267,2,0,L|72:212,1,87.749995983124,0|0,0:0|0:0,0:0:0:0:
72,132,242545,6,0,B|120:112|204:136,1,87.749995983124,4|0,0:0|0:0,0:0:0:0:
233,150,242823,2,0,B|272:164|320:144,1,87.749995983124,4|0,0:0|0:0,0:0:0:0:
384,72,243100,1,0,0:0:0:0:
384,72,243239,1,8,0:0:0:0:
404,224,243517,2,0,P|404:288|388:328,1,87.749995983124,4|0,0:0|0:0,0:0:0:0:
228,252,243795,2,0,P|292:252|332:268,1,87.749995983124,4|4,0:0|0:0,0:0:0:0:
160,336,244073,1,0,0:0:0:0:
92,256,244211,2,0,P|88:204|112:132,1,87.749995983124,0|0,0:0|0:0,0:0:0:0:
160,68,244489,2,0,L|56:68,1,87.749995983124,8|8,0:0|0:0,0:0:0:0:
256,152,244767,6,0,L|364:152,1,87.749995983124,4|0,0:0|0:0,0:0:0:0:
388,296,245045,2,0,L|280:296,1,87.749995983124,4|0,0:0|0:0,0:0:0:0:
456,152,245323,1,8,0:0:0:0:
456,152,245461,1,4,0:0:0:0:
456,152,245739,2,0,P|464:212|436:292,1,87.749995983124,8|0,0:0|0:0,0:0:0:0:
320,76,246017,2,0,P|380:68|460:96,1,87.749995983124,8|4,0:0|0:0,0:0:0:0:
212,240,246295,1,0,0:0:0:0:
140,160,246434,2,0,P|136:112|152:40,1,87.749995983124,0|0,0:0|0:0,0:0:0:0:
128,292,246711,2,0,B|80:296|80:296|28:284,1,87.749995983124,8|8,0:0|0:0,0:0:0:0:
316,212,246989,6,0,P|328:272|296:352,1,87.749995983124,4|0,0:0|0:0,0:0:0:0:
188,148,247267,2,0,P|248:136|328:168,1,87.749995983124,4|0,0:0|0:0,0:0:0:0:
412,180,247545,1,0,0:0:0:0:
412,180,247684,1,8,0:0:0:0:
416,344,247961,2,0,P|432:320|420:236,1,87.749995983124,4|0,0:0|0:0,0:0:0:0:
256,276,248239,2,0,P|280:292|364:280,1,87.749995983124,4|4,0:0|0:0,0:0:0:0:
144,192,248517,1,0,0:0:0:0:
144,192,248656,2,0,P|128:260|152:328,1,87.749995983124,0|0,0:0|0:0,0:0:0:0:
196,84,248934,2,0,B|148:88|148:88|68:68,1,87.749995983124,8|8,0:0|0:0,0:0:0:0:
324,40,249211,6,0,L|324:160,1,87.749995983124,4|0,0:0|0:0,0:0:0:0:
448,216,249489,2,0,L|448:96,1,87.749995983124,4|0,0:0|0:0,0:0:0:0:
324,204,249767,1,8,0:0:0:0:
324,204,249906,1,4,0:0:0:0:
136,120,250045,6,0,P|104:168|132:244,1,87.749995983124,0|0,0:0|0:0,0:0:0:0:
196,256,250323,2,0,P|228:208|200:132,1,87.749995983124,0|0,0:0|0:0,0:0:0:0:
72,296,250600,2,0,P|112:336|176:344,1,87.749995983124,0|0,0:0|0:0,0:0:0:0:
266,333,250878,2,0,P|301:307|320:268,2,87.749995983124,2|0|0,0:0|0:0|0:0,0:0:0:0:
