osu file format v14

[General]
AudioFilename: audio.mp3
AudioLeadIn: 0
PreviewTime: 73428
Countdown: 0
SampleSet: Soft
StackLeniency: 0.3
Mode: 0
LetterboxInBreaks: 0
WidescreenStoryboard: 1

[Editor]
Bookmarks: 206454
DistanceSpacing: 0.1
BeatDivisor: 4
GridSize: 32
TimelineZoom: 2.4

[Metadata]
Title:Logic Agent
TitleUnicode:ロジックエージェント
Artist:Reol
ArtistUnicode:れをる
Creator:Naotoshi
Version:Polka's Light Insane
Source:
Tags:jpop pan xinely niki polkamocha Gokusaishoku Gokusaishiki Giga-P Akitoshi
BeatmapID:1246712
BeatmapSetID:578814

[Difficulty]
HPDrainRate:5.5
CircleSize:3.5
OverallDifficulty:6.5
ApproachRate:8
SliderMultiplier:1.7
SliderTickRate:1

[Events]
//Background and Video events
0,0,"girl_anime_rain_glass_light_schoolgirl_102497_1366x768.jpg",0,0
//Break Periods
2,72760,74178
2,97865,101968
2,123286,124704
2,158654,160862
//Storyboard Layer 0 (Background)
//Storyboard Layer 1 (Fail)
//Storyboard Layer 2 (Pass)
//Storyboard Layer 3 (Foreground)
//Storyboard Sound Samples

[TimingPoints]
6876,315.789473684211,4,2,0,40,1,0
6876,-111.111111111111,4,2,0,40,0,0
16981,-125,4,2,0,40,0,0
27086,-111.111111111111,4,1,0,50,0,0
35928,-125,4,2,0,40,0,0
37033,-100,4,1,0,60,0,0
47138,-111.111111111111,4,2,0,70,0,0
57244,-100,4,1,0,60,0,0
67507,-111.111111111111,4,2,0,70,0,0
72560,-125,4,2,0,70,0,0
74928,-100,4,1,0,60,0,0
76981,-125,4,2,0,40,0,0
77454,-90.9090909090909,4,1,0,100,0,1
87086,-111.111111111111,4,2,0,100,0,0
87560,-90.9090909090909,4,1,0,100,0,1
97665,-90.9090909090909,4,2,0,40,0,0
102717,-111.111111111111,4,2,0,70,0,0
107770,-100,4,1,0,60,0,0
118033,-111.111111111111,4,2,0,70,0,0
123086,-125,4,2,0,40,0,0
125454,-100,4,1,0,70,0,0
127507,-125,4,2,0,40,0,0
127981,-90.9090909090909,4,1,0,100,0,1
137612,-111.111111111111,4,2,0,100,0,0
138086,-90.9090909090909,4,1,0,100,0,1
148033,-90.9090909090909,4,1,0,100,0,0
148349,-90.9090909090909,4,1,0,100,0,1
149297,-90.9090909090909,4,1,0,100,0,0
163507,-125,4,2,0,70,0,0
165875,-100,4,1,0,60,0,0
167928,-125,4,2,0,40,0,0
171402,-200,4,2,0,40,0,0
172191,-90.9090909090909,4,1,0,100,0,1
173297,-90.9090909090909,4,1,0,100,0,0
173454,-83.3333333333333,4,1,0,100,0,1
178033,-111.111111111111,4,2,0,100,0,0
178507,-83.3333333333333,4,1,0,100,0,1
188612,-100,4,1,0,70,0,0
198797,-100,4,2,0,5,0,0
198876,-100,4,1,0,70,0,0
199033,-100,4,2,0,60,0,0
200139,-100,4,2,0,45,0,0
201876,-100,4,2,0,30,0,0
204244,-100,4,2,0,10,0,0
206454,-100,4,2,0,5,0,0

[Colours]
Combo1 : 236,220,104
Combo2 : 230,148,87
Combo3 : 117,117,117
Combo4 : 102,109,159

[HitObjects]
428,168,6876,6,0,P|436:208|428:252,1,76.4999976654053,4|0,0:0|0:0,0:0:0:0:
388,316,7191,1,0,0:0:0:0:
220,288,7507,2,0,P|212:244|228:120,1,152.999995330811
352,32,8139,2,0,L|444:16,2,76.4999976654053,4|0|0,0:0|0:0|0:0,0:0:0:0:
222,136,8770,2,0,L|50:116,1,152.999995330811
140,272,9402,6,0,P|146:322|132:372,1,76.4999976654053,4|0,0:0|0:0,0:0:0:0:
64,312,9718,1,0,0:0:0:0:
140,160,10033,2,0,P|200:176|248:280,1,152.999995330811
360,124,10665,2,0,L|452:112,2,76.4999976654053,4|0|0,0:0|0:0|0:0,0:0:0:0:
436,276,11297,2,0,L|360:266,1,76.4999976654053
276,260,11612,2,0,L|252:304,3,38.2499988327027
236,332,11928,6,0,P|196:340|131:318,1,76.4999976654053,4|0,0:0|0:0,0:0:0:0:
84,300,12244,1,0,0:0:0:0:
120,136,12560,2,0,P|160:124|294:148,1,152.999995330811
420,212,13191,2,0,L|452:108,2,76.4999976654053,4|0|0,0:0|0:0|0:0,0:0:0:0:
320,348,13823,2,0,L|284:188,1,152.999995330811
244,36,14454,1,0,0:0:0:0:
256,192,14533,12,0,16665,0:0:0:0:
92,196,16981,6,0,B|188:240|192:144|304:228|304:228|356:260|460:208|404:80|340:72|372:168,1,476,2|0,0:0|0:0,0:0:0:0:
480,140,18244,2,0,B|468:44|388:-8|324:24|284:68|284:124|284:124|184:80|132:160|124:111,1,476,2|0,0:0|0:0,0:0:0:0:
76,32,19507,2,0,B|132:96|136:216|124:296|108:336|-84:340|-4:76|40:116|36:204,1,476,2|0,0:0|0:0,0:0:0:0:
136,336,20770,2,0,B|180:304|220:248|204:124,1,204,2|0,0:0|0:0,0:0:0:0:
304,156,21402,2,0,B|290:249|330:305|374:337,1,204,2|0,0:0|0:0,0:0:0:0:
471,195,22033,6,0,B|468:112|512:72|592:336|400:332|384:292|372:212|376:92|432:28,1,476,2|0,0:0|0:0,0:0:0:0:
386,111,23297,2,0,B|304:148|304:80|228:124|228:124|228:68|188:24|124:-8|44:44|34:143,1,476,2|0,0:0|0:0,0:0:0:0:
144,152,24560,2,0,B|164:76|107:78|51:206|155:258|207:226|207:226|275:186|275:186|295:198|352:212|416:184,1,476,2|0,0:0|0:0,0:0:0:0:
476,132,25823,2,0,B|432:192|384:332|468:368|468:368|536:316|488:224,1,408,2|0,0:0|0:0,0:0:0:0:
352,156,27086,6,0,P|308:152|256:164,1,76.4999976654053,4|0,0:0|0:0,0:0:0:0:
208,208,27402,1,8,0:0:0:0:
208,208,28033,1,8,0:0:0:0:
308,344,28349,2,0,P|352:348|404:336,1,76.4999976654053
452,296,28665,1,8,0:0:0:0:
452,296,29297,1,8,0:0:0:0:
336,176,29612,6,0,L|356:76,1,76.4999976654053
368,20,29928,1,8,0:0:0:0:
368,20,30560,1,8,0:0:0:0:
211,81,30876,2,0,L|191:181,1,76.4999976654053
179,237,31191,1,8,0:0:0:0:
323,150,31507,2,0,L|343:250,1,76.4999976654053
355,306,31823,1,8,0:0:0:0:
468,180,32060,1,8,0:0:0:0:
468,180,32139,6,0,P|472:124|456:80,1,76.4999976654053,4|0,0:0|0:0,0:0:0:0:
416,28,32454,1,8,0:0:0:0:
416,28,33086,1,8,0:0:0:0:
276,120,33402,6,0,P|272:176|288:220,1,76.4999976654053
328,264,33718,1,8,0:0:0:0:
328,264,34349,1,8,0:0:0:0:
452,152,34665,2,0,L|528:136,2,76.4999976654053,0|0|8,0:0|0:0|0:0,0:0:0:0:
412,228,35139,2,0,L|248:188,1,152.999995330811
172,172,35612,1,8,0:0:0:0:
172,172,35691,1,8,0:0:0:0:
172,172,35770,1,0,0:0:0:0:
72,100,35928,6,0,P|56:152|72:236,3,136
28,332,37033,6,2,L|228:292,1,170,6|2,0:0|0:0,0:0:0:0:
288,344,37507,2,0,P|296:284|268:232,1,85,10|0,0:0|0:0,0:0:0:0:
212,192,37823,2,0,P|202:150|211:109,1,85,2|0,0:0|0:0,0:0:0:0:
292,48,38139,1,8,0:0:0:0:
292,48,38297,2,2,P|360:24|468:64,1,170,6|2,0:0|0:0,0:0:0:0:
500,140,38770,2,0,L|476:236,1,85,10|0,0:0|0:0,0:0:0:0:
380,244,39086,2,0,L|404:325,2,85,2|0|8,0:0|0:0|0:0,0:0:0:0:
408,144,39560,6,2,L|216:168,1,170,6|2,0:0|0:0,0:0:0:0:
152,116,40033,1,10,0:0:0:0:
152,116,40191,1,0,0:0:0:0:
152,220,40349,2,0,P|144:272|168:328,2,85,2|0|8,0:0|0:0|0:0,0:0:0:0:
248,260,40823,2,2,B|328:292|332:220|444:276,1,170,6|2,0:0|0:0,0:0:0:0:
504,312,41297,1,8,0:0:0:0:
504,312,41454,1,0,0:0:0:0:
504,208,41612,2,0,P|512:164|488:104,1,85
428,56,41928,1,8,0:0:0:0:
348,120,42086,6,2,B|284:108|284:108|256:124|256:124|176:108,1,170,6|2,0:0|0:0,0:0:0:0:
84,92,42560,2,0,L|112:196,1,85,10|0,0:0|0:0,0:0:0:0:
200,212,42876,2,0,L|168:316,1,85,2|0,0:0|0:0,0:0:0:0:
96,360,43191,1,8,0:0:0:0:
96,360,43349,2,2,P|164:328|267:377,1,170,6|2,0:0|0:0,0:0:0:0:
316,280,43823,2,0,L|424:256,1,85,10|0,0:0|0:0,0:0:0:0:
408,160,44139,2,0,L|516:188,2,85,2|0|8,0:0|0:0|0:0,0:0:0:0:
312,120,44612,6,2,B|260:104|244:72|244:72|232:104|176:120,1,170,6|2,0:0|0:0,0:0:0:0:
80,152,45086,1,10,0:0:0:0:
80,152,45244,1,0,0:0:0:0:
156,220,45402,2,0,P|160:272|148:324,2,85,2|0|8,0:0|0:0|0:0,0:0:0:0:
232,152,45876,6,2,P|300:124|408:172,1,170,6|2,0:0|0:0,0:0:0:0:
492,140,46349,2,0,L|456:248,1,85,8|0,0:0|0:0,0:0:0:0:
416,312,46665,1,2,0:0:0:0:
332,256,46823,1,8,0:0:0:0:
244,312,46981,1,8,0:0:0:0:
204,220,47139,6,0,P|164:200|52:228,1,152.999995330811
17,300,47612,2,0,L|-3:124,1,152.999995330811,8|0,0:0|0:0,0:0:0:0:
35,65,48086,1,0,0:0:0:0:
35,65,48244,1,8,0:0:0:0:
204,132,48560,2,0,P|244:136|312:120,1,76.4999976654053
356,76,48876,2,0,P|336:128|368:240,1,152.999995330811,8|0,0:0|0:0,0:0:0:0:
424,280,49349,1,0,0:0:0:0:
352,340,49507,2,0,L|264:364,1,76.4999976654053,8|0,0:0|0:0,0:0:0:0:
112,280,49981,5,0,0:0:0:0:
112,280,50139,2,0,L|280:232,1,152.999995330811,8|0,0:0|0:0,0:0:0:0:
340,280,50612,1,0,0:0:0:0:
340,188,50770,1,8,0:0:0:0:
196,76,51086,2,0,P|152:72|100:84,1,76.4999976654053
48,136,51402,1,8,0:0:0:0:
164,280,51718,1,0,0:0:0:0:
220,352,51876,2,8,P|264:356|316:344,1,76.4999976654053
352,276,52191,6,0,P|368:220|344:108,1,152.999995330811,4|0,0:0|0:0,0:0:0:0:
296,56,52665,1,8,0:0:0:0:
144,160,52981,2,0,L|232:140,2,76.4999976654053,0|0|8,0:0|0:0|0:0,0:0:0:0:
212,332,53612,2,0,L|124:352,2,76.4999976654053,0|0|8,0:0|0:0|0:0,0:0:0:0:
392,368,54244,2,0,P|396:320|384:268,1,76.4999976654053
328,224,54560,1,8,0:0:0:0:
272,152,54718,6,0,P|244:104|288:-4,1,152.999995330811
336,80,55191,1,8,0:0:0:0:
488,180,55507,2,0,P|492:232|484:280,1,76.4999976654053
452,340,55823,1,8,0:0:0:0:
312,220,56139,2,0,P|308:168|320:120,1,76.4999976654053
372,76,56454,1,8,0:0:0:0:
220,180,56770,2,0,B|176:168|176:168|124:188|124:188|48:168,1,152.999995330811,0|8,0:0|0:0,0:0:0:0:
8,96,57244,6,0,P|32:184|-6:284,1,170,2|0,0:0|0:0,0:0:0:0:
12,360,57718,2,0,L|184:312,1,170,8|0,0:0|0:0,0:0:0:0:
264,364,58191,1,0,0:0:0:0:
268,264,58349,1,8,0:0:0:0:
268,264,58507,2,0,B|280:192|280:192|264:172|264:172|276:72,1,170,2|0,0:0|0:0,0:0:0:0:
368,140,58981,2,0,P|412:132|464:144,1,85,8|2,0:0|0:0,0:0:0:0:
500,228,59297,1,0,0:0:0:0:
500,228,59454,1,2,0:0:0:0:
452,320,59612,1,8,0:0:0:0:
452,320,59770,6,0,P|404:336|269:311,1,170,2|0,0:0|0:0,0:0:0:0:
204,260,60244,2,0,L|96:292,1,85,8|0,0:0|0:0,0:0:0:0:
124,180,60560,2,0,L|12:212,2,85,0|0|10,0:0|0:0|0:0,0:0:0:0:
220,152,61033,1,0,0:0:0:0:
316,120,61191,2,2,P|352:80|356:16,1,85
464,52,61507,2,0,P|477:91|507:121,1,85,8|2,0:0|0:0,0:0:0:0:
412,160,61823,1,0,0:0:0:0:
488,228,61981,1,10,0:0:0:0:
412,296,62139,1,8,0:0:0:0:
336,228,62297,6,0,P|276:200|156:252,1,170,6|0,0:0|0:0,0:0:0:0:
104,296,62770,2,0,L|64:200,1,85,8|0,0:0|0:0,0:0:0:0:
8,136,63086,2,0,L|52:44,2,85,0|0|8,0:0|0:0|0:0,0:0:0:0:
112,132,63560,2,0,B|168:124|168:124|200:140|200:140|289:124,1,170,2|0,0:0|0:0,0:0:0:0:
367,77,64033,2,0,P|407:69|471:85,1,85,8|0,0:0|0:0,0:0:0:0:
451,173,64349,1,0,0:0:0:0:
451,173,64507,2,0,P|409:181|367:174,1,85,0|8,0:0|0:0,0:0:0:0:
276,126,64823,6,0,P|291:200|273:303,1,170,2|0,0:0|0:0,0:0:0:0:
360,352,65297,2,0,B|268:320|268:384|168:344,1,170,8|0,0:0|0:0,0:0:0:0:
92,372,65770,1,0,0:0:0:0:
128,276,65928,2,0,L|112:168,1,85,10|0,0:0|0:0,0:0:0:0:
180,112,66244,1,2,0:0:0:0:
180,112,66402,1,0,0:0:0:0:
248,188,66560,2,0,P|300:192|348:184,1,85,8|0,0:0|0:0,0:0:0:0:
392,104,66876,1,2,0:0:0:0:
392,104,66954,1,8,0:0:0:0:
392,104,67033,1,8,0:0:0:0:
480,156,67191,2,0,L|532:128,2,42.5,0|8|0,0:0|0:0|0:0,0:0:0:0:
480,252,67507,6,0,P|500:280|408:320,1,152.999995330811,4|0,0:0|0:0,0:0:0:0:
334,197,68139,2,0,P|296:183|163:210,1,152.999995330811,8|0,0:0|0:0,0:0:0:0:
123,251,68612,2,0,P|78:264|22:251,1,76.4999976654053
23,184,68928,1,0,0:0:0:0:
23,184,69007,1,0,0:0:0:0:
23,184,69086,2,0,L|63:36,2,152.999995330811,0|8|0,0:0|0:0|0:0,0:0:0:0:
177,251,70033,6,0,B|229:275|273:235|297:251|297:251|272:267,1,152.999995330811,4|0,0:0|0:0,0:0:0:0:
258,89,70665,2,0,B|206:113|162:73|138:89|138:89|174:113,1,152.999995330811,8|0,0:0|0:0,0:0:0:0:
213,177,71139,1,8,0:0:0:0:
280,224,71297,2,0,P|300:260|222:260,1,152.999995330811,4|0,0:0|0:0,0:0:0:0:
360,148,71928,2,0,P|412:140|444:152,1,76.4999976654053,8|0,0:0|0:0,0:0:0:0:
492,220,72244,1,8,0:0:0:0:
492,220,72323,1,8,0:0:0:0:
492,220,72402,1,8,0:0:0:0:
434,277,72560,1,0,0:0:0:0:
500,296,74928,6,0,L|304:288,1,170,4|0,0:0|0:0,0:0:0:0:
248,352,75402,2,0,P|276:292|232:180,1,170,8|0,0:0|0:0,0:0:0:0:
180,120,75876,1,0,0:0:0:0:
112,196,76033,2,0,L|8:176,1,85,8|0,0:0|0:0,0:0:0:0:
4,80,76349,1,0,0:0:0:0:
4,80,76428,1,8,0:0:0:0:
4,80,76507,1,0,0:0:0:0:
92,28,76665,2,0,L|165:41,2,42.5,0|8|0,0:0|0:0|0:0,0:0:0:0:
272,96,76981,6,2,B|292:128|252:128|280:172,2,68
196,180,77454,6,0,P|232:232|348:192,1,187.000005706787,6|0,0:0|0:0,0:0:0:0:
404,116,77928,1,8,0:0:0:0:
480,200,78086,2,0,P|516:280|456:388,1,187.000005706787,2|0,0:0|0:0,0:0:0:0:
404,288,78560,1,8,0:0:0:0:
404,288,78718,2,0,B|312:260|312:332|196:292,1,187.000005706787,6|0,0:0|0:0,0:0:0:0:
124,356,79191,1,8,0:0:0:0:
24,300,79349,2,0,L|0:204,1,93.5000028533936,2|0,0:0|0:0,0:0:0:0:
112,220,79665,2,0,L|90:129,1,93.5000028533936,2|8,0:0|0:0,0:0:0:0:
204,140,79981,6,0,P|256:108|380:152,1,187.000005706787,6|0,0:0|0:0,0:0:0:0:
452,64,80454,1,8,0:0:0:0:
492,172,80612,2,0,B|492:240|516:260|516:260|492:280|492:372,1,187.000005706787,2|0,0:0|0:0,0:0:0:0:
416,264,81086,1,8,0:0:0:0:
416,264,81244,2,0,L|304:224,1,93.5000028533936,6|0,0:0|0:0,0:0:0:0:
296,340,81560,2,0,L|180:300,1,93.5000028533936,2|8,0:0|0:0,0:0:0:0:
108,356,81876,2,0,P|96:304|118:253,1,93.5000028533936,2|0,0:0|0:0,0:0:0:0:
196,195,82191,2,0,P|208:151|196:106,1,93.5000028533936,2|8,0:0|0:0,0:0:0:0:
104,40,82507,6,0,P|176:60|304:28,1,187.000005706787,6|0,0:0|0:0,0:0:0:0:
392,0,82981,1,8,0:0:0:0:
452,96,83139,2,0,L|368:288,1,187.000005706787,2|0,0:0|0:0,0:0:0:0:
320,364,83612,1,8,0:0:0:0:
256,272,83770,2,0,P|208:264|164:272,1,93.5000028533936,6|0,0:0|0:0,0:0:0:0:
84,352,84086,2,0,P|120:280|64:180,2,187.000005706787,2|2|0,0:0|0:0|0:0,0:0:0:0:
4,272,84876,1,8,0:0:0:0:
78,188,85033,6,0,B|168:152|168:228|264:180,1,187.000005706787,6|0,0:0|0:0,0:0:0:0:
356,124,85507,1,8,0:0:0:0:
360,236,85665,2,0,L|424:328,2,93.5000028533936,2|0|0,0:0|0:0|0:0,0:0:0:0:
276,311,86139,1,8,0:0:0:0:
276,311,86297,2,0,L|164:122,1,187.000005706787,6|0,0:0|0:0,0:0:0:0:
120,56,86770,1,8,0:0:0:0:
60,152,86928,1,0,0:0:0:0:
60,152,87086,6,2,B|40:180|40:180|44:188|44:188|16:228,2,76.4999976654053
112,252,87560,6,0,P|164:288|280:248,1,187.000005706787,6|0,0:0|0:0,0:0:0:0:
356,332,88033,1,8,0:0:0:0:
440,256,88191,2,0,P|468:200|428:76,1,187.000005706787,2|0,0:0|0:0,0:0:0:0:
356,4,88665,1,8,0:0:0:0:
356,4,88823,2,0,P|328:60|368:184,1,187.000005706787,6|0,0:0|0:0,0:0:0:0:
416,272,89297,1,8,0:0:0:0:
304,272,89454,2,0,L|196:236,1,93.5000028533936,2|0,0:0|0:0,0:0:0:0:
216,356,89770,2,0,L|104:316,1,93.5000028533936,2|8,0:0|0:0,0:0:0:0:
24,368,90086,6,0,B|47:289|-28:289|23:188,1,187.000005706787,6|0,0:0|0:0,0:0:0:0:
88,96,90560,1,8,0:0:0:0:
152,188,90718,1,0,0:0:0:0:
152,188,90877,2,0,L|264:156,2,93.5000028533936,2|0|8,0:0|0:0|0:0,0:0:0:0:
236,264,91349,2,0,L|432:216,1,187.000005706787,6|2,0:0|0:0,0:0:0:0:
500,296,91823,1,8,0:0:0:0:
500,296,91981,2,0,L|300:346,1,187.000005706787,2|2,0:0|0:0,0:0:0:0:
236,264,92454,1,8,0:0:0:0:
156,344,92612,6,2,P|128:296|200:160,1,187.000005706787,6|2,0:0|0:0,0:0:0:0:
176,64,93086,2,0,B|224:76|256:112|256:112|284:76|340:64,1,187.000005706787,8|0,0:0|0:0,0:0:0:0:
344,176,93560,1,0,0:0:0:0:
432,244,93718,2,0,P|388:276|336:284,1,93.5000028533936,8|2,0:0|0:0,0:0:0:0:
248,328,94033,2,0,L|256:200,2,93.5000028533936,0|0|8,0:0|0:0|0:0,0:0:0:0:
136,332,94507,2,0,L|124:132,1,187.000005706787,2|0,0:0|0:0,0:0:0:0:
60,52,94981,1,8,0:0:0:0:
172,44,95139,6,0,B|256:72|260:-8|367:40,1,187.000005706787,6|0,0:0|0:0,0:0:0:0:
444,100,95612,1,8,0:0:0:0:
356,168,95770,2,0,P|348:228|368:280,2,93.5000028533936,0|2|0,0:0|0:0|0:0,0:0:0:0:
460,212,96244,1,8,0:0:0:0:
452,324,96402,2,0,P|384:296|252:348,1,187.000005706787,2|0,0:0|0:0,0:0:0:0:
168,348,96876,2,0,L|196:256,1,93.5000028533936,8|0,0:0|0:0,0:0:0:0:
296,204,97191,1,2,0:0:0:0:
296,204,97270,1,8,0:0:0:0:
296,204,97349,1,0,0:0:0:0:
236,108,97507,1,8,0:0:0:0:
136,160,97665,1,4,0:0:0:0:
492,156,102718,6,0,P|452:180|352:156,1,152.999995330811,4|0,0:0|0:0,0:0:0:0:
296,84,103191,1,8,0:0:0:0:
56,216,103665,2,0,P|52:264|68:324,1,76.4999976654053,0|8,0:0|0:0,0:0:0:0:
188,164,104139,2,0,L|164:72,2,76.4999976654053,0|0|8,0:0|0:0|0:0,0:0:0:0:
355,240,104770,2,0,L|335:314,2,76.4999976654053,0|0|8,0:0|0:0|0:0,0:0:0:0:
384,152,105244,1,0,0:0:0:0:
216,227,105560,5,0,0:0:0:0:
216,227,105718,2,0,P|176:247|52:207,1,152.999995330811,8|0,0:0|0:0,0:0:0:0:
0,172,106191,1,0,0:0:0:0:
0,172,106349,1,8,0:0:0:0:
252,56,106665,2,0,L|352:68,1,76.4999976654053
420,76,106981,1,8,0:0:0:0:
284,200,107297,1,0,0:0:0:0:
284,200,107376,1,8,0:0:0:0:
284,200,107454,1,0,0:0:0:0:
348,268,107612,1,8,0:0:0:0:
252,300,107770,6,0,P|180:328|68:280,1,170,6|0,0:0|0:0,0:0:0:0:
0,264,108244,2,0,L|92:104,1,170,8|0,0:0|0:0,0:0:0:0:
140,32,108718,1,0,0:0:0:0:
188,120,108876,2,0,B|228:132|228:108|282:123,1,85,10|0,0:0|0:0,0:0:0:0:
348,192,109191,1,0,0:0:0:0:
348,192,109349,1,0,0:0:0:0:
420,120,109507,1,8,0:0:0:0:
452,216,109665,2,0,P|460:272|440:324,1,85,2|0,0:0|0:0,0:0:0:0:
360,344,109981,2,0,P|352:288|372:236,1,85,2|8,0:0|0:0,0:0:0:0:
376,160,110297,6,0,P|352:204|228:212,1,170,2|0,0:0|0:0,0:0:0:0:
176,144,110770,2,0,L|72:132,1,85,8|0,0:0|0:0,0:0:0:0:
16,204,111086,1,0,0:0:0:0:
16,204,111244,1,0,0:0:0:0:
72,288,111402,2,0,L|180:300,1,85,10|0,0:0|0:0,0:0:0:0:
252,256,111718,2,0,P|260:308|244:356,2,85,0|0|8,0:0|0:0|0:0,0:0:0:0:
172,192,112191,1,2,0:0:0:0:
256,132,112349,2,0,P|264:80|248:40,2,85,2|10|8,0:0|0:0|0:0,0:0:0:0:
172,192,112823,6,0,B|120:200|100:232|100:232|80:200|28:188,1,170,6|0,0:0|0:0,0:0:0:0:
32,88,113297,2,0,B|84:80|104:48|104:48|124:80|176:92,1,170,8|0,0:0|0:0,0:0:0:0:
252,24,113770,1,0,0:0:0:0:
328,92,113928,1,8,0:0:0:0:
328,92,114086,2,0,L|260:268,1,170,2|0,0:0|0:0,0:0:0:0:
228,348,114560,2,0,P|184:352|136:348,1,85,8|0,0:0|0:0,0:0:0:0:
76,272,114876,2,0,P|32:268|-32:276,2,85,0|0|8,0:0|0:0|0:0,0:0:0:0:
144,196,115349,6,0,P|132:108|160:0,1,170,2|0,0:0|0:0,0:0:0:0:
232,84,115823,2,0,L|336:68,1,85,8|0,0:0|0:0,0:0:0:0:
375,155,116139,2,0,L|291:168,1,85,0|8,0:0|0:0,0:0:0:0:
184,192,116454,1,8,0:0:0:0:
184,192,116612,2,0,B|152:272|224:272|180:364,1,170
92,308,117086,2,0,P|56:316|-4:300,1,85,8|0,0:0|0:0,0:0:0:0:
52,216,117402,1,0,0:0:0:0:
52,216,117481,1,8,0:0:0:0:
52,216,117560,1,0,0:0:0:0:
132,152,117718,2,0,L|132:88,2,42.5,0|8|0,0:0|0:0|0:0,0:0:0:0:
200,216,118033,6,0,P|256:244|356:192,2,152.999995330811,4|0|8,0:0|0:0|0:0,0:0:0:0:
304,64,118981,2,0,L|268:144,1,76.4999976654053
196,80,119297,2,0,P|160:72|96:96,1,76.4999976654053
121,83,119533,1,0,0:0:0:0:
120,86,119612,2,0,L|188:250,2,152.999995330811,0|8|0,0:0|0:0|0:0,0:0:0:0:
312,100,120560,6,0,B|376:124|352:76|440:104|440:104|392:132,1,152.999995330811,4|0,0:0|0:0,0:0:0:0:
280,232,121191,2,0,B|216:256|240:208|152:236|152:236|200:264,1,152.999995330811,8|0,0:0|0:0,0:0:0:0:
220,324,121665,1,8,0:0:0:0:
312,324,121823,2,0,P|351:298|371:192,1,152.999995330811,4|0,0:0|0:0,0:0:0:0:
320,24,122454,2,0,L|246:44,1,76.4999976654053,8|0,0:0|0:0,0:0:0:0:
160,76,122770,1,0,0:0:0:0:
160,76,122849,1,8,0:0:0:0:
160,76,122928,1,0,0:0:0:0:
224,128,123086,1,4,0:0:0:0:
24,368,125454,6,0,L|80:168,1,170,4|0,0:0|0:0,0:0:0:0:
44,104,125928,2,0,P|80:156|184:152,1,170,8|0,0:0|0:0,0:0:0:0:
256,88,126402,1,0,0:0:0:0:
332,156,126560,2,0,P|336:200|327:263,1,85,8|0,0:0|0:0,0:0:0:0:
256,308,126876,1,0,0:0:0:0:
256,308,126954,1,8,0:0:0:0:
256,308,127033,1,0,0:0:0:0:
180,240,127191,2,0,P|178:209|188:172,2,42.5,0|8|0,0:0|0:0|0:0,0:0:0:0:
116,308,127507,6,2,B|88:316|88:316|84:324|84:324|40:336,2,68
72,204,127981,6,0,P|40:151|91:23,1,187.000005706787,6|0,0:0|0:0,0:0:0:0:
148,120,128454,1,8,0:0:0:0:
220,32,128612,2,0,P|284:12|420:44,1,187.000005706787,2|0,0:0|0:0,0:0:0:0:
472,120,129086,1,8,0:0:0:0:
472,120,129244,2,0,B|440:180|440:180|448:208|448:208|388:308,1,187.000005706787,6|0,0:0|0:0,0:0:0:0:
328,368,129718,1,8,0:0:0:0:
280,268,129876,2,0,B|232:256|232:256|164:276,1,93.5000028533936,2|0,0:0|0:0,0:0:0:0:
116,356,130191,2,0,B|68:368|68:368|0:348,1,93.5000028533936,2|8,0:0|0:0,0:0:0:0:
68,252,130507,6,0,P|32:208|80:82,1,187.000005706787,6|0,0:0|0:0,0:0:0:0:
148,20,130981,1,8,0:0:0:0:
172,128,131139,2,0,B|288:152|240:84|368:124,1,187.000005706787,2|0,0:0|0:0,0:0:0:0:
448,192,131612,1,8,0:0:0:0:
348,240,131770,2,0,P|316:288|312:348,1,93.5000028533936,6|0,0:0|0:0,0:0:0:0:
196,324,132086,2,0,P|185:278|157:241,1,93.5000028533936,2|8,0:0|0:0,0:0:0:0:
68,172,132402,2,0,L|160:120,1,93.5000028533936,2|0,0:0|0:0,0:0:0:0:
248,176,132718,2,0,L|352:116,1,93.5000028533936,2|8,0:0|0:0,0:0:0:0:
412,56,133033,6,0,B|360:88|368:136|368:136|408:256,1,187.000005706787,6|0,0:0|0:0,0:0:0:0:
428,328,133507,1,8,0:0:0:0:
320,296,133665,2,0,B|272:296|236:328|236:328|204:296|148:296,1,187.000005706787,2|0,0:0|0:0,0:0:0:0:
40,328,134139,1,8,0:0:0:0:
72,220,134297,2,0,P|64:176|80:112,1,93.5000028533936,6|0,0:0|0:0,0:0:0:0:
156,52,134612,2,0,L|264:36,1,93.5000028533936,2|8,0:0|0:0,0:0:0:0:
220,148,134928,2,0,L|344:128,1,93.5000028533936,2|0,0:0|0:0,0:0:0:0:
424,116,135244,1,0,0:0:0:0:
384,220,135402,1,8,0:0:0:0:
384,220,135560,6,0,P|416:280|316:308,1,187.000005706787,6|0,0:0|0:0,0:0:0:0:
264,228,136033,1,8,0:0:0:0:
196,316,136191,2,0,P|144:324|80:304,2,93.5000028533936,2|0|0,0:0|0:0|0:0,0:0:0:0:
264,228,136665,1,8,0:0:0:0:
327,131,136823,2,0,P|388:104|512:144,2,187.000005706787,6|2|0,0:0|0:0|0:0,0:0:0:0:
232,88,137612,6,2,B|244:52|216:52|236:-4,2,76.4999976654053
140,136,138086,6,0,P|104:200|152:320,1,187.000005706787,6|0,0:0|0:0,0:0:0:0:
216,380,138560,1,8,0:0:0:0:
300,304,138718,2,0,B|360:304|384:332|384:332|408:304|480:304,1,187.000005706787,2|0,0:0|0:0,0:0:0:0:
384,232,139191,1,8,0:0:0:0:
384,232,139349,2,0,B|340:144|420:144|382:51,1,187.000005706787,6|0,0:0|0:0,0:0:0:0:
280,96,139823,1,8,0:0:0:0:
176,52,139981,2,0,P|128:44|68:60,1,93.5000028533936,2|0,0:0|0:0,0:0:0:0:
36,156,140297,2,0,P|84:164|144:148,1,93.5000028533936,2|8,0:0|0:0,0:0:0:0:
144,268,140612,6,0,B|200:252|224:224|224:224|248:252|312:268,1,187.000005706787,6|0,0:0|0:0,0:0:0:0:
400,332,141086,1,8,0:0:0:0:
492,268,141244,2,0,L|520:160,2,93.5000028533936,2|0|0,0:0|0:0|0:0,0:0:0:0:
392,220,141718,1,8,0:0:0:0:
392,220,141876,2,0,L|452:8,1,187.000005706787,6|2,0:0|0:0,0:0:0:0:
332,12,142349,1,8,0:0:0:0:
308,120,142507,2,0,P|240:92|116:128,1,187.000005706787,2|2,0:0|0:0,0:0:0:0:
60,200,142981,1,8,0:0:0:0:
132,288,143139,6,2,P|220:313|307:283,1,187.000005706787,6|2,0:0|0:0,0:0:0:0:
396,356,143612,2,0,B|432:268|432:268|452:216|508:192,1,187.000005706787,8|0,0:0|0:0,0:0:0:0:
420,112,144086,1,0,0:0:0:0:
344,197,144244,2,0,L|304:289,1,93.5000028533936,10|0,0:0|0:0,0:0:0:0:
228,200,144560,2,0,L|276:80,2,93.5000028533936,0|0|8,0:0|0:0|0:0,0:0:0:0:
180,300,145033,2,0,P|136:260|148:120,1,187.000005706787,2|0,0:0|0:0,0:0:0:0:
84,40,145507,1,8,0:0:0:0:
196,44,145665,6,0,B|284:8|284:88|412:36,1,187.000005706787,6|0,0:0|0:0,0:0:0:0:
484,8,146139,1,8,0:0:0:0:
472,120,146297,1,0,0:0:0:0:
472,120,146454,2,0,P|496:176|460:320,1,187.000005706787,2|8,0:0|0:0,0:0:0:0:
384,232,146928,2,0,P|356:292|312:328,1,93.5000028533936,6|0,0:0|0:0,0:0:0:0:
224,312,147244,2,0,P|193:276|177:232,1,93.5000028533936,2|8,0:0|0:0,0:0:0:0:
100,152,147560,1,2,0:0:0:0:
100,152,147639,1,0,0:0:0:0:
100,152,147718,2,0,L|212:120,1,93.5000028533936,0|2,0:0|0:0,0:0:0:0:
284,192,148033,1,0,0:0:0:0:
284,192,148112,1,0,0:0:0:0:
284,192,148191,6,2,P|336:164|464:204,1,187.000005706787,6|2,0:0|0:0,0:0:0:0:
368,268,148665,2,0,P|316:296|188:256,1,187.000005706787,8|0,0:0|0:0,0:0:0:0:
92,308,149139,2,0,L|76:188,1,93.5000028533936,0|8,0:0|0:0,0:0:0:0:
8,132,149454,2,0,B|80:192|80:192|160:128,1,187.000005706787,2|0,0:0|0:0,0:0:0:0:
260,172,149928,2,0,P|268:120|248:56,1,93.5000028533936,8|0,0:0|0:0,0:0:0:0:
360,32,150244,2,0,P|380:88|352:232,1,187.000005706787,2|8,0:0|0:0,0:0:0:0:
456,272,150718,6,0,B|380:228|376:300|256:268,1,187.000005706787,6|0,0:0|0:0,0:0:0:0:
184,340,151191,1,10,0:0:0:0:
184,340,151349,1,0,0:0:0:0:
96,272,151507,1,2,0:0:0:0:
184,200,151665,2,0,L|264:132,1,93.5000028533936,0|10,0:0|0:0,0:0:0:0:
356,192,151981,2,0,L|512:68,1,187.000005706787,4|0,0:0|0:0,0:0:0:0:
508,188,152454,2,0,P|516:240|492:316,1,93.5000028533936,8|0,0:0|0:0,0:0:0:0:
432,360,152770,1,0,0:0:0:0:
352,280,152928,1,0,0:0:0:0:
352,280,153007,1,8,0:0:0:0:
352,280,153086,1,0,0:0:0:0:
272,360,153244,6,2,B|180:400|180:312|60:368,1,187.000005706787,4|0,0:0|0:0,0:0:0:0:
4,288,153718,2,0,P|64:236|68:96,1,187.000005706787,8|0,0:0|0:0,0:0:0:0:
132,32,154191,1,0,0:0:0:0:
184,132,154349,1,8,0:0:0:0:
184,132,154507,2,2,L|384:104,1,187.000005706787,6|2,0:0|0:0,0:0:0:0:
436,200,154981,2,0,L|320:220,1,93.5000028533936,8|0,0:0|0:0,0:0:0:0:
256,288,155297,2,0,L|256:388,2,93.5000028533936,0|0|8,0:0|0:0|0:0,0:0:0:0:
168,216,155770,6,2,L|76:201,1,93.5000028533936,6|2,0:0|0:0,0:0:0:0:
88,88,156086,1,0,0:0:0:0:
88,88,156244,2,0,B|184:104|184:104|232:76|300:68,1,187.000005706787,8|0,0:0|0:0,0:0:0:0:
368,24,156718,2,0,P|380:76|353:142,1,93.5000028533936,0|8,0:0|0:0,0:0:0:0:
424,212,157033,2,2,P|356:176|248:188,1,187.000005706787,6|2,0:0|0:0,0:0:0:0:
208,292,157507,2,0,L|188:88,1,187.000005706787,8|0,0:0|0:0,0:0:0:0:
104,36,157981,1,0,0:0:0:0:
28,120,158139,1,0,0:0:0:0:
28,120,158218,1,8,0:0:0:0:
28,120,158297,1,0,0:0:0:0:
108,200,158454,1,0,0:0:0:0:
256,192,161612,12,0,163191,0:0:0:0:
312,340,163507,6,0,B|384:340|384:340|424:364,2,102
244,292,164139,1,8,0:0:0:0:
148,100,164770,2,0,B|76:100|76:100|36:76,2,102,4|0|0,0:0|0:0|0:0,0:0:0:0:
216,150,165402,2,0,L|216:184,3,34,8|8|0|0,0:3|0:3|0:3|0:3,0:3:0:0:
284,100,165718,1,0,0:0:0:0:
284,100,165797,1,0,0:0:0:0:
284,100,165876,6,0,P|340:57|421:115,1,170,4|0,0:0|0:0,0:0:0:0:
512,128,166349,2,0,L|424:280,1,170,8|0,0:0|0:0,0:0:0:0:
356,348,166823,1,0,0:0:0:0:
288,272,166981,2,0,L|168:252,1,85,8|0,0:0|0:0,0:0:0:0:
104,240,167297,1,0,0:0:0:0:
104,240,167376,1,8,0:0:0:0:
104,240,167454,1,0,0:0:0:0:
168,160,167612,1,0,0:0:0:0:
168,160,167691,1,8,0:0:0:0:
168,160,167770,1,0,0:0:0:0:
104,84,167928,1,0,0:0:0:0:
348,84,168402,6,0,P|384:156|328:288,1,204,2|0,0:0|0:0,0:0:0:0:
392,336,169033,2,0,L|200:236,1,204,2|0,0:0|0:0,0:0:0:0:
136,272,169665,2,0,L|292:112,1,204,2|0,0:0|0:0,0:0:0:0:
336,68,170297,2,0,P|288:88|200:68,1,136,2|0,0:0|0:0,0:0:0:0:
52,20,170928,2,0,P|72:76|48:160,1,136,2|0,0:0|0:0,0:0:0:0:
0,216,171402,6,2,B|76:176|76:244|172:204,1,170,2|2,0:1|0:1,0:1:0:0:
256,144,172191,6,0,L|272:40,1,93.5000028533936,6|0,0:0|0:0,0:0:0:0:
344,136,172507,2,0,L|436:121,1,93.5000028533936,2|0,0:0|0:0,0:0:0:0:
360,220,172823,2,0,L|376:328,1,93.5000028533936,2|0,0:0|0:0,0:0:0:0:
272,240,173139,2,0,L|165:221,1,93.5000028533936,2|0,0:0|0:0,0:0:0:0:
96,312,173454,6,0,P|132:244|80:104,1,203.999993774414,6|0,0:0|0:0,0:0:0:0:
172,24,173928,1,8,0:0:0:0:
252,116,174086,2,0,B|344:144|344:64|456:92,1,203.999993774414,2|0,0:0|0:0,0:0:0:0:
412,208,174560,1,8,0:0:0:0:
452,324,174718,2,2,B|347:350|347:270|255:298,1,203.999993774414,6|2,0:0|0:0,0:0:0:0:
148,356,175191,1,8,0:0:0:0:
148,233,175349,2,0,L|60:37,1,203.999993774414,2|0,0:0|0:0,0:0:0:0:
188,64,175823,1,8,0:0:0:0:
188,64,175981,6,0,B|248:48|248:48|272:68|272:68|400:40,1,203.999993774414,6|0,0:0|0:0,0:0:0:0:
492,96,176454,1,8,0:0:0:0:
396,172,176612,1,0,0:0:0:0:
396,172,176770,2,0,P|388:232|404:284,1,101.999996887207,2|0,0:0|0:0,0:0:0:0:
312,360,177086,1,8,0:0:0:0:
224,272,177244,2,0,P|234:222|225:172,1,101.999996887207,6|0,0:0|0:0,0:0:0:0:
113,223,177560,2,0,P|103:173|112:124,1,101.999996887207,2|8,0:0|0:0,0:0:0:0:
212,52,177876,1,0,0:0:0:0:
212,52,178033,6,2,B|248:44|248:44|256:48|256:48|312:32,2,76.4999976654053
304,132,178507,6,0,B|400:100|400:100|512:136,1,203.999993774414,6|0,0:0|0:0,0:0:0:0:
400,208,178981,1,8,0:0:0:0:
496,280,179139,2,0,B|398:311|398:311|302:279,1,203.999993774414,2|0,0:0|0:0,0:0:0:0:
220,184,179612,1,8,0:0:0:0:
220,184,179770,2,0,P|252:232|220:372,1,203.999993774414,6|0,0:0|0:0,0:0:0:0:
136,280,180244,1,8,0:0:0:0:
60,184,180402,2,0,P|52:132|72:56,1,101.999996887207,2|0,0:0|0:0,0:0:0:0:
176,48,180718,2,0,L|304:12,1,101.999996887207,2|8,0:0|0:0,0:0:0:0:
260,144,181033,6,0,L|468:88,1,203.999993774414,6|0,0:0|0:0,0:0:0:0:
432,212,181507,1,8,0:0:0:0:
432,212,181665,2,0,P|460:256|336:296,1,203.999993774414,2|0,0:0|0:0,0:0:0:0:
264,244,182139,1,8,0:0:0:0:
168,320,182297,2,0,P|116:332|48:308,1,101.999996887207,6|0,0:0|0:0,0:0:0:0:
116,208,182612,2,0,P|104:156|128:88,1,101.999996887207,2|8,0:0|0:0,0:0:0:0:
228,160,182928,2,0,P|280:148|348:172,1,101.999996887207,2|0,0:0|0:0,0:0:0:0:
280,272,183244,2,0,P|292:324|268:392,1,101.999996887207,2|8,0:0|0:0,0:0:0:0:
168,320,183560,6,2,P|112:340|112:212,1,203.999993774414,6|2,0:0|0:0,0:0:0:0:
180,176,184033,2,0,L|196:52,1,101.999996887207,8|0,0:0|0:0,0:0:0:0:
296,8,184349,1,0,0:0:0:0:
400,76,184507,2,0,L|413:177,1,101.999996887207,0|8,0:0|0:0,0:0:0:0:
500,268,184823,2,0,P|432:224|320:288,1,203.999993774414,6|0,0:0|0:0,0:0:0:0:
244,360,185297,1,8,0:0:0:0:
172,264,185454,2,0,B|124:172|212:172|160:56,1,203.999993774414,2|0,0:0|0:0,0:0:0:0:
48,32,185928,1,8,0:0:0:0:
92,144,186086,6,0,P|148:172|268:72,1,203.999993774414,2|0,0:0|0:0,0:0:0:0:
352,24,186560,1,8,0:0:0:0:
444,104,186718,1,0,0:0:0:0:
444,104,186876,2,0,P|452:168|432:232,1,101.999996887207,2|0,0:0|0:0,0:0:0:0:
352,288,187191,1,8,0:0:0:0:
278,194,187349,6,0,B|258:194|234:218|234:218|210:194|186:194,1,101.999996887207,2|8,0:0|0:0,0:0:0:0:
79,218,187665,1,2,0:0:0:0:
75,227,187744,1,8,0:0:0:0:
71,235,187823,1,0,0:0:0:0:
67,243,187902,1,8,0:0:0:0:
63,251,187981,1,0,0:0:0:0:
148,324,188139,2,0,B|168:324|192:348|192:348|216:324|240:324,1,101.999996887207,2|0,0:0|0:0,0:0:0:0:
243,330,188376,1,8,0:0:0:0:
250,336,188454,1,0,0:0:0:0:
352,260,188612,6,2,P|376:204|336:84,1,170,6|0,0:0|0:0,0:0:0:0:
276,32,189086,2,0,L|180:16,1,85,10|0,0:0|0:0,0:0:0:0:
120,92,189402,2,0,L|20:72,2,85,2|0|8,0:0|0:0|0:0,0:0:0:0:
216,124,189876,2,2,L|180:304,1,170,6|2,0:0|0:0,0:0:0:0:
240,376,190349,1,10,0:0:0:0:
240,376,190507,1,0,0:0:0:0:
300,292,190665,1,2,0:0:0:0:
300,292,190823,2,0,P|344:284|408:308,1,85,0|8,0:0|0:0,0:0:0:0:
464,356,191139,6,2,P|440:300|488:184,1,170,6|2,0:0|0:0,0:0:0:0:
472,96,191612,2,0,L|368:152,1,85,10|0,0:0|0:0,0:0:0:0:
296,136,191928,2,0,L|221:95,2,85,2|0|8,0:0|0:0|0:0,0:0:0:0:
216,200,192402,2,2,P|247:276|216:356,1,170,6|2,0:0|0:0,0:0:0:0:
148,280,192876,2,0,L|76:264,2,42.5,0|8|0,0:0|0:0|0:0,0:0:0:0:
124,180,193191,2,0,L|56:160,2,42.5,0|8|0,0:0|0:0|0:0,0:0:0:0:
184,96,193507,1,8,0:0:0:0:
184,96,193665,6,2,B|228:96|260:72|260:72|296:96|344:96,1,170,6|2,0:0|0:0,0:0:0:0:
444,68,194139,2,0,L|428:176,1,85,10|0,0:0|0:0,0:0:0:0:
348,208,194454,2,0,L|360:316,1,85,2|0,0:0|0:0,0:0:0:0:
256,272,194770,1,8,0:0:0:0:
256,272,194928,2,2,P|212:292|84:264,1,170,6|2,0:0|0:0,0:0:0:0:
168,196,195402,2,0,P|120:168|88:116,1,85,10|0,0:0|0:0,0:0:0:0:
192,96,195718,2,0,P|240:68|272:16,2,85,2|0|8,0:0|0:0|0:0,0:0:0:0:
104,40,196191,6,2,P|60:48|4:160,1,170,6|2,0:0|0:0,0:0:0:0:
52,240,196665,2,0,L|60:340,1,85,10|0,0:0|0:0,0:0:0:0:
160,324,196981,1,2,0:0:0:0:
160,324,197139,2,0,L|168:208,1,85,0|8,0:0|0:0,0:0:0:0:
176,136,197454,2,2,B|260:96|260:172|356:128,1,170,6|2,0:0|0:0,0:0:0:0:
428,80,197928,2,0,P|392:136|444:248,1,170,8|2,0:0|0:0,0:0:0:0:
492,304,198402,1,0,0:0:0:0:
396,340,198560,2,0,L|260:320,1,127.5,10|0,0:0|0:0,0:0:0:0:
220,312,198876,1,6,0:0:0:0:
256,192,198954,12,0,206454,0:0:0:0:
