osu file format v14

[General]
AudioFilename: audio.mp3
AudioLeadIn: 0
PreviewTime: 73428
Countdown: 0
SampleSet: Soft
StackLeniency: 0.5
Mode: 0
LetterboxInBreaks: 0
WidescreenStoryboard: 1

[Editor]
Bookmarks: 16981,27086,37033,47139,57244,67507,74928,77454,97665,102718,107770,118033,125454,140297,157823,158454,165876,168560,172823,178665,183244,188770,198876,211507
DistanceSpacing: 1.1
BeatDivisor: 4
GridSize: 4
TimelineZoom: 1

[Metadata]
Title:Logic Agent
TitleUnicode:ロジックエージェント
Artist:Reol
ArtistUnicode:れをる
Creator:Naotoshi
Version:Hard
Source:
Tags:jpop pan xinely niki polkamocha Gokusaishoku Gokusaishiki Giga-P Akitoshi
BeatmapID:1243286
BeatmapSetID:578814

[Difficulty]
HPDrainRate:4
CircleSize:3.5
OverallDifficulty:6
ApproachRate:7
SliderMultiplier:1
SliderTickRate:1

[Events]
//Background and Video events
0,0,"girl_anime_rain_glass_light_schoolgirl_102497_1366x768.jpg",0,0
//Break Periods
2,97865,101818
2,158654,162291
//Storyboard Layer 0 (Background)
//Storyboard Layer 1 (Fail)
//Storyboard Layer 2 (Pass)
//Storyboard Layer 3 (Foreground)
//Storyboard Sound Samples

[TimingPoints]
6876,315.789473684211,4,2,1,40,1,0
16981,-83.3333333333333,4,2,2,40,0,0
20301,-100,4,2,2,40,0,0
21564,-83.3333333333333,4,2,2,40,0,0
25353,-100,4,2,2,40,0,0
26849,-76.9230769230769,4,2,2,40,0,0
27086,-76.9230769230769,4,2,3,60,0,0
36876,-74.0740740740741,4,2,3,60,0,0
37033,-74.0740740740741,4,2,3,80,0,0
47139,-76.9230769230769,4,2,3,80,0,0
57244,-71.4285714285714,4,2,3,80,0,0
67507,-90.9090909090909,4,2,3,80,0,0
74928,-71.4285714285714,4,2,3,80,0,0
77454,-62.5,4,2,3,80,0,1
97665,-62.5,4,2,3,80,0,0
102718,-83.3333333333333,4,2,3,80,0,0
107770,-71.4285714285714,4,2,3,80,0,0
118033,-90.9090909090909,4,2,3,80,0,0
124981,-71.4285714285714,4,2,3,80,0,0
125454,-71.4285714285714,4,2,3,80,0,0
127981,-62.5,4,2,3,80,0,1
148191,-66.6666666666667,4,2,3,80,0,0
163191,-71.4285714285714,4,2,3,80,0,0
171086,-100,4,2,3,20,0,0
171402,-100,4,2,3,30,0,0
171718,-100,4,2,3,60,0,0
172112,-100,4,2,3,5,0,0
172191,-62.5,4,2,3,80,0,0
178507,-62.5,4,2,3,80,0,1
188612,-66.6666666666667,4,2,3,80,0,0
198560,-66.6666666666667,4,2,3,80,0,0
199492,-66.6666666666667,4,2,3,75,0,0
200124,-66.6666666666667,4,2,3,70,0,0
200755,-66.6666666666667,4,2,3,65,0,0
201387,-66.6666666666667,4,2,3,50,0,0
202033,-66.6666666666667,4,2,3,35,0,0
202981,-66.6666666666667,4,2,3,20,0,0
204244,-66.6666666666667,4,2,3,10,0,0
206454,-66.6666666666667,4,2,3,5,0,0

[Colours]
Combo1 : 253,159,2
Combo2 : 192,192,192
Combo3 : 227,210,166

[HitObjects]
132,148,6876,6,0,L|118:210,2,50,4|4|8,0:0|0:0|0:0,0:0:0:0:
224,207,7507,2,0,L|257:260,2,50,2|0|8,0:0|0:0|0:0,0:0:0:0:
331,184,8139,2,0,L|393:198,2,50,4|4|8,0:0|0:0|0:0,0:0:0:0:
391,92,8770,2,0,L|444:58,2,50,2|0|8,0:0|0:0|0:0,0:0:0:0:
302,26,9402,6,0,L|240:12,2,50,4|4|8,0:0|0:0|0:0,0:0:0:0:
243,118,10033,2,0,L|189:151,2,50,2|0|8,0:0|0:0|0:0,0:0:0:0:
266,225,10665,2,0,L|252:287,2,50,4|4|8,0:0|0:0|0:0,0:0:0:0:
358,285,11296,2,0,L|391:338,2,50,2|0|8,0:0|0:0|0:0,0:0:0:0:
362,229,11770,1,8,0:0:0:0:
388,181,11928,6,0,L|389:124,2,50,4|4|8,0:0|0:0|0:0,0:0:0:0:
282,148,12560,2,0,L|263:94,2,50,2|0|8,0:0|0:0|0:0,0:0:0:0:
171,153,13191,2,0,L|135:108,2,50,4|4|8,0:0|0:0|0:0,0:0:0:0:
68,195,13823,2,0,L|19:165,2,50,2|0|8,0:0|0:0|0:0,0:0:0:0:
23,295,14454,6,0,L|22:352,2,50,4|4|8,0:0|0:0|0:0,0:0:0:0:
129,328,15086,2,0,L|148:382,2,50,2|0|8,0:0|0:0|0:0,0:0:0:0:
240,323,15717,2,0,L|276:368,2,50,2|2|8,0:0|0:0|0:0,0:0:0:0:
312,240,16349,2,0,L|368:276,2,50,12|8|0,0:0|0:0|0:0,0:0:0:0:
321,181,16823,1,0,0:0:0:0:
338,132,16981,6,0,P|350:72|347:6,2,119.999996337891,4|0|0,0:0|0:0|0:0,0:0:0:0:
233,140,17928,1,0,0:0:0:0:
233,140,18086,2,0,P|250:80|253:15,2,119.999996337891,0|0|0,0:0|0:0|0:0,0:0:0:0:
127,220,19033,2,8,P|142:280|172:338,1,119.999996337891,0|0,0:0|0:0,0:0:0:0:
202,373,19507,6,0,P|256:351|329:358,2,119.999996337891
78,310,20454,2,0,P|109:212|81:14,1,300
249,25,21876,5,0,0:0:0:0:
249,25,22033,2,0,P|269:91|257:167,1,119.999996337891,0|0,0:0|0:0,0:0:0:0:
156,218,22665,2,0,P|137:274|139:334,1,119.999996337891,0|0,0:0|0:0,0:0:0:0:
176,373,23139,2,0,P|247:352|305:358,2,119.999996337891
48,357,24086,1,0,0:0:0:0:
110,243,24402,1,0,0:0:0:0:
110,243,24560,6,0,P|45:219|-21:220,2,119.999996337891,0|0|0,0:0|0:0|0:0,0:0:0:0:
224,324,25507,2,0,P|331:281|516:273,1,300
454,131,26928,5,0,0:0:0:0:
454,131,27086,2,0,P|398:128|356:132,1,64.9999970245363,6|2,0:0|0:0,0:0:0:0:
324,89,27402,2,0,P|311:41|309:18,1,64.9999970245363,8|0,0:0|0:0,0:0:0:0:
99,34,28033,2,0,P|94:66|84:97,1,64.9999970245363,8|0,0:0|0:0,0:0:0:0:
30,149,28349,6,0,P|10:215|9:232,1,64.9999970245363,2|2,0:0|0:0,0:0:0:0:
72,254,28665,2,0,P|103:261|133:273,1,64.9999970245363,8|0,0:0|0:0,0:0:0:0:
330,359,29297,2,0,P|394:353|406:353,1,64.9999970245363,8|0,0:0|0:0,0:0:0:0:
468,363,29612,5,2,0:0:0:0:
492,292,29770,2,0,P|481:223|474:208,1,64.9999970245363,2|8,0:0|0:0,0:0:0:0:
420,185,30086,2,0,P|422:113|428:89,1,64.9999970245363,0|0,0:0|0:0,0:0:0:0:
271,109,30560,1,8,0:0:0:0:
151,199,30876,2,0,P|101:204|61:199,1,64.9999970245363,2|2,0:0|0:0,0:0:0:0:
12,189,31191,1,8,0:0:0:0:
15,48,31507,2,0,P|65:43|105:48,1,64.9999970245363,2|2,0:0|0:0,0:0:0:0:
153,54,31822,1,8,0:0:0:0:
303,58,32139,5,6,0:0:0:0:
346,118,32297,2,0,P|378:118|410:115,1,64.9999970245363,2|8,0:0|0:0,0:0:0:0:
485,118,32612,2,0,P|511:193|511:204,1,64.9999970245363,0|0,0:0|0:0,0:0:0:0:
441,311,33086,1,8,0:0:0:0:
300,362,33402,5,2,0:0:0:0:
236,322,33560,1,2,0:0:0:0:
169,356,33718,2,0,B|97:370|38:377|63:374,1,64.9999970245363,8|0,0:0|0:0,0:0:0:0:
7,165,34349,1,8,0:0:0:0:
119,66,34665,5,2,0:0:0:0:
181,107,34823,2,0,P|218:117|256:123,1,64.9999970245363,2|8,0:0|0:0,0:0:0:0:
320,123,35139,2,0,P|351:117|383:108,1,64.9999970245363,0|2,0:0|0:0,0:0:0:0:
435,55,35454,2,0,P|473:34|520:34,2,64.9999970245363,2|8|2,0:0|0:0|0:0,0:0:0:0:
452,135,35928,1,2,0:0:0:0:
439,60,36876,5,8,0:0:0:0:
439,60,37033,2,0,P|423:114|455:215,1,135.000000514984,6|2,0:0|0:0,0:0:0:0:
464,273,37507,2,0,P|435:289|323:268,1,135.000000514984,8|2,0:0|0:0,0:0:0:0:
270,221,37981,2,0,P|205:216|181:218,1,67.5000002574921,2|8,0:0|0:0,0:0:0:0:
135,271,38297,6,0,P|91:209|60:125,1,135.000000514984,6|2,0:0|0:0,0:0:0:0:
72,67,38770,2,0,P|133:49|221:52,1,135.000000514984,8|2,0:0|0:0,0:0:0:0:
268,109,39244,2,0,P|333:120|356:116,1,67.5000002574921,2|8,0:0|0:0,0:0:0:0:
402,64,39560,6,0,P|421:122|385:206,1,135.000000514984,6|2,0:0|0:0,0:0:0:0:
326,240,40033,2,0,P|260:223|171:242,1,135.000000514984,8|2,0:0|0:0,0:0:0:0:
113,266,40507,1,2,0:0:0:0:
120,353,40665,1,8,0:0:0:0:
207,360,40823,6,0,P|269:360|348:315,1,135.000000514984,6|2,0:0|0:0,0:0:0:0:
274,263,41297,2,8,P|259:197|276:132,1,135.000000514984,8|2,0:0|0:0,0:0:0:0:
342,76,41770,1,2,0:0:0:0:
282,11,41928,1,8,0:0:0:0:
214,66,42086,6,0,P|145:92|72:81,1,135.000000514984,6|2,0:0|0:0,0:0:0:0:
6,125,42560,1,8,0:0:0:0:
74,180,42718,2,0,P|30:245|15:313,1,135.000000514984,0|2,0:0|0:0,0:0:0:0:
54,377,43191,1,8,0:0:0:0:
117,316,43349,6,0,P|186:294|271:315,1,135.000000514984,6|2,0:0|0:0,0:0:0:0:
303,371,43823,2,0,P|329:332|354:307,1,67.5000002574921,8|0,0:0|0:0,0:0:0:0:
414,264,44139,2,0,P|417:201|409:172,1,67.5000002574921,2|2,0:0|0:0,0:0:0:0:
371,121,44454,1,8,0:0:0:0:
300,173,44612,6,0,P|236:200|167:189,1,135.000000514984,6|2,0:0|0:0,0:0:0:0:
102,138,45086,2,0,P|109:66|109:61,1,67.5000002574921,8|0,0:0|0:0,0:0:0:0:
175,12,45402,2,0,P|227:1|267:1,1,67.5000002574921,2|2,0:0|0:0,0:0:0:0:
325,26,45718,1,8,0:0:0:0:
395,78,45876,6,0,P|407:140|393:235,1,135.000000514984,6|2,0:0|0:0,0:0:0:0:
342,277,46349,2,0,P|322:334|319:365,1,67.5000002574921,8|0,0:0|0:0,0:0:0:0:
232,337,46665,2,0,P|224:304|210:273,1,67.5000002574921,2|8,0:0|0:0,0:0:0:0:
129,238,46981,1,8,0:0:0:0:
185,166,47139,6,8,P|160:145|125:131,1,64.9999970245363,12|0,0:0|0:0,0:0:0:0:
89,142,47454,1,2,0:0:0:0:
62,169,47612,1,8,0:0:0:0:
56,286,47928,5,2,0:0:0:0:
81,331,48086,1,2,0:0:0:0:
132,336,48244,1,8,0:0:0:0:
219,280,48560,5,2,0:0:0:0:
267,299,48718,1,2,0:0:0:0:
278,349,48876,2,0,P|333:353|359:349,1,64.9999970245363,8|0,0:0|0:0,0:0:0:0:
385,321,49191,1,2,0:0:0:0:
375,269,49349,1,2,0:0:0:0:
416,238,49507,2,0,P|416:203|413:168,1,64.9999970245363,8|2,0:0|0:0,0:0:0:0:
352,88,49981,5,2,0:0:0:0:
312,121,50139,2,0,P|260:126|241:124,1,64.9999970245363,8|0,0:0|0:0,0:0:0:0:
213,164,50454,1,2,0:0:0:0:
240,210,50612,1,2,0:0:0:0:
219,257,50770,1,8,0:0:0:0:
114,260,51086,5,2,0:0:0:0:
94,211,51244,1,2,0:0:0:0:
110,161,51402,1,8,0:0:0:0:
187,90,51718,5,2,0:0:0:0:
236,106,51876,1,8,0:0:0:0:
250,155,52033,1,8,0:0:0:0:
234,204,52191,6,0,P|292:209|376:194,1,129.999994049073,6|2,0:0|0:0,0:0:0:0:
413,181,52665,1,8,0:0:0:0:
431,78,52981,5,2,0:0:0:0:
382,58,53139,1,2,0:0:0:0:
340,89,53297,1,8,0:0:0:0:
335,192,53612,5,2,0:0:0:0:
315,240,53770,1,2,0:0:0:0:
263,244,53928,1,8,0:0:0:0:
199,161,54244,5,2,0:0:0:0:
168,202,54402,1,2,0:0:0:0:
158,253,54560,1,8,0:0:0:0:
195,289,54718,6,0,P|267:268|325:285,1,129.999994049073,2|2,0:0|0:0,0:0:0:0:
355,318,55191,1,8,0:0:0:0:
427,243,55507,5,2,0:0:0:0:
413,192,55665,1,2,0:0:0:0:
361,198,55823,1,8,0:0:0:0:
256,200,56139,5,0,0:0:0:0:
225,158,56297,1,2,0:0:0:0:
229,106,56454,1,8,0:0:0:0:
316,49,56770,6,0,P|316:83|318:126,2,64.9999970245363,2|2|8,0:0|0:0|0:0,0:0:0:0:
372,52,57244,6,0,B|413:99|413:99|408:198,1,139.999995727539,6|2,0:0|0:0,0:0:0:0:
389,254,57718,1,8,0:0:0:0:
316,279,57876,2,0,B|241:278|241:278|158:325,1,139.999995727539,0|2,0:0|0:0,0:0:0:0:
122,355,58349,1,8,0:0:0:0:
62,306,58507,6,0,P|40:230|51:149,1,139.999995727539,2|2,0:0|0:0,0:0:0:0:
95,111,58981,1,8,0:0:0:0:
167,136,59139,2,0,P|181:189|179:209,1,69.9999978637696,0|2,0:0|0:0,0:0:0:0:
242,248,59454,2,0,P|257:196|258:177,1,69.9999978637696,2|8,0:0|0:0,0:0:0:0:
239,105,59770,6,0,P|300:50|348:74,1,139.999995727539,2|2,0:0|0:0,0:0:0:0:
393,129,60244,2,0,P|442:170|454:178,1,69.9999978637696,8|0,0:0|0:0,0:0:0:0:
387,223,60560,2,0,P|387:288|390:305,1,69.9999978637696,2|2,0:0|0:0,0:0:0:0:
437,351,60876,1,8,0:0:0:0:
367,383,61033,6,0,P|307:387|216:380,1,139.999995727539,2|2,0:0|0:0,0:0:0:0:
167,332,61507,1,8,0:0:0:0:
95,360,61665,2,0,P|77:311|54:279,1,69.9999978637696,0|2,0:0|0:0,0:0:0:0:
108,229,61981,1,8,0:0:0:0:
121,153,62139,1,8,0:0:0:0:
198,156,62297,6,0,P|289:173|353:150,1,139.999995727539,6|2,0:0|0:0,0:0:0:0:
404,131,62770,2,0,P|421:222|398:286,1,139.999995727539,8|2,0:0|0:0,0:0:0:0:
338,299,63244,2,0,P|284:300|255:306,1,69.9999978637696,2|8,0:0|0:0,0:0:0:0:
207,349,63560,6,0,P|116:365|64:346,1,139.999995727539,2|2,0:0|0:0,0:0:0:0:
39,281,64033,2,0,P|31:196|12:133,1,139.999995727539,8|2,0:0|0:0,0:0:0:0:
15,66,64507,2,0,P|73:38|101:39,1,69.9999978637696,2|8,0:0|0:0,0:0:0:0:
133,93,64823,6,0,P|212:110|286:90,1,139.999995727539,2|2,0:0|0:0,0:0:0:0:
336,60,65297,2,0,P|404:48|471:65,1,139.999995727539,8|2,0:0|0:0,0:0:0:0:
495,138,65770,1,2,0:0:0:0:
438,190,65928,2,0,P|430:255|434:286,1,69.9999978637696,8|0,0:0|0:0,0:0:0:0:
436,336,66244,6,0,P|380:360|351:363,1,69.9999978637696,2|2,0:0|0:0,0:0:0:0:
294,351,66560,1,8,0:0:0:0:
208,222,66876,2,0,P|208:183|225:148,2,69.9999978637696,10|10|10,0:0|0:0|0:0,0:0:0:0:
181,294,67349,1,2,0:0:0:0:
109,310,67507,6,0,B|73:261|73:261|70:190,1,110.000003356934,6|2,0:0|0:0,0:0:0:0:
84,164,67981,2,0,P|86:118|78:43,2,110.000003356934,0|0|2,0:0|0:0|0:0,0:0:0:0:
179,80,68928,1,0,0:0:0:0:
293,117,69244,1,0,0:0:0:0:
400,61,69560,2,0,P|448:53|474:54,1,55.0000016784668,0|2,0:0|0:0,0:0:0:0:
488,88,69876,6,0,P|501:158|491:216,1,110.000003356934
402,268,70507,2,0,P|389:198|399:140,1,110.000003356934,0|0,0:0|0:0,0:0:0:0:
384,110,70981,2,0,P|360:93|324:72,1,55.0000016784668
292,59,71297,6,8,B|234:58|234:58|184:100,1,110.000003356934,6|2,0:0|0:0,0:0:0:0:
123,190,71928,1,8,0:0:0:0:
169,301,72244,2,0,P|170:329|166:359,2,55.0000016784668,2|10|10,0:0|0:0|0:0,0:0:0:0:
43,282,74928,6,0,P|55:179|42:124,1,139.999995727539,6|2,0:0|0:0,0:0:0:0:
90,79,75402,2,0,P|144:65|240:87,1,139.999995727539,8|2,0:0|0:0,0:0:0:0:
293,118,75876,1,2,0:0:0:0:
353,71,76033,2,0,P|409:65|437:72,1,69.9999978637696,8|0,0:0|0:0,0:0:0:0:
467,130,76349,6,0,P|480:165|492:209,2,69.9999978637696,8|8|8,0:0|0:0|0:0,0:0:0:0:
396,163,76823,1,0,0:0:0:0:
357,229,76981,2,0,P|336:264|309:290,1,69.9999978637696,2|0,0:0|0:0,0:0:0:0:
241,306,77297,1,0,0:0:0:0:
195,240,77454,6,0,P|186:194|137:74,1,160,6|2,0:0|0:0,0:0:0:0:
98,13,77928,1,8,0:0:0:0:
186,10,78086,2,0,P|293:13|349:20,1,160,0|2,0:0|0:0,0:0:0:0:
426,55,78560,1,8,0:0:0:0:
361,114,78718,6,0,P|349:229|351:300,1,160,6|2,0:0|0:0,0:0:0:0:
373,356,79191,1,8,0:0:0:0:
444,304,79349,2,0,P|470:253|473:215,1,80,0|2,0:0|0:0,0:0:0:0:
483,143,79665,2,0,P|482:103|473:64,1,80,2|8,0:0|0:0,0:0:0:0:
385,75,79981,6,0,P|303:104|212:91,1,160,6|2,0:0|0:0,0:0:0:0:
157,50,80454,1,8,0:0:0:0:
157,138,80612,2,0,P|167:226|143:323,1,160,0|2,0:0|0:0,0:0:0:0:
97,367,81086,1,8,0:0:0:0:
35,303,81244,6,0,P|28:242|50:192,1,80,6|0,0:0|0:0,0:0:0:0:
79,149,81560,2,0,P|127:136|167:140,1,80,2|8,0:0|0:0,0:0:0:0:
241,164,81876,2,0,P|304:179|344:171,1,80,0|2,0:0|0:0,0:0:0:0:
404,157,82191,2,0,P|438:104|440:72,1,80,2|8,0:0|0:0,0:0:0:0:
375,27,82507,6,0,B|299:8|299:8|214:30,1,160,6|2,0:0|0:0,0:0:0:0:
135,55,82981,1,8,0:0:0:0:
52,25,83139,2,0,P|48:83|127:144,1,160,0|2,0:0|0:0,0:0:0:0:
209,144,83612,1,8,0:0:0:0:
227,230,83770,6,0,P|229:295|217:330,1,80,6|0,0:0|0:0,0:0:0:0:
152,358,84086,2,0,P|87:360|52:348,1,80,2|8,0:0|0:0,0:0:0:0:
21,284,84402,2,0,P|38:191|6:113,1,160,0|2,0:0|0:0,0:0:0:0:
53,49,84876,1,8,0:0:0:0:
134,81,85033,6,0,P|214:96|296:76,1,160,6|0,0:0|0:0,0:0:0:0:
364,31,85507,2,0,P|402:57|417:93,1,80,8|0,0:0|0:0,0:0:0:0:
383,168,85823,2,0,P|408:230|433:251,2,80,2|2|8,0:0|0:0|0:0,0:0:0:0:
294,172,86297,6,0,P|286:231|295:277,1,80,6|0,0:0|0:0,0:0:0:0:
238,323,86612,2,0,P|214:290|201:252,1,80,2|8,0:0|0:0,0:0:0:0:
199,170,86928,1,0,0:0:0:0:
128,222,87086,2,0,P|75:221|37:208,1,80,2|2,0:0|0:0,0:0:0:0:
7,135,87402,1,8,0:0:0:0:
80,85,87560,6,0,B|123:85|153:99|153:99|163:138|205:175,1,160,6|2,0:0|0:0,0:0:0:0:
257,235,88033,1,8,0:0:0:0:
322,175,88191,2,0,B|357:143|367:104|367:104|397:90|440:90,1,160,0|2,0:0|0:0,0:0:0:0:
499,155,88665,1,8,0:0:0:0:
476,240,88823,6,0,P|432:283|322:239,1,160,6|2,0:0|0:0,0:0:0:0:
280,202,89297,1,8,0:0:0:0:
209,254,89454,2,0,P|153:272|125:270,1,80,0|2,0:0|0:0,0:0:0:0:
77,201,89770,2,0,P|133:183|161:185,1,80,2|8,0:0|0:0,0:0:0:0:
240,166,90086,6,8,P|228:73|193:6,1,160,6|2,0:0|0:0,0:0:0:0:
110,25,90560,2,0,P|107:64|113:104,1,80,8|0,0:0|0:0,0:0:0:0:
19,104,90876,2,0,P|25:64|22:25,2,80,2|8|0,0:0|0:0|0:0,0:0:0:0:
61,182,91349,6,0,P|96:238|218:243,1,160,6|2,0:0|0:0,0:0:0:0:
264,222,91823,1,8,0:0:0:0:
342,261,91981,2,0,P|397:296|412:310,1,80,0|2,0:0|0:0,0:0:0:0:
496,298,92297,2,0,P|478:262|453:231,1,80,2|8,0:0|0:0,0:0:0:0:
382,178,92612,6,0,P|405:98|458:26,1,160,6|2,0:0|0:0,0:0:0:0:
365,4,93086,2,0,P|285:27|213:80,1,160,8|2,0:0|0:0,0:0:0:0:
172,141,93560,1,2,0:0:0:0:
84,141,93718,2,8,P|99:190|132:218,1,80,8|0,0:0|0:0,0:0:0:0:
200,221,94033,5,2,0:0:0:0:
142,295,94191,2,0,P|118:375|121:400,1,80,2|8,0:0|0:0,0:0:0:0:
205,359,94507,2,0,P|261:351|306:357,1,80,0|2,0:0|0:0,0:0:0:0:
360,384,94823,1,2,0:0:0:0:
346,293,94981,1,8,0:0:0:0:
437,320,95139,6,0,P|442:196|469:138,1,160,6|2,0:0|0:0,0:0:0:0:
503,91,95612,1,8,0:0:0:0:
452,17,95770,2,0,P|413:15|373:22,1,80,0|2,0:0|0:0,0:0:0:0:
285,21,96086,2,0,P|246:9|206:8,1,80,2|8,0:0|0:0,0:0:0:0:
142,69,96402,1,0,0:0:0:0:
187,144,96560,6,8,P|258:155|304:151,1,80,2|2,0:0|0:0,0:0:0:0:
317,227,96876,1,8,0:0:0:0:
184,341,97191,2,0,P|153:313|239:283,1,160,2|2,0:0|0:0,0:0:0:0:
273,334,97665,1,12,0:0:0:0:
214,374,102718,6,0,P|213:292|188:244,1,119.999996337891,6|2,0:0|0:0,0:0:0:0:
161,212,103191,2,0,B|136:147|153:86,1,119.999996337891,8|0,0:0|0:0,0:0:0:0:
203,78,103665,1,2,0:0:0:0:
255,89,103823,2,8,P|276:75|296:40,1,59.9999981689454,8|0,0:0|0:0,0:0:0:0:
259,4,104139,1,0,0:0:0:0:
132,29,104454,6,0,P|89:94|97:145,1,119.999996337891,8|2,0:0|0:0,0:0:0:0:
108,189,104928,2,0,P|116:233|115:269,1,59.9999981689454,2|8,0:0|0:0,0:0:0:0:
107,306,105244,2,0,P|184:330|243:316,1,119.999996337891,2|2,0:0|0:0,0:0:0:0:
270,292,105718,2,0,P|331:269|398:281,1,119.999996337891,8|0,0:0|0:0,0:0:0:0:
437,300,106191,1,2,0:0:0:0:
472,254,106349,5,8,0:0:0:0:
417,151,106665,2,0,L|433:80,2,59.9999981689454,2|2|8,0:0|0:0|0:0,0:0:0:0:
317,97,107297,2,0,L|328:155,1,59.9999981689454,2|2,0:0|0:0,0:0:0:0:
293,199,107612,1,8,0:0:0:0:
238,205,107770,6,0,P|174:224|84:200,1,139.999995727539,6|2,0:0|0:0,0:0:0:0:
48,155,108244,1,8,0:0:0:0:
0,215,108402,2,8,P|26:279|103:315,1,139.999995727539,0|2,0:0|0:0,0:0:0:0:
162,319,108876,2,0,P|225:306|259:310,1,69.9999978637696,8|0,0:0|0:0,0:0:0:0:
306,315,109191,6,0,P|291:367|278:394,2,69.9999978637696,2|0|8,0:0|0:0|0:0,0:0:0:0:
324,240,109665,2,0,P|340:183|417:123,1,139.999995727539,2|2,0:0|0:0,0:0:0:0:
471,103,110139,1,8,0:0:0:0:
438,33,110297,6,0,P|379:14|287:30,1,139.999995727539,2|2,0:0|0:0,0:0:0:0:
248,78,110770,2,0,P|202:111|168:121,1,69.9999978637696,8|0,0:0|0:0,0:0:0:0:
123,155,111086,2,0,P|107:209|109:244,2,69.9999978637696,2|2|8,0:0|0:0|0:0,0:0:0:0:
114,77,111560,6,0,P|74:34|16:87,1,139.999995727539,0|2,0:0|0:0,0:0:0:0:
31,148,112033,1,8,0:0:0:0:
3,220,112191,2,0,P|24:295|87:325,1,139.999995727539,0|8,0:0|0:0,0:0:0:0:
152,323,112665,1,8,0:0:0:0:
225,301,112823,6,0,B|301:276|304:339|388:297,1,139.999995727539,6|2,0:0|0:0,0:0:0:0:
430,271,113297,2,0,P|428:214|459:123,1,139.999995727539,8|2,0:0|0:0,0:0:0:0:
497,73,113770,1,2,0:0:0:0:
433,29,113928,1,8,0:0:0:0:
387,90,114086,6,0,P|314:103|229:87,1,139.999995727539,2|2,0:0|0:0,0:0:0:0:
190,43,114560,2,0,P|121:58|62:93,1,139.999995727539,8|2,0:0|0:0,0:0:0:0:
42,168,115033,1,2,0:0:0:0:
80,234,115191,1,8,0:0:0:0:
152,207,115349,6,0,P|227:192|304:217,1,139.999995727539,2|2,0:0|0:0,0:0:0:0:
323,276,115823,2,0,P|390:291|458:276,1,139.999995727539,8|2,0:0|0:0,0:0:0:0:
505,213,116297,1,2,0:0:0:0:
456,153,116454,2,0,P|454:107|463:77,1,69.9999978637696,8|2,0:0|0:0,0:0:0:0:
389,52,116770,5,0,0:0:0:0:
316,83,116928,2,0,P|324:117|321:152,1,69.9999978637696,2|8,0:0|0:0,0:0:0:0:
256,292,117402,6,0,P|259:257|271:224,2,69.9999978637696,2|8|2,0:0|0:0|0:0,0:0:0:0:
211,355,117876,1,8,0:0:0:0:
160,294,118033,5,6,0:0:0:0:
101,188,118349,1,2,0:0:0:0:
74,229,118507,2,0,P|55:276|68:349,2,110.000003356934,0|0|2,0:0|0:0|0:0,0:0:0:0:
160,294,119454,1,0,0:0:0:0:
278,270,119770,1,0,0:0:0:0:
388,320,120086,2,0,P|436:328|462:327,1,55.0000016784668,0|2,0:0|0:0,0:0:0:0:
489,313,120402,6,0,P|505:249|482:186,1,110.000003356934
396,216,121033,2,0,P|382:164|401:102,1,110.000003356934
393,60,121507,2,0,P|366:38|344:27,1,55.0000016784668,2|8,0:0|0:0,0:0:0:0:
302,49,121823,6,0,P|228:37|180:42,1,110.000003356934,6|2,0:0|0:0,0:0:0:0:
122,137,122454,1,8,0:0:0:0:
17,75,122770,2,0,P|27:35|42:9,2,55.0000016784668,2|8|8,0:0|0:0|0:0,0:0:0:0:
36,51,125454,6,0,P|53:144|34:214,1,139.999995727539,6|2,0:0|0:0,0:0:0:0:
11,257,125928,2,0,P|37:322|109:366,1,139.999995727539,8|2,0:0|0:0,0:0:0:0:
169,350,126402,1,2,0:0:0:0:
226,298,126560,2,0,P|268:291|302:296,1,69.9999978637696,8|0,0:0|0:0,0:0:0:0:
367,321,126876,6,0,P|387:349|423:373,1,69.9999978637696,10|8,0:0|0:0,0:0:0:0:
467,312,127191,2,0,P|449:289|415:264,1,69.9999978637696,10|8,0:0|0:0,0:0:0:0:
356,215,127507,2,8,P|339:170|337:131,1,69.9999978637696,2|0,0:0|0:0,0:0:0:0:
362,74,127823,1,0,0:0:0:0:
287,41,127981,6,0,P|218:19|118:57,1,160,6|2,0:0|0:0,0:0:0:0:
78,116,128454,1,8,0:0:0:0:
143,175,128612,2,0,P|168:251|137:343,1,160,0|2,0:0|0:0,0:0:0:0:
61,342,129086,1,8,0:0:0:0:
79,255,129244,6,0,P|180:242|249:251,1,160,6|2,0:0|0:0,0:0:0:0:
307,302,129718,1,8,0:0:0:0:
374,245,129876,2,0,P|387:190|380:160,1,80,0|2,0:0|0:0,0:0:0:0:
328,98,130191,2,0,P|284:94|245:104,1,80,2|8,0:0|0:0,0:0:0:0:
187,165,130507,6,0,P|162:121|204:26,1,160,6|2,0:0|0:0,0:0:0:0:
290,19,130981,1,8,0:0:0:0:
328,98,131139,2,0,P|359:151|403:182,1,80,0|2,0:0|0:0,0:0:0:0:
423,234,131454,2,0,P|392:287|348:318,1,80,2|8,0:0|0:0,0:0:0:0:
292,279,131770,6,0,P|239:275|195:289,1,80,6|0,0:0|0:0,0:0:0:0:
137,326,132086,2,0,P|91:298|72:270,1,80,2|8,0:0|0:0,0:0:0:0:
97,191,132402,2,0,P|107:136|99:108,1,80,0|2,0:0|0:0,0:0:0:0:
47,42,132718,2,0,P|77:7|114:-6,1,80,2|8,0:0|0:0,0:0:0:0:
171,55,133033,6,8,P|245:81|327:65,1,160,6|2,0:0|0:0,0:0:0:0:
400,21,133507,1,8,0:0:0:0:
456,88,133665,2,0,P|482:165|448:239,1,160,0|2,0:0|0:0,0:0:0:0:
388,295,134139,1,8,0:0:0:0:
317,242,134297,6,0,P|268:226|233:230,1,80,6|0,0:0|0:0,0:0:0:0:
161,266,134612,2,0,P|121:266|84:252,1,80,2|8,0:0|0:0,0:0:0:0:
27,183,134928,2,0,P|30:126|4:12,1,160,0|2,0:0|0:0,0:0:0:0:
96,10,135402,1,8,0:0:0:0:
183,23,135560,6,0,P|164:100|165:180,1,160,6|2,0:0|0:0,0:0:0:0:
240,228,136033,1,8,0:0:0:0:
305,168,136191,2,0,P|354:155|401:162,2,80,0|2|2,0:0|0:0|0:0,0:0:0:0:
326,253,136665,1,8,0:0:0:0:
385,318,136823,6,0,P|439:318|467:305,1,80,6|0,0:0|0:0,0:0:0:0:
471,219,137139,2,0,P|468:163|477:129,1,80,2|8,0:0|0:0,0:0:0:0:
509,59,137454,1,0,0:0:0:0:
431,16,137612,2,0,P|373:35|343:65,1,80,2|2,0:0|0:0,0:0:0:0:
316,124,137928,1,8,0:0:0:0:
235,88,138086,6,0,P|165:73|68:106,1,160,6|2,0:0|0:0,0:0:0:0:
20,161,138560,1,8,0:0:0:0:
78,227,138718,2,0,B|110:259|114:298|114:298|170:329|221:305,1,160,0|2,0:0|0:0,0:0:0:0:
271,282,139191,1,8,0:0:0:0:
352,314,139349,6,0,B|393:326|427:297|427:297|431:258|463:226,1,160,6|2,0:0|0:0,0:0:0:0:
428,145,139823,1,8,0:0:0:0:
351,101,139981,2,0,P|289:124|255:153,1,80,0|2,0:0|0:0,0:0:0:0:
198,170,140297,2,0,P|197:105|207:82,1,80,2|8,0:0|0:0,0:0:0:0:
252,19,140612,6,0,P|303:1|414:8,1,160,6|2,0:0|0:0,0:0:0:0:
464,74,141086,1,8,0:0:0:0:
408,142,141244,2,0,P|425:209|426:248,1,80,0|2,0:0|0:0,0:0:0:0:
375,292,141560,2,0,P|365:354|369:385,1,80,2|8,0:0|0:0,0:0:0:0:
279,353,141876,6,0,P|212:324|110:345,1,160,6|2,0:0|0:0,0:0:0:0:
53,382,142349,1,8,0:0:0:0:
1,310,142507,2,0,P|-10:209|-7:196,1,80,0|2,0:0|0:0,0:0:0:0:
34,156,142823,2,0,P|70:117|88:81,1,80,2|8,0:0|0:0,0:0:0:0:
93,5,143139,6,0,P|159:-10|255:18,1,160,6|2,0:0|0:0,0:0:0:0:
312,71,143612,2,8,P|334:146|319:224,1,160,8|2,0:0|0:0,0:0:0:0:
257,288,144086,1,2,0:0:0:0:
306,360,144244,2,0,P|359:374|396:372,1,80,8|0,0:0|0:0,0:0:0:0:
467,343,144560,6,8,P|469:271|457:244,1,80,2|2,0:0|0:0,0:0:0:0:
425,186,144876,1,8,0:0:0:0:
461,106,145033,2,0,P|426:51|306:35,1,160,0|2,0:0|0:0,0:0:0:0:
257,61,145507,1,8,0:0:0:0:
174,29,145665,6,0,P|97:46|51:109,1,160,6|2,0:0|0:0,0:0:0:0:
82,192,146139,2,0,P|98:243|95:278,1,80,8|0,0:0|0:0,0:0:0:0:
56,347,146454,2,0,P|105:358|149:339,1,80,2|2,0:0|0:0,0:0:0:0:
209,306,146770,1,8,0:0:0:0:
260,377,146928,6,8,P|294:311|242:227,1,160,6|2,0:0|0:0,0:0:0:0:
181,199,147402,1,8,0:0:0:0:
120,263,147560,2,0,P|85:282|45:281,1,80,2|8,0:0|0:0,0:0:0:0:
6,202,147876,2,0,L|9:95,1,80,2|8,0:0|0:0,0:0:0:0:
3,39,148191,6,0,B|85:0|84:74|164:29,1,150.000005722046,6|2,0:0|0:0,0:0:0:0:
222,1,148665,2,0,P|267:-5|306:4,1,75.0000028610231,8|0,0:0|0:0,0:0:0:0:
355,57,148981,2,0,P|391:62|428:56,1,75.0000028610231,2|2,0:0|0:0,0:0:0:0:
510,40,149297,1,8,0:0:0:0:
503,121,149454,6,0,P|490:212|515:281,1,150.000005722046,6|2,0:0|0:0,0:0:0:0:
460,334,149928,2,0,P|405:321|379:323,1,75.0000028610231,8|0,0:0|0:0,0:0:0:0:
312,359,150244,2,0,B|245:377|244:319|149:364,1,150.000005722046,2|8,0:0|0:0,0:0:0:0:
85,379,150718,6,0,P|69:314|28:242,1,150.000005722046,6|2,0:0|0:0,0:0:0:0:
67,169,151191,2,0,P|77:110|69:83,1,75.0000028610231,8|0,0:0|0:0,0:0:0:0:
119,26,151507,2,0,P|175:25|204:41,1,75.0000028610231,2|2,0:0|0:0,0:0:0:0:
260,79,151823,1,8,0:0:0:0:
210,144,151981,6,0,B|177:223|245:214|203:313,1,150.000005722046,6|2,0:0|0:0,0:0:0:0:
177,365,152454,2,0,P|231:371|254:360,1,75.0000028610231,8|0,0:0|0:0,0:0:0:0:
308,306,152770,1,2,0:0:0:0:
386,328,152928,2,0,P|421:343|458:344,1,75.0000028610231,2|8,0:0|0:0,0:0:0:0:
439,263,153244,6,0,P|467:167|436:94,1,150.000005722046,6|2,0:0|0:0,0:0:0:0:
398,59,153718,2,0,P|344:51|299:58,1,75.0000028610231,8|0,0:0|0:0,0:0:0:0:
244,75,154033,2,0,P|206:75|169:69,1,75.0000028610231,2|2,0:0|0:0,0:0:0:0:
93,35,154349,1,8,0:0:0:0:
28,86,154507,6,0,B|-13:160|63:161|2:263,1,150.000005722046,6|2,0:0|0:0,0:0:0:0:
64,299,154981,2,0,P|143:293|215:305,1,150.000005722046,8|2,0:0|0:0,0:0:0:0:
286,341,155454,1,2,0:0:0:0:
341,279,155612,1,8,0:0:0:0:
419,304,155770,6,0,P|456:261|464:157,1,150.000005722046,6|2,0:0|0:0,0:0:0:0:
420,103,156244,2,0,P|361:101|334:114,1,75.0000028610231,8|0,0:0|0:0,0:0:0:0:
308,179,156560,2,0,P|280:227|243:249,1,75.0000028610231,2|2,0:0|0:0,0:0:0:0:
182,229,156876,1,8,0:0:0:0:
114,182,157033,6,0,B|99:144|109:110|109:110|88:66|56:47,1,150.000005722046,6|2,0:0|0:0,0:0:0:0:
129,2,157507,2,0,B|173:-8|214:3|211:6,1,75.0000028610231,8|0,0:0|0:0,0:0:0:0:
279,35,157823,2,0,P|334:44|371:38,1,75.0000028610231,2|2,0:0|0:0,0:0:0:0:
432,18,158139,2,0,P|472:13|513:15,2,75.0000028610231,8|2|12,0:0|0:0|0:0,0:0:0:0:
432,18,163191,5,2,0:0:0:0:
387,81,163349,1,2,0:0:0:0:
324,35,163507,2,0,P|264:25|201:41,2,104.999996795654,6|2|2,0:0|0:0|0:0,0:0:0:0:
387,81,164139,1,8,0:0:0:0:
387,81,164770,6,0,P|403:147|400:196,2,104.999996795654,6|2|2,0:0|0:0|0:0,0:0:0:0:
319,43,165402,2,0,P|293:10|267:-3,2,69.9999978637696,8|2|8,0:0|0:0|0:0,0:0:0:0:
248,74,165876,2,0,P|237:140|263:221,1,139.999995727539,4|2,0:0|0:0,0:0:0:0:
332,199,166349,2,0,P|404:184|478:203,1,139.999995727539,8|2,0:0|0:0,0:0:0:0:
508,264,166823,1,2,0:0:0:0:
450,314,166981,2,0,P|439:359|438:387,1,69.9999978637696,8|0,0:0|0:0,0:0:0:0:
360,376,167297,6,0,P|359:345|345:298,1,69.9999978637696,8|8,0:0|0:0,0:0:0:0:
283,266,167612,2,0,P|249:273|211:304,1,69.9999978637696,8|8,0:0|0:0,0:0:0:0:
203,368,167928,5,2,0:0:0:0:
203,368,168402,1,6,0:0:0:0:
206,374,171086,6,0,B|228:316|185:279|185:279|125:240|155:152|155:152|176:188|202:210,1,300,0|0,0:0|0:0,0:0:0:0:
265,231,172191,6,0,P|326:243|374:235,1,80,6|0,0:0|0:0,0:0:0:0:
421,200,172507,2,0,P|427:129|422:99,1,80,2|8,0:0|0:0,0:0:0:0:
360,60,172823,2,0,P|321:49|281:49,1,80,0|2,0:0|0:0,0:0:0:0:
195,71,173139,2,0,P|155:70|116:60,1,80,8|2,0:0|0:0,0:0:0:0:
44,9,173454,6,0,P|29:81|108:146,1,160,6|2,0:0|0:0,0:0:0:0:
168,163,173928,2,0,P|190:175|233:231,1,80,8|0,0:0|0:0,0:0:0:0:
246,301,174244,1,2,0:0:0:0:
180,360,174402,2,0,P|127:365|92:360,1,80,2|8,0:0|0:0,0:0:0:0:
66,280,174718,6,0,P|79:217|102:188,1,80,6|0,0:0|0:0,0:0:0:0:
168,163,175033,2,0,P|236:156|277:173,1,80,2|8,0:0|0:0,0:0:0:0:
330,186,175349,2,0,P|395:195|421:188,1,80,0|2,0:0|0:0,0:0:0:0:
480,141,175665,2,0,P|487:88|477:50,1,80,2|8,0:0|0:0,0:0:0:0:
401,24,175981,6,0,B|366:40|325:37|325:37|293:18|237:22,1,160,6|2,0:0|0:0,0:0:0:0:
161,47,176454,2,0,P|108:51|70:38,1,80,8|0,0:0|0:0,0:0:0:0:
22,109,176770,2,0,P|40:172|35:208,1,80,2|2,0:0|0:0,0:0:0:0:
14,270,177086,1,8,0:0:0:0:
100,252,177244,6,0,P|184:236|208:240,1,80,6|0,0:0|0:0,0:0:0:0:
252,282,177560,2,0,P|315:313|353:321,2,80,2|8|2,0:0|0:0|0:0,0:0:0:0:
252,193,178033,2,0,P|236:136|208:94,1,80,8|2,0:0|0:0,0:0:0:0:
207,31,178349,1,8,0:0:0:0:
294,38,178507,6,0,B|339:46|375:31|375:31|409:58|410:124,1,160,6|2,0:0|0:0,0:0:0:0:
361,174,178981,1,8,0:0:0:0:
440,222,179139,2,0,B|412:261|423:319|423:319|384:368,1,160
310,320,179612,1,0,0:0:0:0:
230,364,179770,6,0,P|225:287|282:235,1,160,6|2,0:0|0:0,0:0:0:0:
367,215,180244,1,8,0:0:0:0:
336,132,180402,2,0,P|290:101|257:95,1,80,0|2,0:0|0:0,0:0:0:0:
178,103,180718,2,8,P|169:64|174:25,1,80,2|8,0:0|0:0,0:0:0:0:
86,23,181033,6,0,P|80:76|118:177,1,160,6|2,0:0|0:0,0:0:0:0:
186,228,181507,1,8,0:0:0:0:
145,306,181665,2,0,P|142:357|161:402,1,80,0|2,0:0|0:0,0:0:0:0:
238,377,181981,2,0,P|241:326|222:281,1,80,2|8,0:0|0:0,0:0:0:0:
266,217,182297,6,0,P|307:261|321:370,1,160,6|2,0:0|0:0,0:0:0:0:
405,324,182770,1,8,0:0:0:0:
482,365,182928,2,0,P|492:312|506:278,1,80,0|2,0:0|0:0,0:0:0:0:
430,234,183244,2,8,P|422:194|408:157,1,80,2|8,0:0|0:0,0:0:0:0:
472,96,183560,6,0,P|424:69|329:115,1,160,6|2,0:0|0:0,0:0:0:0:
283,181,184033,2,0,P|216:220|144:192,1,160,8|2,0:0|0:0,0:0:0:0:
114,108,184507,2,0,P|125:58|143:31,2,80,2|8|0,0:0|0:0|0:0,0:0:0:0:
52,171,184981,6,0,P|53:210|41:248,2,80,2|2|8,0:0|0:0|0:0,0:0:0:0:
17,84,185454,2,0,P|51:30|145:38,1,160,0|2,0:0|0:0,0:0:0:0:
209,88,185928,1,8,0:0:0:0:
278,34,186086,6,0,P|351:18|392:81,1,160,6|2,0:0|0:0,0:0:0:0:
381,169,186560,1,8,0:0:0:0:
312,224,186718,2,0,P|270:270|257:310,1,80,0|2,0:0|0:0,0:0:0:0:
175,289,187033,2,0,P|155:254|126:227,1,80,2|8,0:0|0:0,0:0:0:0:
47,186,187349,6,0,P|11:131|2:87,1,80,0|2,0:0|0:0,0:0:0:0:
70,56,187665,2,0,P|38:33|-16:24,2,80,8|8|8,0:0|0:0|0:0,0:0:0:0:
158,58,188139,1,2,0:0:0:0:
246,56,188297,2,0,P|285:32|335:27,1,80,8|8,0:0|0:0,0:0:0:0:
313,120,188612,6,0,B|339:202|287:192|313:284,1,150.000005722046,6|2,0:0|0:0,0:0:0:0:
342,342,189086,2,0,P|398:357|425:353,1,75.0000028610231,8|0,0:0|0:0,0:0:0:0:
475,299,189402,2,0,P|467:246|480:206,1,75.0000028610231,2|2,0:0|0:0,0:0:0:0:
501,148,189718,1,8,0:0:0:0:
450,82,189876,6,0,B|405:64|380:65|380:65|348:85|300:88,1,150.000005722046,6|2,0:0|0:0,0:0:0:0:
225,72,190349,2,0,P|173:67|137:78,1,75.0000028610231,8|0,0:0|0:0,0:0:0:0:
81,116,190665,2,0,B|95:175|77:205,1,75.0000028610231,2|2,0:0|0:0,0:0:0:0:
58,269,190981,1,8,0:0:0:0:
127,313,191139,6,0,B|174:312|205:292|205:292|197:253|213:210,1,150.000005722046,6|2,0:0|0:0,0:0:0:0:
248,152,191612,2,0,P|290:120|326:115,1,75.0000028610231,8|0,0:0|0:0,0:0:0:0:
393,116,191928,2,0,P|456:130|488:154,1,75.0000028610231,2|2,0:0|0:0,0:0:0:0:
499,210,192244,1,8,0:0:0:0:
455,280,192402,6,8,B|384:314|377:255|289:295,1,150.000005722046,6|2,0:0|0:0,0:0:0:0:
231,316,192876,2,0,P|183:313|147:294,1,75.0000028610231,8|2,0:0|0:0,0:0:0:0:
86,342,193191,2,0,P|61:359|10:365,1,75.0000028610231,8|0,0:0|0:0,0:0:0:0:
27,283,193507,1,8,0:0:0:0:
71,210,193665,6,0,P|105:150|60:71,1,150.000005722046,6|2,0:0|0:0,0:0:0:0:
21,17,194139,2,0,P|72:-2|109:8,1,75.0000028610231,8|0,0:0|0:0,0:0:0:0:
171,21,194454,2,0,B|208:33|227:62|227:62|207:99|217:147,1,150.000005722046,2|8,0:0|0:0,0:0:0:0:
246,217,194928,6,0,P|323:238|393:202,1,150.000005722046,6|2,0:0|0:0,0:0:0:0:
438,147,195402,2,0,P|439:86|431:59,1,75.0000028610231,8|0,0:0|0:0,0:0:0:0:
375,15,195718,2,0,P|317:9|292:20,1,75.0000028610231,2|2,0:0|0:0,0:0:0:0:
233,59,196033,1,8,0:0:0:0:
165,11,196191,6,0,P|148:54|212:139,1,150.000005722046,6|2,0:0|0:0,0:0:0:0:
278,161,196665,2,0,P|315:184|334:231,1,75.0000028610231,8|0,0:0|0:0,0:0:0:0:
313,292,196981,2,0,P|310:355|317:381,2,75.0000028610231,2|2|8,0:0|0:0|0:0,0:0:0:0:
248,240,197454,6,0,P|168:223|83:254,1,150.000005722046,6|2,0:0|0:0,0:0:0:0:
42,296,197928,2,0,P|20:246|75:164,1,150.000005722046,8|2,0:0|0:0,0:0:0:0:
142,141,198402,1,2,0:0:0:0:
224,144,198560,2,0,P|271:154|318:151,1,75.0000028610231,8|2,0:0|0:0,0:0:0:0:
378,134,198876,5,6,0:0:0:0:
256,192,198954,12,0,206454,0:0:0:0:
