osu file format v14

[General]
AudioFilename: audio.mp3
AudioLeadIn: 0
PreviewTime: 73428
Countdown: 0
SampleSet: Soft
StackLeniency: 0.6
Mode: 0
LetterboxInBreaks: 0
WidescreenStoryboard: 1

[Editor]
Bookmarks: 16981,27086,37033,47139,54718,57244,67507,74928,77454,87718,97665,107770,117402,118033,125454,140297,148349,157823,158454,165876,168560,172823,178665,183244,188770,198876,211507
DistanceSpacing: 1.1
BeatDivisor: 4
GridSize: 4
TimelineZoom: 1

[Metadata]
Title:Logic Agent
TitleUnicode:ロジックエージェント
Artist:Reol
ArtistUnicode:れをる
Creator:Naotoshi
Version:Collab Normal
Source:
Tags:jpop pan xinely niki polkamocha Gokusaishoku Gokusaishiki Giga-P Akitoshi
BeatmapID:1243712
BeatmapSetID:578814

[Difficulty]
HPDrainRate:3
CircleSize:3
OverallDifficulty:4
ApproachRate:5
SliderMultiplier:0.9
SliderTickRate:1

[Events]
//Background and Video events
0,0,"girl_anime_rain_glass_light_schoolgirl_102497_1366x768.jpg",0,0
//Break Periods
2,97865,101435
2,158654,162307
//Storyboard Layer 0 (Background)
//Storyboard Layer 1 (Fail)
//Storyboard Layer 2 (Pass)
//Storyboard Layer 3 (Foreground)
//Storyboard Sound Samples

[TimingPoints]
6876,315.789473684211,4,2,1,40,1,0
16981,-100,4,2,2,40,0,0
22033,-100,4,2,2,40,0,0
27086,-100,4,2,3,60,0,0
37033,-100,4,2,3,80,0,0
57244,-90.9090909090909,4,2,3,80,0,0
74928,-90.9090909090909,4,2,3,80,0,0
77454,-90.9090909090909,4,2,3,80,0,1
97665,-100,4,2,3,80,0,0
125454,-90.9090909090909,4,2,3,80,0,0
127981,-83.3333333333333,4,2,3,80,0,1
148191,-83.3333333333333,4,2,3,80,0,0
168402,-100,4,2,3,80,0,0
171086,-100,4,2,3,20,0,0
171402,-100,4,2,3,30,0,0
171718,-100,4,2,3,60,0,0
172112,-100,4,2,3,5,0,0
172191,-100,4,2,3,80,0,0
172823,-90.9090909090909,4,2,3,80,0,0
178507,-83.3333333333333,4,2,3,80,0,1
188612,-83.3333333333333,4,2,3,80,0,0
199028,-66.6666666666667,4,2,3,80,0,0
199492,-66.6666666666667,4,2,3,75,0,0
200124,-66.6666666666667,4,2,3,70,0,0
200755,-66.6666666666667,4,2,3,65,0,0
201387,-66.6666666666667,4,2,3,50,0,0
202033,-66.6666666666667,4,2,3,35,0,0
202981,-66.6666666666667,4,2,3,20,0,0
204244,-66.6666666666667,4,2,3,10,0,0
206454,-66.6666666666667,4,2,3,5,0,0

[Colours]
Combo1 : 253,159,2
Combo2 : 192,192,192
Combo3 : 227,210,166

[HitObjects]
183,170,6876,6,0,P|172:113|168:99,2,45,4|4|8,0:0|0:0|0:0,0:0:0:0:
117,244,7507,2,0,L|121:344,1,90,0|8,0:0|0:0,0:0:0:0:
219,336,8139,6,0,P|230:393|234:407,2,45,4|4|8,0:0|0:0|0:0,0:0:0:0:
285,262,8770,2,0,L|281:162,1,90,0|8,0:0|0:0,0:0:0:0:
215,97,9402,6,0,L|209:32,2,45,4|4|8,0:0|0:0|0:0,0:0:0:0:
307,60,10033,2,0,L|408:21,1,90,0|8,0:0|0:0,0:0:0:0:
439,114,10665,6,0,L|445:179,2,45,4|4|8,0:0|0:0|0:0,0:0:0:0:
347,151,11296,2,0,L|246:190,1,90,0|8,0:0|0:0,0:0:0:0:
243,280,11928,6,0,L|250:358,2,45,4|4|8,0:0|0:0|0:0,0:0:0:0:
174,208,12560,2,0,P|112:199|77:212,1,90,0|8,0:0|0:0,0:0:0:0:
128,296,13191,2,0,L|135:374,2,45,4|4|8,0:0|0:0|0:0,0:0:0:0:
28,288,13823,2,0,P|3:259|-11:198,1,90,2|8,0:0|0:0,0:0:0:0:
44,129,14454,6,0,L|46:60,2,45,4|4|8,0:0|0:0|0:0,0:0:0:0:
140,103,15086,2,0,P|190:103|232:119,1,90,2|8,0:0|0:0,0:0:0:0:
238,215,15718,2,0,P|221:265|226:306,1,90,2|8,0:0|0:0,0:0:0:0:
318,269,16349,2,0,L|378:266,2,45,12|8|8,0:0|0:0|0:0,0:0:0:0:
327,170,16981,6,0,P|318:105|334:51,2,90,4|0|0,0:0|0:0|0:0,0:0:0:0:
254,237,17928,1,0,0:0:0:0:
254,237,18086,2,0,P|193:231|153:242,2,90
351,220,19033,2,0,P|335:307|292:334,1,135
202,319,19823,5,0,0:0:0:0:
261,239,20139,1,0,0:0:0:0:
300,331,20454,1,0,0:0:0:0:
300,331,21876,1,0,0:0:0:0:
305,334,22033,6,0,P|302:261|288:231,1,90
211,182,22665,2,0,P|208:137|222:94,1,90
265,69,23139,2,0,P|308:55|368:59,2,90
323,164,24086,2,0,B|327:318,1,135
404,360,24876,1,0,0:0:0:0:
421,262,25191,1,0,0:0:0:0:
326,298,25507,1,0,0:0:0:0:
360,351,27086,6,0,P|378:309|388:296,1,45,6|2,0:0|0:0,0:0:0:0:
336,281,27402,2,0,P|283:264|238:259,1,90,8|0,0:0|0:0,0:0:0:0:
260,161,28033,1,8,0:0:0:0:
305,140,28191,2,0,P|364:134|446:135,2,135,0|8|0,0:0|0:0|0:0,0:0:0:0:
256,157,29297,1,8,0:0:0:0:
163,192,29612,6,0,L|163:256,1,45,2|2,0:0|0:0,0:0:0:0:
161,286,29928,2,0,P|207:287|281:317,1,90,8|0,0:0|0:0,0:0:0:0:
316,373,30560,1,8,0:0:0:0:
353,281,30876,2,0,L|354:177,1,90,0|8,0:0|0:0,0:0:0:0:
259,160,31507,2,0,L|259:249,1,90,0|8,0:0|0:0,0:0:0:0:
118,218,32139,6,0,P|99:198|79:182,1,45,6|2,0:0|0:0,0:0:0:0:
60,152,32454,2,0,L|64:48,1,90,8|0,0:0|0:0,0:0:0:0:
157,31,33086,2,0,P|227:47|296:49,1,135,8|0,0:0|0:0,0:0:0:0:
388,35,33876,2,0,P|371:115|314:149,1,135,0|8,0:0|0:0,0:0:0:0:
268,221,34665,6,0,L|290:273,1,45,2|2,0:0|0:0,0:0:0:0:
335,278,34981,2,0,P|377:269|427:266,1,90,8|2,0:0|0:0,0:0:0:0:
493,195,35612,1,8,0:0:0:0:
446,107,35928,2,0,P|412:89|359:90,2,90,2|8|0,0:0|0:0|0:0,0:0:0:0:
392,184,36876,1,8,0:0:0:0:
392,184,37033,6,0,P|348:216|276:300,1,135,6|8,0:0|0:0,0:0:0:0:
224,344,37823,1,2,0:0:0:0:
132,308,38139,1,8,0:0:0:0:
132,308,38297,2,0,L|100:148,1,135,6|8,0:0|0:0,0:0:0:0:
88,80,39086,1,2,0:0:0:0:
188,84,39402,1,8,0:0:0:0:
188,84,39560,6,0,L|348:84,1,135,6|8,0:0|0:0,0:0:0:0:
416,112,40349,2,0,P|420:168|404:220,1,90,2|8,0:0|0:0,0:0:0:0:
372,228,40823,2,0,L|540:220,1,135,6|8,0:0|0:0,0:0:0:0:
492,320,41612,1,2,0:0:0:0:
394,350,41928,1,8,0:0:0:0:
394,350,42086,6,0,L|226:342,1,135,6|8,0:0|0:0,0:0:0:0:
160,328,42876,2,0,P|156:264|168:228,1,90,2|8,0:0|0:0,0:0:0:0:
192,200,43349,2,0,L|40:212,1,135,6|8,0:0|0:0,0:0:0:0:
16,120,44139,2,0,L|124:108,1,90,2|8,0:0|0:0,0:0:0:0:
152,100,44612,6,0,P|220:68|292:84,1,135,6|8,0:0|0:0,0:0:0:0:
348,148,45402,2,0,L|488:116,2,135,2|6|8,0:0|0:0|0:0,0:0:0:0:
254,181,46665,2,0,L|274:231,2,45,2|8|8,0:0|0:0|0:0,0:0:0:0:
216,156,47139,6,0,P|212:109|200:57,2,90,12|2|0,0:0|0:0|0:0,0:0:0:0:
184,248,48086,1,2,0:0:0:0:
104,304,48402,2,0,P|81:240|82:191,1,90,0|2,0:0|0:0,0:0:0:0:
78,119,49033,2,0,P|90:52|115:11,1,90,0|2,0:0|0:0,0:0:0:0:
149,31,49507,1,8,0:0:0:0:
197,49,49665,6,0,P|263:56|307:46,1,90,2|2,0:0|0:0,0:0:0:0:
323,19,50139,2,0,P|367:14|411:22,1,90,8|2,0:0|0:0,0:0:0:0:
476,97,50770,1,8,0:0:0:0:
476,97,50928,6,0,P|466:166|490:213,1,90,0|2,0:0|0:0,0:0:0:0:
503,278,51560,2,0,P|441:286|398:277,1,90,0|8,0:0|0:0,0:0:0:0:
367,264,52033,1,8,0:0:0:0:
325,238,52191,6,0,P|269:245|212:267,1,90,6|2,0:0|0:0,0:0:0:0:
188,268,52665,2,0,P|132:260|75:238,1,90,8|2,0:0|0:0,0:0:0:0:
24,185,53297,1,8,0:0:0:0:
24,185,53454,6,0,P|94:151|137:155,1,90,2|2,0:0|0:0,0:0:0:0:
153,160,53928,2,0,P|196:170|240:165,1,90,8|2,0:0|0:0,0:0:0:0:
277,73,54560,1,8,0:0:0:0:
277,73,54718,6,0,P|317:52|361:48,1,90,2|2,0:0|0:0,0:0:0:0:
410,47,55191,2,0,P|449:66|480:99,1,90,8|2,0:0|0:0,0:0:0:0:
492,198,55823,1,8,0:0:0:0:
441,283,56139,2,0,P|388:277|345:248,1,90,2|8,0:0|0:0,0:0:0:0:
276,203,56770,2,0,P|217:235|187:279,1,90,2|8,0:0|0:0,0:0:0:0:
189,304,57244,6,0,P|219:364|254:382,1,99.0000030212403,6|2,0:0|0:0,0:0:0:0:
299,372,57718,1,8,0:0:0:0:
353,371,57876,2,0,B|379:330|379:304|379:304|361:261|374:216,1,148.50000453186,0|10,0:0|0:0,0:0:0:0:
341,179,58507,2,0,P|296:147|220:151,1,99.0000030212403,2|2,0:0|0:0,0:0:0:0:
170,212,59139,2,0,P|149:164|166:88,1,99.0000030212403,0|2,0:0|0:0,0:0:0:0:
135,68,59612,1,8,0:0:0:0:
81,56,59770,6,0,P|28:93|9:124,1,99.0000030212403
33,171,60244,2,0,P|58:230|65:274,1,99.0000030212403,8|0,0:0|0:0,0:0:0:0:
128,344,60876,1,8,0:0:0:0:
182,347,61033,2,0,B|212:275|170:263|211:190,1,148.50000453186,0|8,0:0|0:0,0:0:0:0:
253,172,61665,1,0,0:0:0:0:
327,253,61981,1,8,0:0:0:0:
409,324,62297,6,0,P|434:265|428:221,1,99.0000030212403,6|2,0:0|0:0,0:0:0:0:
421,177,62770,2,0,P|404:130|368:97,1,99.0000030212403,8|2,0:0|0:0,0:0:0:0:
260,78,63402,1,8,0:0:0:0:
260,78,63560,6,0,P|262:170|248:193,1,99.0000030212403,2|2,0:0|0:0,0:0:0:0:
224,214,64033,2,0,P|159:234|119:225,1,99.0000030212403,8|2,0:0|0:0,0:0:0:0:
43,162,64665,1,8,0:0:0:0:
43,162,64823,6,0,P|36:84|52:59,1,99.0000030212403,2|2,0:0|0:0,0:0:0:0:
82,28,65297,2,0,P|133:15|194:33,1,99.0000030212403,8|2,0:0|0:0,0:0:0:0:
267,86,65928,1,8,0:0:0:0:
356,23,66244,2,0,P|377:91|363:141,1,99.0000030212403,2|8,0:0|0:0,0:0:0:0:
280,175,66876,1,0,0:0:0:0:
275,283,67191,1,8,0:0:0:0:
368,332,67507,6,0,P|401:278|426:244,1,99.0000030212403,6|8,0:0|0:0,0:0:0:0:
384,209,67981,2,0,P|381:153|388:109,1,99.0000030212403,0|2,0:0|0:0,0:0:0:0:
318,26,68612,1,0,0:0:0:0:
216,68,68928,2,0,P|219:125|212:166,1,99.0000030212403
247,270,69560,2,0,L|308:256,2,49.5000015106202,0|10|0,0:0|0:0|0:0,0:0:0:0:
216,312,70033,6,0,P|114:319|66:281,1,148.50000453186,0|8,0:0|0:0,0:0:0:0:
44,253,70665,1,0,0:0:0:0:
54,145,70981,2,0,L|39:81,1,49.5000015106202,8|0,0:0|0:0,0:0:0:0:
84,61,71297,2,0,P|166:14|251:56,1,198.000006042481,6|8,0:0|0:0,0:0:0:0:
262,165,72244,1,2,0:0:0:0:
352,103,72560,5,10,0:0:0:0:
344,328,74928,6,0,P|368:272|336:192,1,148.50000453186,6|10,0:0|0:0,0:0:0:0:
268,112,75718,1,0,0:0:0:0:
160,104,76033,1,8,0:0:0:0:
68,172,76349,2,0,P|33:254|60:309,1,148.50000453186,8|0,0:0|0:0,0:0:0:0:
95,340,76981,1,0,0:0:0:0:
257,347,77454,6,0,P|325:336|363:259,1,148.50000453186,6|8,0:0|0:0,0:0:0:0:
349,219,78086,2,0,P|304:160|255:141,1,99.0000030212403,0|2,0:0|0:0,0:0:0:0:
228,149,78560,1,8,0:0:0:0:
228,149,78718,2,0,P|160:179|74:192,1,148.50000453186,6|8,0:0|0:0,0:0:0:0:
53,234,79349,2,0,P|96:275|127:317,1,99.0000030212403,0|2,0:0|0:0,0:0:0:0:
220,352,79981,6,0,P|288:320|320:224,1,148.50000453186,6|8,0:0|0:0,0:0:0:0:
291,210,80612,2,0,P|283:166|299:90,1,99.0000030212403,0|2,0:0|0:0,0:0:0:0:
302,59,81086,1,8,0:0:0:0:
264,16,81244,2,0,L|100:28,1,148.50000453186,6|8,0:0|0:0,0:0:0:0:
69,56,81876,2,0,B|71:109|71:109|60:163,1,99.0000030212403,0|2,0:0|0:0,0:0:0:0:
170,149,82507,6,0,L|324:135,1,148.50000453186,6|8,0:0|0:0,0:0:0:0:
344,87,83139,2,0,P|425:105|446:126,1,99.0000030212403,0|2,0:0|0:0,0:0:0:0:
469,164,83612,1,8,0:0:0:0:
469,164,83770,2,0,P|461:236|472:274,1,99.0000030212403,6|2,0:0|0:0,0:0:0:0:
375,321,84402,2,0,P|367:263|339:223,1,99.0000030212403,0|2,0:0|0:0,0:0:0:0:
293,246,84876,1,8,0:0:0:0:
248,279,85033,6,0,P|202:307|145:311,1,99.0000030212403,6|8,0:0|0:0,0:0:0:0:
78,237,85665,1,0,0:0:0:0:
78,237,85823,2,0,P|77:178|67:130,1,99.0000030212403,2|8,0:0|0:0,0:0:0:0:
68,84,86297,2,0,B|112:66|166:63|166:63|196:75|236:79,1,148.50000453186,6|8,0:0|0:0,0:0:0:0:
320,90,87086,1,2,0:0:0:0:
274,185,87402,1,8,0:0:0:0:
273,185,87560,6,0,P|255:238|287:333,1,148.50000453186,6|10,0:0|0:0,0:0:0:0:
329,345,88191,2,0,P|379:349|438:337,1,99.0000030212403
468,304,88665,1,8,0:0:0:0:
448,253,88823,6,0,P|371:244|333:254,1,99.0000030212403,6|2,0:0|0:0,0:0:0:0:
296,254,89297,1,8,0:0:0:0:
296,254,89454,2,0,P|219:244|185:254,1,99.0000030212403,0|2,0:0|0:0,0:0:0:0:
101,292,90086,6,8,P|83:221|65:187,1,99.0000030212403,14|10,0:0|0:0,0:0:0:0:
103,93,90718,1,0,0:0:0:0:
103,93,90876,2,0,P|150:77|205:85,1,99.0000030212403,2|8,0:0|0:0,0:0:0:0:
242,114,91349,2,0,P|291:126|342:122,2,99.0000030212403,6|2|0,0:0|0:0|0:0,0:0:0:0:
304,24,92297,2,0,L|372:24,1,49.5000015106202,0|8,0:0|0:0,0:0:0:0:
407,34,92612,6,0,P|445:80|457:144,1,99.0000030212403,6|2,0:0|0:0,0:0:0:0:
456,172,93086,2,0,P|442:247|454:293,1,99.0000030212403,8|2,0:0|0:0,0:0:0:0:
344,304,93718,6,0,P|270:292|226:317,1,99.0000030212403,8|2,0:0|0:0,0:0:0:0:
148,344,94349,1,8,0:0:0:0:
148,344,94507,2,0,P|133:281|149:235,1,99.0000030212403,0|2,0:0|0:0,0:0:0:0:
200,156,95139,2,0,P|131:141|93:155,1,99.0000030212403,6|2,0:0|0:0,0:0:0:0:
18,79,95770,1,0,0:0:0:0:
18,79,95928,6,0,P|79:55|138:53,1,99.0000030212403,2|8,0:0|0:0,0:0:0:0:
219,67,96560,2,0,P|288:81|327:75,1,99.0000030212403,2|8,0:0|0:0,0:0:0:0:
414,32,97191,2,0,P|423:85|412:131,1,99.0000030212403,2|10,0:0|0:0,0:0:0:0:
388,177,97665,5,12,0:0:0:0:
387,202,102718,6,0,P|319:194|283:207,1,90,6|2,0:0|0:0,0:0:0:0:
255,222,103191,2,0,P|210:229|167:219,1,90,8|0,0:0|0:0,0:0:0:0:
84,164,103823,1,8,0:0:0:0:
6,225,104139,2,0,P|-2:280|12:333,1,90,2|8,0:0|0:0,0:0:0:0:
94,353,104770,1,2,0:0:0:0:
197,357,105086,1,8,0:0:0:0:
197,357,105244,6,0,P|205:302|177:216,1,135,2|10,0:0|0:0,0:0:0:0:
116,153,106033,1,2,0:0:0:0:
196,77,106349,1,8,0:0:0:0:
294,100,106665,2,0,P|372:111|412:94,1,90,2|8,0:0|0:0,0:0:0:0:
441,29,107297,2,0,P|478:91|475:128,1,90,2|8,0:0|0:0,0:0:0:0:
465,154,107770,6,0,P|436:228|460:304,1,135,6|8,0:0|0:0,0:0:0:0:
372,344,108560,1,2,0:0:0:0:
284,296,108876,2,0,P|276:252|288:192,1,90,8|2,0:0|0:0,0:0:0:0:
288,108,109507,2,0,P|243:114|199:106,1,90,8|2,0:0|0:0,0:0:0:0:
128,36,110139,1,8,0:0:0:0:
128,36,110297,6,0,P|88:112|70:167,1,135,0|8,0:0|0:0,0:0:0:0:
124,242,111086,1,2,0:0:0:0:
83,332,111402,2,0,P|163:336|199:328,1,90,8|2,0:0|0:0,0:0:0:0:
269,355,112033,2,0,P|349:351|385:359,1,90,8|2,0:0|0:0,0:0:0:0:
396,320,112507,2,0,L|400:264,1,45,8|8,0:0|0:0,0:0:0:0:
404,224,112823,6,0,B|340:196|340:196|232:196,1,135,6|8,0:0|0:0,0:0:0:0:
184,232,113612,2,0,L|184:300,2,45,2|8|8,0:0|0:0|0:0,0:0:0:0:
180,184,114086,2,0,P|172:112|196:40,1,135,2|8,0:0|0:0,0:0:0:0:
280,8,114876,2,0,P|324:4|392:24,1,90,2|8,0:0|0:0,0:0:0:0:
416,28,115349,6,0,P|392:96|408:176,1,135,2|8,0:0|0:0,0:0:0:0:
388,256,116139,2,0,L|292:276,1,90,2|8,0:0|0:0,0:0:0:0:
204,256,116770,2,0,B|177:155|177:155,1,90,0|8,0:0|0:0,0:0:0:0:
208,73,117402,2,0,B|290:55|290:55|342:55,1,135,2|8,0:0|0:0,0:0:0:0:
368,96,118033,6,0,P|371:151|383:198,1,90,14|8,0:0|0:0,0:0:0:0:
388,233,118507,2,0,P|350:240|292:233,1,90,0|2,0:0|0:0,0:0:0:0:
230,162,119139,1,0,0:0:0:0:
139,205,119454,2,0,P|94:198|42:210,1,90
96,294,120086,2,0,L|88:352,2,45,0|8|0,0:0|0:0|0:0,0:0:0:0:
144,288,120559,6,0,L|328:268,1,180,6|8,0:0|0:0,0:0:0:0:
420,260,121507,2,0,L|416:204,1,45,8|8,0:0|0:0,0:0:0:0:
424,164,121823,2,0,P|344:148|240:176,1,180,6|8,0:0|0:0,0:0:0:0:
200,256,122770,1,10,0:0:0:0:
136,180,123086,5,12,0:0:0:0:
310,194,125454,6,0,B|263:180|262:217|189:180,1,99.0000030212403,6|2,0:0|0:0,0:0:0:0:
158,186,125928,2,0,B|132:234|155:282,1,99.0000030212403,8|2,0:0|0:0,0:0:0:0:
233,356,126560,1,8,0:0:0:0:
317,287,126876,2,0,P|376:276|425:288,1,99.0000030212403,10|10,0:0|0:0,0:0:0:0:
502,346,127507,2,0,P|517:285|500:233,1,99.0000030212403,2|8,0:0|0:0,0:0:0:0:
472,203,127981,6,0,P|455:133|481:37,1,161.999995056153,6|8,0:0|0:0,0:0:0:0:
425,13,128612,2,0,P|371:7|310:33,1,107.999996704102,0|2,0:0|0:0,0:0:0:0:
261,23,129086,1,8,0:0:0:0:
203,6,129244,2,0,P|191:65|190:124,1,107.999996704102,6|2,0:0|0:0,0:0:0:0:
180,171,129718,1,8,0:0:0:0:
180,171,129876,2,0,P|152:206|80:230,1,107.999996704102,0|2,0:0|0:0,0:0:0:0:
12,173,130507,6,0,P|-4:235|12:288,1,107.999996704102,6|2,0:0|0:0,0:0:0:0:
44,322,130981,1,8,0:0:0:0:
44,322,131139,2,0,B|107:332|146:355|146:355|162:346|212:340,1,161.999995056153,0|10,0:0|0:0,0:0:0:0:
260,362,131770,2,0,P|304:332|358:326,1,107.999996704102,6|2,0:0|0:0,0:0:0:0:
463,380,132402,2,0,P|474:304|452:258,1,107.999996704102,0|2,0:0|0:0,0:0:0:0:
365,206,133033,6,0,P|355:140|382:86,1,107.999996704102,6|2,0:0|0:0,0:0:0:0:
268,38,133665,2,0,P|198:30|152:44,1,107.999996704102,0|2,0:0|0:0,0:0:0:0:
114,74,134139,1,8,0:0:0:0:
114,74,134297,2,0,P|119:127|111:180,1,107.999996704102,6|2,0:0|0:0,0:0:0:0:
11,244,134928,2,0,P|54:290|112:301,1,107.999996704102,0|2,0:0|0:0,0:0:0:0:
152,281,135402,1,8,0:0:0:0:
152,281,135560,6,0,P|227:299|261:329,1,107.999996704102,6|2,0:0|0:0,0:0:0:0:
352,377,136191,2,0,P|369:307|356:267,1,107.999996704102,0|2,0:0|0:0,0:0:0:0:
330,221,136665,1,8,0:0:0:0:
330,221,136823,2,0,P|289:172|233:156,1,107.999996704102,6|2,0:0|0:0,0:0:0:0:
129,154,137454,1,0,0:0:0:0:
129,154,137612,2,0,P|89:100|82:56,1,107.999996704102,2|8,0:0|0:0,0:0:0:0:
115,7,138086,6,0,P|178:-6|237:19,1,107.999996704102,6|2,0:0|0:0,0:0:0:0:
264,44,138560,1,8,0:0:0:0:
314,76,138718,2,0,P|365:90|474:70,1,161.999995056153,0|10,0:0|0:0,0:0:0:0:
509,116,139349,2,0,P|513:171|500:253,1,107.999996704102,6|2,0:0|0:0,0:0:0:0:
471,271,139823,1,8,0:0:0:0:
467,277,139981,2,0,P|446:325|436:384,1,107.999996704102,0|2,0:0|0:0,0:0:0:0:
355,292,140612,6,0,P|279:277|180:305,1,161.999995056153,6|10,0:0|0:0,0:0:0:0:
147,328,141244,2,0,L|144:384,2,53.9999983520508
164,212,141876,2,0,P|166:158|141:99,2,107.999996704102,6|2|0,0:0|0:0|0:0,0:0:0:0:
52,176,142823,1,2,0:0:0:0:
72,56,143139,6,0,P|115:28|193:32,1,107.999996704102,6|2,0:0|0:0,0:0:0:0:
220,56,143612,2,0,P|270:73|322:66,1,107.999996704102,8|2,0:0|0:0,0:0:0:0:
436,28,144244,1,8,0:0:0:0:
436,28,144402,2,0,P|424:100|448:148,1,107.999996704102,2|0,0:0|0:0,0:0:0:0:
452,188,144876,1,8,0:0:0:0:
368,272,145191,2,0,L|258:268,1,107.999996704102,2|8,0:0|0:0,0:0:0:0:
200,280,145665,6,0,P|188:332|150:370,1,107.999996704102,4|2,0:0|0:0,0:0:0:0:
92,368,146139,2,0,P|56:332|44:268,1,107.999996704102,8|2,0:0|0:0,0:0:0:0:
48,160,146770,1,8,0:0:0:0:
48,160,146928,2,0,P|102:146|157:114,1,107.999996704102,6|2,0:0|0:0,0:0:0:0:
187,76,147402,1,0,0:0:0:0:
224,30,147560,2,0,L|259:80,1,53.9999983520508,8|0,0:0|0:0,0:0:0:0:
314,83,147876,2,8,L|321:136,1,53.9999983520508
346,190,148191,6,0,P|270:184|202:250,1,161.999995056153,6|8,0:0|0:0,3:0:0:0:
100,184,148981,2,0,P|120:240|116:296,1,107.999996704102,2|8,0:0|0:0,0:0:0:0:
68,320,149454,2,0,L|252:324,1,161.999995056153,6|8,0:0|0:0,0:0:0:0:
348,332,150244,2,0,P|372:268|356:208,1,107.999996704102,2|8,0:0|0:0,0:0:0:0:
320,192,150718,6,0,P|398:207|476:186,1,161.999995056153,6|8,0:0|0:0,0:0:0:0:
490,67,151507,2,0,L|506:15,2,53.9999983520508,2|2|8,0:0|0:0|0:0,0:0:0:0:
433,84,151981,2,0,P|354:68|276:89,1,161.999995056153,6|8,0:0|0:0,0:0:0:0:
242,202,152770,2,0,L|226:278,1,53.9999983520508,2|2,0:0|0:0,0:0:0:0:
196,300,153086,1,8,0:0:0:0:
196,300,153244,6,0,P|136:280|60:216,1,161.999995056153,6|8,0:0|0:0,0:0:0:0:
24,104,154033,2,0,L|17:50,2,53.9999983520508,2|2|8,0:0|0:0|0:0,0:0:0:0:
78,124,154507,2,0,L|239:131,1,161.999995056153,6|8,0:0|0:0,0:0:0:0:
360,140,155297,2,0,L|444:116,2,53.9999983520508,2|2|8,0:0|0:0|0:0,0:0:0:0:
312,176,155770,6,0,L|288:340,1,161.999995056153,6|8,0:0|0:0,0:0:0:0:
172,360,156560,1,2,0:0:0:0:
108,260,156876,1,8,0:0:0:0:
108,260,157033,2,0,L|132:96,1,161.999995056153,6|8,0:0|0:0,0:0:0:0:
232,36,157823,2,0,L|316:28,2,53.9999983520508,2|2|8,0:0|0:0|0:0,0:0:0:0:
224,95,158297,1,8,0:0:0:0:
223,154,158454,5,12,0:0:0:0:
144,122,163507,6,0,P|123:69|98:38,2,80.9999975280763,6|2|2,0:0|0:0|0:0,0:0:0:0:
141,181,164139,1,8,0:0:0:0:
141,181,164770,6,8,P|184:171|228:167,2,80.9999975280763,6|2|2,0:0|0:0|0:0,0:0:0:0:
119,236,165402,1,8,0:0:0:0:
274,323,165876,6,0,P|334:289|368:190,1,161.999995056153,4|8,0:0|0:0,0:0:0:0:
288,120,166665,2,0,P|208:92|152:108,1,107.999996704102,2|8,0:0|0:0,0:0:0:0:
100,176,167297,2,0,L|20:180,2,53.9999983520508,8|8|8,0:0|0:0|0:0,0:0:0:0:
216,200,167928,2,0,B|292:224|292:224|396:176,1,161.999995056153,2|6,0:0|0:0,0:0:0:0:
309,148,171086,6,0,B|307:191|342:230|342:230|233:155|137:185,1,270,0|0,0:0|0:0,0:0:0:0:
126,190,172191,1,6,0:0:0:0:
44,245,172507,1,2,0:0:0:0:
93,330,172823,2,0,P|157:342|200:333,1,99.0000030212403,0|8,0:0|0:0,0:0:0:0:
278,284,173454,6,0,P|351:277|400:298,1,99.0000030212403,6|2,0:0|0:0,0:0:0:0:
440,372,174086,2,0,P|476:308|473:269,1,99.0000030212403,0|2,0:0|0:0,0:0:0:0:
468,229,174560,1,8,0:0:0:0:
468,229,174718,2,0,P|452:158|467:113,1,99.0000030212403,6|2,0:0|0:0,0:0:0:0:
372,65,175349,2,0,P|304:56|266:78,1,99.0000030212403,0|2,0:0|0:0,0:0:0:0:
238,106,175823,1,8,0:0:0:0:
238,106,175981,6,0,P|177:131|119:115,1,99.0000030212403,6|2,0:0|0:0,0:0:0:0:
46,81,176612,2,0,P|60:52|77:34,2,49.5000015106202,0|2|2,0:0|0:0|0:0,0:0:0:0:
47,135,177086,1,8,0:0:0:0:
47,135,177244,2,0,P|63:213|42:273,1,99.0000030212403,6|2,0:0|0:0,0:0:0:0:
16,331,177876,2,0,L|-11:380,2,49.5000015106202,2|8|2,0:0|0:0|0:0,0:0:0:0:
69,340,178349,1,8,0:0:0:0:
69,340,178507,6,0,B|135:366|124:315|204:359,1,107.999996704102,6|2,0:0|0:0,0:0:0:0:
232,360,178981,1,8,0:0:0:0:
292,365,179139,2,0,P|280:289|252:254,1,107.999996704102,0|2,0:0|0:0,0:0:0:0:
229,216,179612,1,8,0:0:0:0:
229,216,179770,2,0,P|273:147|321:135,1,107.999996704102,6|2,0:0|0:0,0:0:0:0:
352,120,180244,1,8,0:0:0:0:
403,89,180402,2,0,P|367:39|300:21,1,107.999996704102,0|2,0:0|0:0,0:0:0:0:
217,66,181033,6,0,P|153:79|99:68,1,107.999996704102,6|2,0:0|0:0,0:0:0:0:
55,51,181507,1,8,0:0:0:0:
55,51,181665,2,0,P|38:121|49:166,1,107.999996704102,0|2,0:0|0:0,0:0:0:0:
80,204,182139,1,8,0:0:0:0:
111,253,182297,2,0,P|128:313|119:361,1,107.999996704102,6|2,0:0|0:0,0:0:0:0:
9,314,182928,1,0,0:0:0:0:
6,195,183244,1,2,0:0:0:0:
111,253,183560,6,0,P|187:263|222:249,1,107.999996704102,6|2,0:0|0:0,0:0:0:0:
266,219,184033,2,0,P|317:206|369:218,1,107.999996704102,8|2,0:0|0:0,0:0:0:0:
451,306,184665,1,8,0:0:0:0:
451,306,184823,2,0,P|484:245|475:192,1,107.999996704102,0|2,0:0|0:0,0:0:0:0:
418,106,185454,2,0,P|356:120|309:106,1,107.999996704102,0|2,0:0|0:0,0:0:0:0:
259,81,185928,1,8,0:0:0:0:
259,81,186086,6,0,P|224:156|234:199,1,107.999996704102,6|2,0:0|0:0,0:0:0:0:
247,234,186560,2,0,B|263:299|231:358,2,107.999996704102,8|2|8,0:0|0:0|0:0,0:0:0:0:
135,275,187507,2,0,L|55:274,2,53.9999983520508,2|8|8,0:0|0:0|0:0,0:0:0:0:
211,183,188139,2,0,L|210:129,2,53.9999983520508,2|8|8,0:0|0:0|0:0,0:0:0:0:
247,234,188612,5,6,0:0:0:0:
408,156,189086,2,0,P|408:96|364:44,2,107.999996704102,8|2|8,0:0|0:0|0:0,0:0:0:0:
412,216,189876,2,0,B|416:264|396:292|396:292|348:280|304:300,1,161.999995056153,6|8,0:0|0:0,0:0:0:0:
196,312,190665,2,0,L|76:308,1,107.999996704102,2|8,0:0|0:0,0:0:0:0:
28,320,191139,6,0,P|56:252|8:156,1,161.999995056153,6|8,0:0|0:0,0:0:0:0:
112,84,191928,2,0,B|168:104|168:104|244:88,1,107.999996704102,2|8,0:0|0:0,0:0:0:0:
264,60,192402,2,0,B|236:136|236:136|280:144|332:196,1,161.999995056153,6|8,0:0|0:0,0:0:0:0:
344,220,193033,2,0,L|348:292,1,53.9999983520508,2|8,0:0|0:0,0:0:0:0:
260,356,193507,1,8,0:0:0:0:
260,356,193665,6,0,P|184:328|96:340,1,161.999995056153,6|8,0:0|0:0,0:0:0:0:
24,252,194454,2,0,L|44:124,1,107.999996704102,2|8,0:0|0:0,0:0:0:0:
40,84,194928,2,0,P|96:124|192:120,1,161.999995056153,6|8,0:0|0:0,0:0:0:0:
304,108,195718,2,0,L|392:100,2,53.9999983520508,2|2|8,0:0|0:0|0:0,0:0:0:0:
280,164,196191,6,0,B|281:195|275:218|275:218|388:242,1,161.999995056153,6|8,0:0|0:0,0:0:0:0:
448,328,196981,2,0,L|501:321,2,53.9999983520508,2|2|8,0:0|0:0|0:0,0:0:0:0:
392,352,197454,2,0,L|228:316,1,161.999995056153,6|8,0:0|0:0,0:0:0:0:
120,288,198244,2,0,L|108:216,1,53.9999983520508,10|2,0:0|0:0,0:0:0:0:
104,176,198560,1,8,0:0:0:0:
124,60,198876,5,6,0:0:0:0:
256,192,199033,12,0,206454,0:0:0:0:
