osu file format v14

[General]
AudioFilename: audio.mp3
AudioLeadIn: 0
PreviewTime: 73428
Countdown: 0
SampleSet: Soft
StackLeniency: 0.2
Mode: 0
LetterboxInBreaks: 0
WidescreenStoryboard: 1

[Editor]
Bookmarks: 16981,27086,37033,47139,57244,57639,67507,74928,77454,97665,102718,107770,118033,125454,140297,157823,158454,165876,168560,178665,188770,198876,206454,211507
DistanceSpacing: 1.1
BeatDivisor: 4
GridSize: 4
TimelineZoom: 2.3

[Metadata]
Title:Logic Agent
TitleUnicode:ロジックエージェント
Artist:Reol
ArtistUnicode:れをる
Creator:Naotoshi
Version:Lost
Source:
Tags:jpop pan xinely niki polkamocha Gokusaishoku Gokusaishiki Giga-P Akitoshi
BeatmapID:1283956
BeatmapSetID:578814

[Difficulty]
HPDrainRate:6
CircleSize:4.5
OverallDifficulty:8.3
ApproachRate:9.2
SliderMultiplier:1
SliderTickRate:1

[Events]
//Background and Video events
0,0,"girl_anime_rain_glass_light_schoolgirl_102497_1366x768.jpg",0,0
//Break Periods
2,97864,102148
2,158654,162621
2,168602,170516
//Storyboard Layer 0 (Background)
//Storyboard Layer 1 (Fail)
//Storyboard Layer 2 (Pass)
//Storyboard Layer 3 (Foreground)
//Storyboard Sound Samples

[TimingPoints]
6876,315.789473684211,4,2,1,40,1,0
16506,-71.4285714285714,4,2,1,40,0,0
16966,-71.4285714285714,4,2,2,40,0,0
20213,-100,4,2,2,40,0,0
21559,-71.4285714285714,4,2,2,40,0,0
25348,-100,4,2,2,40,0,0
26927,-55.5555555555556,4,2,2,40,0,0
27071,-55.5555555555556,4,2,3,60,0,0
36554,-200,4,2,3,60,0,0
36949,-200,4,2,3,60,0,0
37033,-58.8235294117647,4,2,3,80,0,0
39002,-58.8235294117647,4,2,3,5,0,0
39086,-58.8235294117647,4,2,3,80,0,0
41528,-58.8235294117647,4,2,3,5,0,0
41612,-58.8235294117647,4,2,3,80,0,0
45323,-58.8235294117647,4,2,3,5,0,0
45402,-58.8235294117647,4,2,3,80,0,0
47134,-71.4285714285714,4,2,3,80,0,0
56449,-133.333333333333,4,2,3,80,0,0
57239,-71.4285714285714,4,2,3,80,0,0
74923,-58.8235294117647,4,2,3,80,0,0
77454,-51.2820512820513,4,2,3,80,0,1
97665,-51.2820512820513,4,2,3,80,0,0
102713,-58.8235294117647,4,2,3,80,0,0
106976,-133.333333333333,4,2,3,80,0,0
107765,-71.4285714285714,4,2,3,80,0,0
127981,-51.2820512820513,4,2,3,80,0,1
147713,-50,4,2,3,80,0,1
148191,-55.5555555555556,4,2,3,80,0,0
163186,-66.6666666666667,4,2,3,80,0,0
171081,-200,4,2,3,20,0,0
171397,-200,4,2,3,30,0,0
171713,-200,4,2,3,60,0,0
172107,-200,4,2,3,5,0,0
172191,-62.5,4,2,3,80,0,1
172270,-62.5,4,2,3,80,0,0
173454,-51.2820512820513,4,2,3,80,0,1
173533,-51.2820512820513,4,2,3,80,0,0
174718,-51.2820512820513,4,2,3,80,0,1
174797,-51.2820512820513,4,2,3,80,0,0
175981,-51.2820512820513,4,2,3,80,0,1
176060,-51.2820512820513,4,2,3,80,0,0
177244,-51.2820512820513,4,2,3,80,0,1
177323,-51.2820512820513,4,2,3,80,0,0
178507,-51.2820512820513,4,2,3,80,0,1
188612,-55.5555555555556,4,2,3,80,0,0
198555,-66.6666666666667,4,2,3,80,0,0
199028,-66.6666666666667,4,2,3,80,0,0
199492,-66.6666666666667,4,2,3,75,0,0
200124,-66.6666666666667,4,2,3,70,0,0
200755,-66.6666666666667,4,2,3,65,0,0
201387,-66.6666666666667,4,2,3,50,0,0
202033,-66.6666666666667,4,2,3,35,0,0
202981,-66.6666666666667,4,2,3,20,0,0
204244,-66.6666666666667,4,2,3,10,0,0
206454,-66.6666666666667,4,2,3,5,0,0

[Colours]
Combo1 : 253,159,2
Combo2 : 192,192,192
Combo3 : 227,210,166

[HitObjects]
108,79,6876,6,0,L|118:141,1,50,4|4,0:0|0:0,0:0:0:0:
128,203,7191,1,8,0:0:0:0:
205,226,7507,1,2,0:0:0:0:
282,203,7823,1,8,0:0:0:0:
360,185,8139,6,0,L|350:247,1,50,4|4,0:2|0:0,0:0:0:0:
340,309,8454,1,8,0:0:0:0:
263,332,8770,1,2,0:0:0:0:
186,309,9086,1,8,0:0:0:0:
108,327,9402,6,0,L|52:315,1,50,4|4,0:0|0:0,0:0:0:0:
19,254,9717,1,8,0:0:0:0:
62,187,10033,1,2,0:0:0:0:
32,113,10349,1,8,0:0:0:0:
70,42,10665,6,0,L|132:52,1,50,4|4,0:0|0:0,0:0:0:0:
168,107,10980,1,8,0:0:0:0:
128,173,11297,1,2,0:0:0:0:
108,247,11613,1,8,0:0:0:0:
107,271,11691,1,8,0:0:0:0:
108,296,11770,1,8,0:0:0:0:
110,321,11849,1,8,0:0:0:0:
112,346,11928,5,4,0:0:0:0:
182,275,12086,1,4,0:0:0:0:
260,347,12244,5,8,0:0:0:0:
261,275,12560,1,2,0:0:0:0:
327,251,12876,1,8,0:0:0:0:
369,188,13192,5,4,0:0:0:0:
295,112,13350,1,4,0:0:0:0:
226,188,13508,5,8,0:0:0:0:
179,135,13824,1,2,0:0:0:0:
109,133,14140,1,8,0:0:0:0:
59,185,14455,5,4,0:0:0:0:
69,293,14613,1,4,0:0:0:0:
128,210,14771,5,8,0:0:0:0:
197,228,15086,1,2,0:0:0:0:
139,280,15402,1,8,0:0:0:0:
212,304,15718,5,6,0:0:0:0:
307,353,15876,1,6,0:0:0:0:
274,258,16033,5,8,0:0:0:0:
326,201,16349,1,12,0:0:0:0:
337,193,16428,1,8,0:0:0:0:
351,190,16507,2,0,L|408:188,1,34.9999989318848,8|0,0:0|0:0,0:0:0:0:
231,150,16665,1,0,0:0:0:0:
341,104,16823,1,0,0:0:0:0:
240,65,16981,6,0,P|159:63|89:65,1,139.999995727539,4|0,0:0|0:0,0:0:0:0:
57,148,17612,2,0,P|138:150|208:148,1,139.999995727539
336,212,18086,2,0,P|405:212|475:210,1,139.999995727539
473,127,18718,2,0,P|403:125|333:127,1,139.999995727539,0|0,0:0|0:0,0:0:0:0:
242,143,19349,1,0,0:0:0:0:
313,31,19507,6,0,P|382:29|452:32,1,139.999995727539
453,125,20139,2,0,P|383:130|308:128,1,139.999995727539
236,111,20771,2,0,P|235:135|238:160,1,50
262,238,21244,1,0,0:0:0:0:
100,287,21402,6,0,B|131:278|148:267|148:267|176:276|214:272,1,100
320,344,21876,1,0,0:0:0:0:
413,268,22033,2,0,P|349:266|269:266,1,139.999995727539,0|0,0:0|0:0,0:0:0:0:
216,193,22665,2,0,P|280:191|360:191,1,139.999995727539
457,115,23139,2,0,P|393:113|313:113,1,139.999995727539
231,85,23770,2,0,P|161:83|91:86,1,139.999995727539
24,151,24402,1,0,0:0:0:0:
190,180,24560,6,0,P|280:181|337:175,2,139.999995727539
138,238,25507,1,0,0:0:0:0:
159,309,25823,2,0,P|184:309|209:310,1,50
289,294,26297,1,0,0:0:0:0:
203,145,26454,6,0,B|225:159|238:183|238:183|234:208|240:244,1,100
143,221,26928,1,0,0:0:0:0:
295,106,27086,5,6,0:0:0:0:
320,222,27245,1,2,0:0:0:0:
203,145,27402,1,8,0:0:0:0:
203,144,28033,1,8,0:0:0:0:
295,106,28350,5,2,0:0:0:0:
320,222,28508,1,2,0:0:0:0:
203,144,28665,1,8,0:0:0:0:
203,145,29297,1,8,0:0:0:0:
183,241,29612,5,2,0:0:0:0:
52,268,29770,2,8,P|55:312|60:357,1,89.9999972534181,2|8,0:0|0:0,0:0:0:0:
100,189,30086,2,0,P|103:145|101:100,1,89.9999972534181,0|0,0:0|0:0,0:0:0:0:
75,22,30560,1,8,0:0:0:0:
160,28,30876,5,2,0:0:0:0:
201,144,31034,1,2,0:0:0:0:
267,35,31192,2,0,P|330:33|377:39,1,89.9999972534181,8|0,0:0|0:0,0:0:0:0:
461,171,31507,1,2,0:0:0:0:
478,38,31665,1,2,0:0:0:0:
316,153,31823,2,0,P|314:216|320:263,1,89.9999972534181,8|0,0:0|0:0,0:0:0:0:
318,257,32060,1,8,0:0:0:0:
321,269,32139,5,6,0:0:0:0:
220,202,32297,2,0,P|176:200|131:204,1,89.9999972534181,2|8,0:0|0:0,0:0:0:0:
412,203,32612,2,0,P|476:210|507:216,1,89.9999972534181,0|0,0:0|0:0,0:0:0:0:
510,294,33086,1,8,0:0:0:0:
435,321,33402,5,2,0:0:0:0:
501,214,33560,1,2,0:0:0:0:
316,242,33718,1,8,0:0:0:0:
316,242,34349,1,8,0:0:0:0:
242,193,34665,5,2,0:0:0:0:
217,365,34824,2,0,P|219:320|226:276,1,89.9999972534181,2|8,0:0|0:0,0:0:0:0:
101,277,35139,2,0,P|108:322|110:367,1,89.9999972534181,0|2,0:0|0:0,0:0:0:0:
81,163,35454,1,2,0:0:0:0:
77,140,35534,1,2,0:0:0:0:
71,118,35613,1,8,0:0:0:0:
64,97,35692,1,2,0:0:0:0:
53,77,35771,1,2,0:0:0:0:
42,58,35850,1,2,0:0:0:0:
27,40,35928,5,2,0:0:0:0:
27,40,36560,2,0,P|67:39|80:40,1,50
158,46,36954,1,8,0:0:0:0:
173,48,37033,6,0,P|239:57|358:65,1,170.000003242493,6|0,0:0|0:0,0:0:0:0:
452,230,37507,2,0,P|371:227|307:234,1,127.50000243187,8|0,0:0|0:0,0:0:0:0:
290,240,37823,1,2,0:0:0:0:
437,334,37981,1,2,0:0:0:0:
426,124,38139,1,8,0:0:0:0:
290,240,38297,6,0,P|289:150|276:58,1,170.000003242493,6|2,0:0|0:0,0:0:0:0:
184,280,38770,2,0,P|125:255|62:248,1,127.50000243187,8|0,0:0|0:0,0:0:0:0:
30,253,39086,1,2,0:0:0:0:
156,169,39244,1,2,0:0:0:0:
100,342,39402,1,8,0:0:0:0:
78,137,39560,6,0,P|143:85|228:129,1,170.000003242493,6|2,0:0|0:0,0:0:0:0:
290,240,40033,2,0,P|295:282|296:324,1,85.0000016212464,8|0,0:0|0:0,0:0:0:0:
367,86,40349,2,8,P|371:44|382:2,1,85.0000016212464,2|2,0:0|0:0,0:0:0:0:
485,61,40665,1,8,0:0:0:0:
367,192,40823,6,0,P|278:143|209:111,1,170.000003242493,6|2,0:0|0:0,0:0:0:0:
67,170,41297,2,0,P|57:89|87:29,1,127.50000243187,8|0,0:0|0:0,0:0:0:0:
94,24,41612,1,2,0:0:0:0:
133,216,41770,1,2,0:0:0:0:
216,114,41928,1,8,0:0:0:0:
52,281,42086,6,0,P|136:322|218:275,1,170.000003242493,6|2,0:0|0:0,0:0:0:0:
417,289,42560,2,0,P|375:295|334:305,1,85.0000016212464,8|0,0:0|0:0,0:0:0:0:
262,138,42876,2,0,P|220:128|178:122,1,85.0000016212464,2|2,0:0|0:0,0:0:0:0:
379,103,43191,1,8,0:0:0:0:
334,305,43349,6,0,P|326:227|411:198,1,170.000003242493,6|2,0:0|0:0,0:0:0:0:
261,137,43823,2,0,P|231:168|215:207,1,85.0000016212464,8|0,0:0|0:0,0:0:0:0:
379,103,44139,1,2,0:0:0:0:
179,87,44297,1,2,0:0:0:0:
236,296,44454,1,8,0:0:0:0:
25,176,44612,6,0,P|37:91|59:9,1,170.000003242493,6|2,0:0|0:0,0:0:0:0:
261,137,45086,2,0,P|282:219|291:292,1,127.50000243187,8|0,0:0|0:0,0:0:0:0:
293,294,45402,1,2,0:0:0:0:
158,224,45560,1,2,0:0:0:0:
383,173,45718,1,8,0:0:0:0:
180,102,45876,6,0,P|227:51|322:83,1,170.000003242493,6|2,0:0|0:0,0:0:0:0:
357,253,46349,2,0,P|368:212|382:172,2,85.0000016212464,8|0|2,0:0|0:0|0:0,0:0:0:0:
485,155,46823,1,8,0:0:0:0:
315,74,46981,1,8,0:0:0:0:
275,185,47139,6,0,P|216:186|194:185,1,69.9999978637696,4|0,0:0|0:0,0:0:0:0:
78,95,47454,1,2,0:0:0:0:
139,247,47612,1,8,0:0:0:0:
80,303,47928,5,2,0:0:0:0:
15,176,48086,1,2,0:0:0:0:
139,247,48244,1,8,0:0:0:0:
198,303,48560,5,2,0:0:0:0:
288,217,48718,1,2,0:0:0:0:
278,349,48876,2,0,P|333:353|364:349,1,69.9999978637696,8|0,0:0|0:0,0:0:0:0:
424,297,49191,1,2,0:0:0:0:
288,217,49349,1,2,0:0:0:0:
430,208,49507,2,0,P|430:173|428:138,1,69.9999978637696,8|2,0:0|0:0,0:0:0:0:
366,84,49981,5,2,0:0:0:0:
338,220,50139,2,0,P|286:225|263:225,1,69.9999978637696,8|0,0:0|0:0,0:0:0:0:
312,319,50454,1,2,0:0:0:0:
293,134,50612,1,2,0:0:0:0:
188,319,50770,1,8,0:0:0:0:
115,304,51086,5,2,0:0:0:0:
85,161,51244,1,2,0:0:0:0:
40,305,51402,1,8,0:0:0:0:
33,226,51718,5,2,0:0:0:0:
161,246,51876,1,8,0:0:0:0:
90,83,52033,1,8,0:0:0:0:
219,190,52191,6,0,P|277:195|367:183,1,139.999995727539,6|2,0:0|0:0,0:0:0:0:
285,53,52665,1,8,0:0:0:0:
362,46,52981,5,2,0:0:0:0:
357,185,53139,1,2,0:0:0:0:
442,61,53297,1,8,0:0:0:0:
389,119,53612,5,2,0:0:0:0:
362,268,53770,1,2,0:0:0:0:
306,117,53928,1,8,0:0:0:0:
233,146,54244,5,2,0:0:0:0:
284,288,54402,1,2,0:0:0:0:
160,185,54560,1,8,0:0:0:0:
359,265,54718,6,0,P|422:236|392:169,1,139.999995727539,2|2,0:0|0:0,0:0:0:0:
279,302,55191,1,8,0:0:0:0:
202,313,55507,5,2,0:0:0:0:
383,360,55665,1,2,0:0:0:0:
228,244,55823,1,8,0:0:0:0:
146,254,56139,5,2,0:0:0:0:
130,108,56297,1,2,0:0:0:0:
229,189,56454,2,0,P|226:229|231:257,1,56.2500021457673,8|0,0:0|0:0,0:0:0:0:
302,277,56770,5,2,0:0:0:0:
331,243,56848,1,2,0:0:0:0:
375,253,56927,1,2,0:0:0:0:
387,296,57006,1,2,0:0:0:0:
356,327,57085,5,8,0:0:0:0:
229,189,57244,6,0,P|179:192|86:196,1,139.999995727539,6|0,0:0|0:0,0:0:0:0:
221,60,57718,1,8,0:0:0:0:
320,159,57876,1,0,0:0:0:0:
421,41,58034,2,0,P|386:34|351:35,1,69.9999978637696,2|2,0:0|0:0,0:0:0:0:
411,201,58349,1,8,0:0:0:0:
229,189,58507,1,2,0:0:0:0:
260,334,58665,6,0,B|286:338|337:336,1,69.9999978637696,0|2,0:0|0:0,0:0:0:0:
132,281,58981,1,8,0:0:0:0:
229,189,59139,2,0,P|278:188|322:193,1,69.9999978637696,0|2,0:0|0:0,0:0:0:0:
466,255,59454,2,0,P|431:255|397:251,1,69.9999978637696,2|8,0:0|0:0,0:0:0:0:
302,99,59770,6,0,P|191:96|147:97,1,139.999995727539,2|2,0:0|0:0,0:0:0:0:
55,249,60244,1,8,0:0:0:0:
22,110,60402,1,0,0:0:0:0:
141,184,60560,2,0,P|153:217|161:252,1,69.9999978637696,2|2,0:0|0:0,0:0:0:0:
87,39,60876,1,8,0:0:0:0:
50,188,61033,1,2,0:0:0:0:
222,126,61191,6,0,P|268:114|299:114,1,69.9999978637696,0|2,0:0|0:0,0:0:0:0:
344,289,61507,2,0,P|300:266|276:246,1,69.9999978637696,8|0,0:0|0:0,0:0:0:0:
142,185,61823,1,2,0:0:0:0:
290,113,61981,1,8,0:0:0:0:
87,39,62139,1,8,0:0:0:0:
280,0,62297,6,0,P|343:13|386:86,1,139.999995727539,6|2,0:0|0:0,0:0:0:0:
292,184,62770,2,0,P|290:219|285:254,1,69.9999978637696,8|0,0:0|0:0,0:0:0:0:
289,94,63086,1,2,0:0:0:0:
165,166,63244,1,2,0:0:0:0:
403,165,63402,1,8,0:0:0:0:
311,330,63560,6,0,B|245:354|245:300|153:329,1,139.999995727539,2|2,0:0|0:0,0:0:0:0:
292,184,64033,2,0,P|330:179|361:178,1,69.9999978637696,8|0,0:0|0:0,0:0:0:0:
452,256,64349,1,2,0:0:0:0:
311,330,64507,1,2,0:0:0:0:
361,177,64665,1,8,0:0:0:0:
212,102,64823,6,0,P|211:168|214:243,1,139.999995727539,2|2,0:0|0:0,0:0:0:0:
140,29,65297,2,0,P|204:7|223:3,1,69.9999978637696,8|0,0:0|0:0,0:0:0:0:
332,64,65612,1,2,0:0:0:0:
212,102,65770,1,2,0:0:0:0:
425,0,65928,6,0,P|440:109|443:144,1,139.999995727539,8|2,0:0|0:0,0:0:0:0:
332,64,66402,1,2,0:0:0:0:
361,194,66560,2,8,L|384:260,1,69.9999978637696,8|0,0:0|0:0,0:0:0:0:
241,190,66876,1,10,0:0:0:0:
215,196,66954,1,8,0:0:0:0:
195,213,67033,1,8,0:0:0:0:
183,236,67112,1,8,0:0:0:0:
182,262,67191,1,8,0:0:0:0:
192,286,67270,1,8,0:0:0:0:
211,304,67349,1,8,0:0:0:0:
235,312,67428,1,8,0:0:0:0:
254,309,67507,5,6,0:0:0:0:
309,263,67823,1,2,0:0:0:0:
374,233,68139,1,8,0:0:0:0:
439,203,68455,5,2,0:0:0:0:
408,112,68613,1,2,0:0:0:0:
492,155,68771,1,2,0:0:0:0:
464,44,68928,1,0,0:0:0:0:
464,44,69007,1,0,0:0:0:0:
464,44,69086,5,2,0:0:0:0:
397,73,69402,1,8,0:0:0:0:
343,122,69718,1,2,0:0:0:0:
275,97,70034,5,6,0:0:0:0:
209,124,70350,1,2,0:0:0:0:
155,169,70665,1,8,0:0:0:0:
138,100,70981,5,2,0:0:0:0:
148,241,71139,1,8,0:0:0:0:
65,109,71297,2,0,P|60:183|70:250,1,139.999995727539,6|2,0:0|0:0,0:0:0:0:
115,312,71928,1,8,0:0:0:0:
187,344,72244,1,2,0:0:0:0:
214,310,72323,1,10,0:0:0:0:
223,267,72402,1,10,0:0:0:0:
213,225,72481,1,2,0:0:0:0:
184,193,72559,5,10,0:0:0:0:
157,183,74928,6,0,P|276:183|337:189,1,170.000003242493,6|0,0:0|0:0,0:0:0:0:
438,303,75402,2,0,P|319:303|251:296,1,170.000003242493,8|2,0:0|0:0,0:0:0:0:
144,357,75876,1,2,0:0:0:0:
77,134,76033,2,0,P|67:175|63:218,1,85.0000016212464,8|0,0:0|0:0,0:0:0:0:
197,59,76349,1,8,0:0:0:0:
233,53,76428,1,8,0:0:0:0:
267,52,76507,2,0,L|340:60,1,42.5000008106232,8|0,0:0|0:0,0:0:0:0:
371,288,76665,1,8,0:0:0:0:
335,295,76744,1,8,0:0:0:0:
302,306,76823,2,0,L|228:288,1,42.5000008106232
424,190,76981,5,2,0:0:0:0:
218,190,77139,1,0,0:0:0:0:
284,84,77297,1,8,0:2:0:0:
324,352,77454,2,0,P|340:279|325:154,1,195.000000743866,6|0,0:0|0:0,0:0:0:0:
438,329,77928,1,8,0:0:0:0:
230,283,78086,2,0,P|130:277|92:286,1,97.500000371933,0|2,0:0|0:0,0:0:0:0:
251,193,78402,1,2,0:0:0:0:
50,329,78560,1,8,0:0:0:0:
37,299,78639,1,8,0:0:0:0:
39,264,78718,6,0,P|51:187|49:62,1,195.000000743866,6|2,0:0|0:0,0:0:0:0:
168,183,79191,1,8,0:0:0:0:
336,57,79349,2,0,P|258:69|222:88,1,97.500000371933,0|2,0:0|0:0,0:0:0:0:
233,286,79665,2,0,P|278:302|327:305,1,97.500000371933,2|8,0:0|0:0,0:0:0:0:
454,88,79981,6,0,P|445:169|453:310,1,195.000000743866,6|2,0:0|0:0,0:0:0:0:
309,179,80454,1,8,0:0:0:0:
209,383,80612,2,0,P|264:351|295:316,1,97.500000371933,0|2,0:0|0:0,0:0:0:0:
177,239,80928,1,2,0:0:0:0:
78,348,81086,1,8,0:0:0:0:
56,326,81165,1,8,0:0:0:0:
41,303,81244,6,0,P|34:216|40:186,1,97.500000371933,6|0,0:0|0:0,0:0:0:0:
190,27,81560,2,0,P|192:75|184:123,1,97.500000371933,2|8,0:0|0:0,0:0:0:0:
286,232,81876,2,0,P|368:248|413:244,1,97.500000371933,0|2,0:0|0:0,0:0:0:0:
461,58,82191,2,0,P|412:60|365:73,1,97.500000371933,2|8,0:0|0:0,0:0:0:0:
474,354,82507,6,0,P|475:242|485:153,1,195.000000743866,6|2,0:0|0:0,0:0:0:0:
286,232,82981,1,8,0:0:0:0:
365,73,83139,2,0,P|376:137|378:182,1,97.500000371933,0|2,0:0|0:0,0:0:0:0:
224,30,83454,1,2,0:0:0:0:
125,208,83612,1,8,0:0:0:0:
281,138,83770,6,0,P|174:122|146:121,1,97.500000371933,6|0,0:0|0:0,0:0:0:0:
88,320,84086,2,0,P|136:314|184:304,1,97.500000371933,2|8,0:3|0:2,0:0:0:0:
312,260,84402,2,0,P|309:333|289:389,1,97.500000371933,0|0,3:0|3:0,0:0:0:0:
418,221,84718,1,2,0:0:0:0:
205,220,84876,1,8,0:0:0:0:
168,221,84954,1,8,0:2:0:0:
133,228,85033,6,0,P|127:150|157:29,1,195.000000743866,6|0,0:0|0:0,0:0:0:0:
29,173,85507,2,0,P|37:253|48:300,1,97.500000371933,8|0,0:0|0:0,0:0:0:0:
48,49,85823,1,2,0:0:0:0:
227,152,85981,1,2,0:0:0:0:
29,173,86139,1,8,0:0:0:0:
307,77,86297,6,0,P|265:51|218:45,1,97.500000371933,6|0,0:0|0:0,0:0:0:0:
215,267,86612,2,0,P|262:260|304:234,1,97.500000371933,2|8,0:0|0:0,0:0:0:0:
122,157,86928,1,0,0:0:0:0:
335,157,87086,1,2,0:0:0:0:
135,240,87244,1,2,0:0:0:0:
199,51,87402,1,8,0:0:0:0:
226,90,87481,1,8,0:0:0:0:
241,127,87560,6,0,P|246:222|266:327,1,195.000000743866,6|2,0:0|0:0,0:0:0:0:
354,94,88033,1,8,0:0:0:0:
415,324,88191,2,0,P|421:275|423:211,1,97.500000371933,0|2,0:0|0:0,0:0:0:0:
354,94,88506,1,2,0:0:0:0:
323,267,88665,1,8,0:0:0:0:
292,274,88744,1,8,0:0:0:0:
267,263,88823,6,0,P|262:123|244:52,1,195.000000743866,6|2,0:0|0:0,0:0:0:0:
165,191,89297,1,8,0:0:0:0:
363,178,89454,2,0,P|413:218|446:261,1,97.500000371933,0|2,0:0|0:0,0:0:0:0:
195,328,89770,2,0,P|227:291|266:262,1,97.500000371933,2|8,0:0|0:0,0:0:0:0:
18,128,90086,6,0,P|36:294|36:337,1,195.000000743866,6|2,0:0|0:0,0:0:0:0:
130,111,90560,1,8,0:0:0:0:
254,281,90718,1,0,0:0:0:0:
154,216,90876,1,2,0:0:0:0:
350,142,91033,2,0,P|302:140|254:148,1,97.500000371933,2|8,0:0|0:0,0:0:0:0:
384,336,91349,6,0,P|432:338|498:325,1,97.500000371933,6|0,0:0|0:0,0:0:0:0:
349,141,91665,2,0,P|382:177|404:221,1,97.500000371933,2|8,0:0|0:0,0:0:0:0:
256,349,91981,2,0,P|271:302|298:261,1,97.500000371933,0|2,0:0|0:0,0:0:0:0:
148,159,92297,2,0,P|196:166|244:159,1,97.500000371933,2|8,0:0|0:0,0:0:0:0:
79,71,92612,6,0,P|44:143|100:265,1,195.000000743866,6|2,0:0|0:0,0:0:0:0:
200,71,93086,2,0,B|298:40|310:101|415:65,1,195.000000743866,8|2,0:0|0:0,0:0:0:0:
252,168,93560,1,2,0:0:0:0:
457,0,93718,2,0,P|483:59|480:103,1,97.500000371933,8|0,0:0|0:0,0:0:0:0:
397,233,94033,6,0,P|400:306|426:358,2,97.500000371933,2|2|8,0:0|0:0|0:0,0:0:0:0:
177,298,94507,2,0,P|239:281|295:289,1,97.500000371933,0|2,0:0|0:0,0:0:0:0:
87,373,94823,1,2,0:0:0:0:
22,195,94981,1,8,0:0:0:0:
54,169,95060,1,8,0:0:0:0:
94,147,95139,6,0,P|168:131|296:149,1,195.000000743866,6|2,0:0|0:0,0:0:0:0:
407,240,95612,2,0,P|425:178|431:117,1,97.500000371933,8|0,0:0|0:0,0:0:0:0:
344,33,95928,1,2,0:0:0:0:
445,53,96086,1,2,0:0:0:0:
285,145,96244,2,0,P|276:209|285:259,1,97.500000371933,8|0,0:0|0:0,0:0:0:0:
61,307,96560,5,2,0:0:0:0:
128,233,96718,1,2,0:0:0:0:
218,350,96876,2,0,P|294:365|352:357,1,97.500000371933,8|0,0:0|0:0,0:0:0:0:
440,182,97191,1,2,0:0:0:0:
446,213,97269,1,2,0:0:0:0:
451,245,97348,1,8,0:0:0:0:
454,277,97427,1,8,0:0:0:0:
454,310,97506,1,2,0:0:0:0:
454,343,97585,1,2,0:0:0:0:
448,371,97664,5,12,0:0:0:0:
282,212,102718,6,0,P|149:194|88:187,1,170.000003242493,6|0,0:0|0:0,0:0:0:0:
16,317,103191,2,0,P|151:313|211:309,1,170.000003242493,8|0,0:0|0:0,0:0:0:0:
315,340,103665,1,2,0:0:0:0:
282,212,103823,2,0,P|292:141|297:120,1,85.0000016212464,8|0,0:0|0:0,0:0:0:0:
403,35,104139,5,2,0:0:0:0:
282,32,104297,1,2,0:0:0:0:
388,125,104454,2,8,P|392:167|393:209,1,85.0000016212464,8|0,0:0|0:0,0:0:0:0:
272,311,104770,1,2,0:0:0:0:
365,351,104928,1,2,0:0:0:0:
282,212,105086,1,8,0:0:0:0:
195,357,105244,6,0,P|122:381|28:310,1,170.000003242493,2|2,0:0|0:0,0:0:0:0:
37,150,105718,2,0,P|108:192|128:273,1,170.000003242493,8|0,0:0|0:0,0:0:0:0:
21,259,106191,1,2,0:0:0:0:
211,157,106349,2,0,P|265:146|302:141,1,85.0000016212464,8|0,0:0|0:0,0:0:0:0:
415,227,106665,5,2,0:0:0:0:
386,120,106823,1,2,0:0:0:0:
309,236,106981,2,0,P|269:243|248:244,1,56.2500021457673,8|0,0:0|0:0,0:0:0:0:
196,185,107297,1,2,0:0:0:0:
192,141,107375,1,2,0:0:0:0:
221,109,107454,1,2,0:0:0:0:
264,109,107533,1,2,0:0:0:0:
294,141,107612,5,8,0:0:0:0:
338,343,107770,6,0,P|408:353|482:353,1,139.999995727539,6|0,0:0|0:0,0:0:0:0:
415,227,108244,1,8,0:0:0:0:
255,295,108402,2,0,P|244:360|249:392,2,69.9999978637696,0|2|2,0:0|0:0|0:0,0:0:0:0:
294,141,108876,2,0,P|276:77|258:50,1,69.9999978637696,8|0,0:0|0:0,0:0:0:0:
126,188,109191,6,0,P|87:226|77:268,1,69.9999978637696,2|0,0:0|0:0,0:0:0:0:
294,141,109507,1,8,0:0:0:0:
187,278,109665,2,0,P|250:294|283:292,1,69.9999978637696,2|0,0:0|0:0,0:0:0:0:
364,286,109981,2,0,P|359:320|347:353,1,69.9999978637696,2|8,0:0|0:0,0:0:0:0:
409,191,110297,6,0,P|336:134|270:152,1,139.999995727539,2|2,0:0|0:0,0:0:0:0:
92,208,110770,2,0,P|79:145|68:115,1,69.9999978637696,8|0,0:0|0:0,0:0:0:0:
217,348,111086,2,0,P|230:285|241:255,1,69.9999978637696,2|2,0:0|0:0,0:0:0:0:
50,370,111402,1,8,0:0:0:0:
173,223,111560,6,0,B|199:199|244:200|244:200,1,69.9999978637696,0|2,0:0|0:0,0:0:0:0:
363,303,111876,2,0,B|337:327|292:326|292:326,1,69.9999978637696,2|8,0:0|0:0,0:0:0:0:
377,159,112191,2,0,P|362:188|328:225,1,69.9999978637696,0|2,0:0|0:0,0:0:0:0:
329,55,112507,1,8,0:0:0:0:
466,213,112665,1,8,0:0:0:0:
275,139,112823,6,0,P|198:121|114:119,1,139.999995727539,6|2,0:0|0:0,0:0:0:0:
35,234,113297,2,8,P|104:235|173:224,1,139.999995727539,8|2,0:0|0:0,0:0:0:0:
26,129,113770,1,2,0:0:0:0:
33,338,113928,1,8,0:0:0:0:
173,224,114086,6,0,P|200:299|209:378,1,139.999995727539,2|2,0:0|0:0,0:0:0:0:
351,174,114560,2,0,P|329:235|326:265,1,69.9999978637696,8|0,0:0|0:0,0:0:0:0:
316,360,114876,1,2,0:0:0:0:
421,235,115033,1,2,0:0:0:0:
422,382,115191,1,8,0:0:0:0:
478,164,115349,6,0,P|406:145|337:195,1,139.999995727539,2|2,0:0|0:0,0:0:0:0:
135,156,115823,2,0,P|203:177|262:147,1,139.999995727539,8|2,0:0|0:0,0:0:0:0:
97,241,116297,1,2,0:0:0:0:
194,85,116454,1,8,0:0:0:0:
28,191,116612,6,0,P|8:259|69:325,1,139.999995727539,2|2,0:0|0:0,0:0:0:0:
261,148,117086,1,8,0:0:0:0:
261,148,117402,1,2,0:0:0:0:
284,136,117480,1,8,0:0:0:0:
310,136,117559,1,8,0:0:0:0:
334,146,117638,1,8,0:0:0:0:
352,165,117717,1,2,0:0:0:0:
360,190,117796,1,8,0:0:0:0:
357,216,117875,1,8,0:0:0:0:
343,238,117954,1,8,0:0:0:0:
322,253,118033,5,6,0:0:0:0:
251,244,118349,1,2,0:0:0:0:
180,253,118665,1,8,0:0:0:0:
108,274,118981,5,2,0:0:0:0:
87,168,119139,1,2,0:0:0:0:
39,250,119297,1,2,0:0:0:0:
4,141,119454,1,0,0:0:0:0:
4,141,119533,1,0,0:0:0:0:
4,141,119612,5,2,0:0:0:0:
76,130,119928,1,8,0:0:0:0:
147,143,120244,1,2,0:0:0:0:
192,85,120560,5,6,0:0:0:0:
263,73,120876,1,2,0:0:0:0:
333,83,121191,1,8,0:0:0:0:
309,16,121507,5,2,0:0:0:0:
362,151,121665,1,8,0:0:0:0:
435,6,121823,2,0,P|441:81|434:148,1,139.999995727539,6|2,0:0|0:0,0:0:0:0:
413,221,122454,1,8,0:0:0:0:
368,283,122770,1,2,0:0:0:0:
327,268,122849,1,8,0:0:0:0:
296,237,122928,1,8,0:0:0:0:
283,196,123007,1,0,0:0:0:0:
290,153,123085,5,8,0:0:0:0:
378,73,125454,6,0,P|291:81|211:79,1,139.999995727539,6|2,0:0|0:0,0:0:0:0:
98,183,125928,2,0,P|168:183|238:191,1,139.999995727539,8|2,0:0|0:0,0:0:0:0:
327,254,126402,1,2,0:0:0:0:
228,378,126560,2,0,P|235:291|239:283,1,69.9999978637696,8|0,0:0|0:0,0:0:0:0:
405,193,126876,5,10,0:0:0:0:
418,220,126954,1,8,0:0:0:0:
424,248,127033,2,0,L|423:310,1,34.9999989318848,8|0,0:0|0:0,0:0:0:0:
255,99,127191,1,10,0:0:0:0:
242,126,127269,1,8,0:0:0:0:
236,155,127349,2,0,L|236:216,1,34.9999989318848,8|0,0:0|0:0,0:0:0:0:
410,73,127507,5,2,0:0:0:0:
322,164,127665,1,0,0:0:0:0:
471,139,127823,1,8,0:2:0:0:
255,99,127981,2,0,P|186:92|49:84,1,195.000000743866,6|0,0:0|0:0,0:0:0:0:
172,8,128454,1,8,0:0:0:0:
96,172,128612,2,0,P|25:178|-26:186,1,97.500000371933,0|2,0:0|0:0,0:0:0:0:
136,265,128928,1,2,0:0:0:0:
226,111,129086,1,8,0:0:0:0:
255,99,129165,1,8,0:0:0:0:
281,89,129244,6,0,P|349:83|467:154,1,195.000000743866,6|2,0:0|0:0,0:0:0:0:
334,235,129718,1,8,0:0:0:0:
478,263,129876,2,0,P|479:316|486:374,1,97.500000371933,0|2,0:0|0:0,0:0:0:0:
205,274,130191,2,0,P|204:327|197:385,1,97.500000371933,2|8,0:0|0:0,0:0:0:0:
281,89,130507,6,0,P|293:191|302:293,1,195.000000743866,6|2,0:0|0:0,0:0:0:0:
382,135,130981,1,8,0:0:0:0:
195,184,131139,2,0,P|189:104|176:49,1,97.500000371933,0|2,0:0|0:0,0:0:0:0:
268,4,131454,1,2,0:0:0:0:
94,35,131612,1,8,0:0:0:0:
65,50,131691,1,8,0:0:0:0:
39,71,131770,6,0,P|26:142|37:188,1,97.500000371933,6|0,0:0|0:0,0:0:0:0:
185,279,132086,2,0,P|198:208|187:162,1,97.500000371933,2|8,0:0|0:0,0:0:0:0:
318,68,132402,2,0,P|391:52|441:61,1,97.500000371933,0|2,0:0|0:0,0:0:0:0:
416,252,132718,2,0,P|367:252|321:237,1,97.500000371933,2|8,0:0|0:0,0:0:0:0:
507,153,133033,6,0,P|511:272|527:370,1,195.000000743866,6|2,0:0|0:0,0:0:0:0:
383,151,133507,1,8,0:0:0:0:
286,356,133665,2,0,P|287:307|282:258,1,97.500000371933,0|2,0:0|0:0,0:0:0:0:
209,110,133981,1,2,0:0:0:0:
125,264,134139,1,8,0:0:0:0:
306,143,134297,6,0,P|301:71|282:37,1,97.500000371933,6|0,0:0|0:0,0:0:0:0:
106,80,134612,2,0,P|111:152|130:186,1,97.500000371933,2|8,0:0|0:0,0:0:0:0:
282,258,134928,2,0,P|367:238|404:242,1,97.500000371933,0|2,0:0|0:0,0:0:0:0:
230,355,135244,1,2,0:0:0:0:
392,344,135402,1,8,0:0:0:0:
426,327,135481,1,8,0:0:0:0:
456,303,135560,6,0,P|474:205|463:172,1,97.500000371933,6|0,0:0|0:0,0:0:0:0:
359,50,135876,2,0,P|359:98|377:143,1,97.500000371933,2|8,0:0|0:0,0:0:0:0:
284,202,136191,1,0,0:0:0:0:
472,72,136349,1,2,0:0:0:0:
262,117,136507,1,2,0:0:0:0:
481,167,136665,1,8,0:0:0:0:
359,50,136823,6,0,P|276:11|167:45,1,195.000000743866,6|2,0:0|0:0,0:0:0:0:
109,173,137297,1,8,0:0:0:0:
69,59,137454,1,0,0:0:0:0:
262,117,137612,1,2,0:0:0:0:
109,173,137770,1,2,0:0:0:0:
204,289,137928,1,8,0:0:0:0:
235,293,138007,1,8,0:0:0:0:
263,293,138086,6,0,P|342:283|476:304,1,195.000000743866,6|2,0:0|0:0,0:0:0:0:
353,384,138560,1,8,0:0:0:0:
262,188,138718,2,0,P|315:184|371:185,1,97.500000371933,0|2,0:0|0:0,0:0:0:0:
402,46,139033,1,2,0:0:0:0:
233,69,139191,1,8,0:0:0:0:
207,87,139270,1,8,0:0:0:0:
182,106,139349,6,0,P|102:125|-13:104,1,195.000000743866,6|2,0:0|0:0,0:0:0:0:
93,26,139823,1,8,0:0:0:0:
11,217,139981,2,0,P|1:294|15:358,1,97.500000371933,0|2,0:0|0:0,0:0:0:0:
178,384,140297,2,0,P|179:335|170:287,1,97.500000371933,2|8,0:0|0:0,0:0:0:0:
313,123,140612,6,0,P|361:273|366:354,1,195.000000743866,6|2,0:0|0:0,0:0:0:0:
437,140,141086,1,8,0:0:0:0:
261,251,141244,1,0,0:0:0:0:
467,277,141402,1,2,0:0:0:0:
313,123,141560,2,0,P|227:118|175:133,1,97.500000371933,2|8,0:0|0:0,0:0:0:0:
127,315,141876,6,0,P|112:231|98:203,1,97.500000371933,6|0,0:0|0:0,0:0:0:0:
236,25,142191,2,0,P|220:71|216:119,1,97.500000371933,2|8,0:0|0:0,0:0:0:0:
297,356,142507,2,0,P|313:279|307:239,1,97.500000371933,0|2,0:0|0:0,0:0:0:0:
373,103,142823,1,2,0:0:0:0:
466,232,142981,1,8,0:0:0:0:
295,172,143139,6,0,P|226:160|92:171,1,195.000000743866,6|2,0:0|0:0,0:0:0:0:
102,352,143612,2,0,P|171:364|305:353,1,195.000000743866,8|2,0:0|0:0,0:0:0:0:
397,259,144086,1,2,0:0:0:0:
198,173,144244,2,0,P|263:168|321:177,1,97.500000371933,8|0,0:0|0:0,0:0:0:0:
111,262,144560,6,0,P|46:267|-12:258,2,97.500000371933,2|2|8,0:0|0:0|0:0,0:0:0:0:
97,58,145033,2,0,P|86:135|97:190,1,97.500000371933,0|2,0:0|0:0,0:0:0:0:
215,296,145349,1,2,0:0:0:0:
191,120,145507,1,8,0:0:0:0:
206,87,145586,1,8,0:0:0:0:
224,56,145665,6,0,P|292:40|421:55,1,195.000000743866,6|2,0:0|0:0,0:0:0:0:
472,185,146139,1,8,0:0:0:0:
509,86,146297,1,0,0:0:0:0:
274,149,146454,2,0,P|327:140|401:152,1,97.500000371933,2|2,0:0|0:0,0:0:0:0:
201,245,146770,1,8,0:0:0:0:
343,350,146928,2,0,P|338:302|311:231,1,97.500000371933,6|0,0:0|0:0,0:0:0:0:
225,375,147244,1,2,0:0:0:0:
445,370,147402,1,8,0:0:0:0:
446,321,147480,1,8,0:0:0:0:
441,272,147559,1,10,0:0:0:0:
428,225,147638,1,10,0:0:0:0:
409,181,147718,6,0,B|396:144|396:144|383:121|383:121|384:80|384:80|370:62,1,100,8|0,0:0|0:0,0:0:0:0:
235,176,148033,1,8,0:0:0:0:
199,197,148112,1,8,0:0:0:0:
158,213,148191,6,0,B|143:216|128:214|128:214|110:213|97:218|97:218|72:216|54:210|54:210|33:215|4:217|4:217|-16:220|-49:234,1,179.999994506836,6|0,0:0|0:0,0:0:0:0:
186,82,148665,2,0,B|220:76|220:76|232:75|247:77|247:77|256:68|286:79,1,89.9999972534181,8|0,0:0|0:0,0:0:0:0:
392,167,148981,2,0,B|387:151|398:203|398:203|391:219|394:235|394:235|388:247|398:257,1,89.9999972534181,2|2,0:0|0:0,0:0:0:0:
392,47,149297,1,8,0:0:0:0:
281,194,149454,6,0,B|276:234|276:234|279:253|282:269|282:269|278:286|278:286|282:304|282:304|282:324|278:337|278:337|284:374,1,179.999994506836,6|2,0:0|0:0,0:0:0:0:
169,205,149928,2,0,B|170:179|169:165|169:165|173:150|176:131|176:131|169:103|178:87,1,89.9999972534181,8|0,0:0|0:0,0:0:0:0:
0,283,150244,2,0,B|17:290|33:290|33:290|44:296|57:295|57:295|78:289|96:285|125:277,1,89.9999972534181,2|2,0:0|0:0,0:0:0:0:
47,159,150560,1,8,0:0:0:0:
203,364,150718,6,0,B|206:330|206:330|207:317|215:303|215:303|214:281|216:256|216:256|200:232|187:217|187:217|133:180,1,179.999994506836,6|2,0:0|0:0,0:0:0:0:
281,126,151191,1,8,0:0:0:0:
329,285,151349,1,0,0:0:0:0:
414,119,151507,1,2,0:0:0:0:
419,233,151665,1,2,0:0:0:0:
344,32,151823,1,8,0:0:0:0:
338,31,151981,6,0,B|301:31|301:31|291:26|273:28|273:28|235:35|235:35|214:52|188:45|188:45|148:49|147:41,1,179.999994506836,6|2,0:0|0:0,0:0:0:0:
278,145,152454,1,8,0:0:0:0:
83,140,152612,1,8,0:0:0:0:
230,292,152770,1,2,0:0:0:0:
270,308,152849,1,0,0:0:0:0:
318,298,152928,1,10,0:0:0:0:
361,283,153007,1,8,0:0:0:0:
400,285,153086,1,8,0:0:0:0:
444,291,153165,1,8,0:0:0:0:
491,300,153244,6,0,B|496:163|499:95,1,179.999994506836,6|2,0:0|0:0,0:0:0:0:
367,30,153718,2,0,P|372:121|381:152,1,89.9999972534181,8|0,0:0|0:0,0:0:0:0:
481,200,154033,1,2,0:0:0:0:
313,250,154191,1,2,0:0:0:0:
435,355,154349,1,8,0:0:0:0:
257,141,154507,6,0,P|207:201|213:311,1,179.999994506836,6|2,0:0|0:0,0:0:0:0:
141,101,154981,2,0,P|136:5|129:-20,1,89.9999972534181,8|0,0:0|0:0,0:0:0:0:
44,181,155297,1,2,0:0:0:0:
218,181,155454,1,2,0:0:0:0:
123,322,155612,1,8,0:0:0:0:
128,317,155770,6,0,P|215:300|307:319,1,179.999994506836,6|2,0:0|0:0,0:0:0:0:
439,193,156244,2,0,P|418:251|425:312,1,89.9999972534181,8|0,0:0|0:0,0:0:0:0:
348,140,156560,1,2,0:0:0:0:
510,262,156718,1,2,0:0:0:0:
323,230,156876,1,8,0:0:0:0:
497,102,157033,6,0,P|425:63|313:41,1,179.999994506836,6|2,0:0|0:0,0:0:0:0:
160,153,157507,2,0,P|234:162|283:146,1,89.9999972534181,8|0,0:0|0:0,0:0:0:0:
70,60,157823,1,2,0:0:0:0:
41,196,157981,1,2,0:0:0:0:
248,159,158139,1,8,0:0:0:0:
256,192,158218,1,8,0:0:0:0:
258,225,158297,1,2,0:0:0:0:
257,258,158376,1,2,0:0:0:0:
255,292,158454,5,12,0:0:0:0:
299,201,163191,5,2,0:0:0:0:
334,208,163269,1,2,0:0:0:0:
355,179,163348,1,2,0:0:0:0:
336,148,163427,1,2,0:0:0:0:
297,156,163507,2,0,P|246:160|205:142,1,75.0000028610231,6|0,0:0|0:0,0:0:0:0:
192,79,163744,2,0,P|156:69|119:75,1,75.0000028610231,2|0,0:0|0:0,0:0:0:0:
61,126,163981,1,2,0:0:0:0:
259,250,164139,5,8,0:0:0:0:
259,250,164770,2,0,P|310:254|351:236,1,75.0000028610231,6|0,0:0|0:0,0:0:0:0:
364,173,165007,2,0,P|399:163|436:169,1,75.0000028610231,2|0,0:0|0:0,0:0:0:0:
495,220,165244,1,2,0:0:0:0:
259,250,165402,5,8,0:0:0:0:
231,225,165480,1,2,0:0:0:0:
221,190,165559,1,2,0:0:0:0:
230,153,165639,1,2,0:0:0:0:
256,127,165717,1,8,0:0:0:0:
264,68,165796,1,10,0:0:0:0:
227,20,165876,6,0,P|71:29|65:32,1,150.000005722046,4|2,0:0|0:0,0:0:0:0:
74,185,166349,2,0,P|146:200|220:189,1,150.000005722046,8|2,0:0|0:0,0:0:0:0:
341,108,166823,1,2,0:0:0:0:
344,334,166981,2,0,P|319:263|322:238,1,75.0000028610231,8|0,0:0|0:0,0:0:0:0:
443,143,167297,5,8,0:0:0:0:
456,100,167376,1,8,0:0:0:0:
459,55,167454,2,0,L|450:7,1,37.5000014305115,8|0,0:0|0:0,0:0:0:0:
229,63,167612,1,8,0:0:0:0:
216,106,167691,1,8,0:0:0:0:
210,146,167770,2,0,L|220:214,1,37.5000014305115,8|0,0:0|0:0,0:0:0:0:
344,334,167928,5,10,0:0:0:0:
344,334,168402,5,6,0:0:0:0:
344,334,171086,6,0,B|373:317|403:310|403:310|436:260|394:211,1,162.5,0|0,0:0|0:0,0:0:0:0:
387,193,172191,6,0,P|416:130|443:98,1,80,6|0,0:0|0:0,0:0:0:0:
318,249,172507,1,2,0:0:0:0:
223,92,172665,2,0,P|190:36|169:15,1,80,8|0,0:0|0:0,0:0:0:0:
246,179,172981,1,2,0:0:0:0:
59,125,173139,1,8,0:0:0:0:
30,130,173217,1,8,0:0:0:0:
13,153,173296,1,2,0:0:0:0:
13,182,173375,1,2,0:0:0:0:
33,203,173454,6,0,P|113:264|149:351,1,195.000000743866,6|0,0:0|0:0,0:0:0:0:
246,179,173928,1,8,0:0:0:0:
272,299,174086,2,0,P|331:307|377:297,1,97.500000371933,0|2,0:0|0:0,0:0:0:0:
475,216,174402,1,2,0:0:0:0:
457,364,174560,1,8,0:0:0:0:
325,223,174718,6,0,P|330:151|341:114,1,97.500000371933,6|0,0:0|0:0,0:0:0:0:
149,190,175033,2,0,P|198:189|246:179,1,97.500000371933,2|8,0:0|0:0,0:0:0:0:
177,0,175349,2,0,P|187:47|189:96,1,97.500000371933,0|2,0:0|0:0,0:0:0:0:
38,176,175665,1,2,0:0:0:0:
96,56,175823,1,8,0:0:0:0:
245,179,175981,6,0,B|348:220|349:135|460:186,1,195.000000743866,6|2,0:0|0:0,0:0:0:0:
299,102,176454,2,0,P|235:88|187:107,1,97.500000371933,8|0,0:0|0:0,0:0:0:0:
369,27,176770,1,2,0:0:0:0:
245,179,176928,1,2,0:0:0:0:
434,176,177086,1,8,0:0:0:0:
293,257,177244,2,0,P|249:268|186:255,1,97.500000371933,6|0,0:0|0:0,0:0:0:0:
387,104,177560,2,0,P|431:93|494:106,1,97.500000371933,2|8,0:0|0:0,0:0:0:0:
245,179,177876,5,2,0:0:0:0:
305,69,178033,2,0,P|317:52|341:33,1,48.7500001859665,8|8,0:0|0:0,0:0:0:0:
315,219,178191,2,0,P|300:238|281:253,1,48.7500001859665,2|2,0:0|0:0,0:0:0:0:
109,151,178349,1,8,0:0:0:0:
88,157,178428,1,8,0:0:0:0:
71,167,178507,6,0,B|44:219|41:259|41:259|99:297|107:375,1,195.000000743866,6|2,0:0|0:0,0:0:0:0:
148,229,178981,1,8,0:0:0:0:
2,351,179139,1,0,0:0:0:0:
190,320,179297,2,0,P|263:317|319:329,1,97.500000371933,2|2,0:0|0:0,0:0:0:0:
98,335,179612,1,8,0:0:0:0:
376,370,179770,6,0,P|385:294|283:215,1,195.000000743866,6|2,0:0|0:0,0:0:0:0:
148,229,180244,1,8,0:0:0:0:
200,14,180402,2,0,P|221:57|223:106,1,97.500000371933,0|2,0:0|0:0,0:0:0:0:
53,249,180718,2,0,P|56:200|84:159,1,97.500000371933,2|8,0:0|0:0,0:0:0:0:
296,198,181033,6,0,B|398:238|398:166|501:203,1,195.000000743866,6|2,0:0|0:0,0:0:0:0:
353,119,181507,1,8,0:0:0:0:
446,283,181665,2,0,P|453:330|432:387,1,97.500000371933,0|2,0:0|0:0,0:0:0:0:
296,198,181980,1,2,0:0:0:0:
214,351,182139,5,8,0:0:0:0:
35,267,182297,2,0,P|78:289|133:287,1,97.500000371933,6|0,0:0|0:0,0:0:0:0:
170,134,182612,2,0,P|129:160|103:208,1,97.500000371933,2|8,0:0|0:0,0:0:0:0:
214,351,182928,1,0,0:0:0:0:
197,224,183086,1,2,0:0:0:0:
412,290,183244,2,0,P|364:300|317:291,1,97.500000371933,2|8,0:0|0:0,0:0:0:0:
391,12,183560,6,0,P|366:127|367:215,1,195.000000743866,6|2,0:0|0:0,0:0:0:0:
156,19,184033,2,0,P|171:135|202:217,1,195.000000743866,8|2,0:0|0:0,0:0:0:0:
41,105,184507,1,2,0:0:0:0:
91,305,184665,2,0,P|53:264|32:226,1,97.500000371933,8|0,0:0|0:0,0:0:0:0:
214,351,184981,5,2,0:0:0:0:
197,207,185139,1,2,0:0:0:0:
336,304,185297,2,0,P|398:305|444:301,1,97.500000371933,8|0,0:0|0:0,0:0:0:0:
214,351,185612,1,2,0:0:0:0:
336,185,185770,2,0,P|397:189|443:197,1,97.500000371933,2|8,0:0|0:0,0:0:0:0:
179,103,186086,6,0,P|245:90|399:85,1,195.000000743866,6|2,0:0|0:0,0:0:0:0:
217,201,186560,1,8,0:0:0:0:
250,0,186718,1,0,0:0:0:0:
66,134,186876,1,2,0:0:0:0:
299,91,187033,1,2,0:0:0:0:
137,306,187191,2,0,P|121:259|120:211,1,97.500000371933,8|0,0:0|0:0,0:0:0:0:
180,103,187507,5,2,0:0:0:0:
246,264,187665,1,8,0:0:0:0:
265,306,187743,1,8,0:0:0:0:
312,311,187822,1,8,0:0:0:0:
341,275,187901,1,2,0:0:0:0:
325,231,187980,5,8,0:0:0:0:
121,212,188139,1,2,0:0:0:0:
328,105,188297,1,8,0:0:0:0:
374,120,188375,1,2,0:0:0:0:
412,149,188454,1,8,0:0:0:0:
439,190,188533,1,2,0:0:0:0:
451,237,188612,6,0,P|383:270|312:350,1,179.999994506836,6|0,0:0|0:0,0:0:0:0:
248,204,189086,2,0,P|200:279|184:367,1,179.999994506836,8|2,0:0|0:0,0:0:0:0:
80,198,189560,1,2,0:0:0:0:
52,358,189718,1,8,0:0:0:0:
2,135,189876,6,0,P|74:100|171:157,1,179.999994506836,6|2,0:0|0:0,0:0:0:0:
265,302,190349,2,0,B|306:212|237:217|280:128,1,179.999994506836,8|2,0:0|0:0,0:0:0:0:
174,250,190823,1,2,0:0:0:0:
371,180,190981,1,8,0:0:0:0:
161,138,191139,6,0,P|89:173|61:270,1,179.999994506836,6|2,0:0|0:0,0:0:0:0:
183,338,191612,2,0,P|184:300|169:238,1,89.9999972534181,8|0,0:0|0:0,0:0:0:0:
315,354,191928,1,2,0:0:0:0:
346,213,192086,1,2,0:0:0:0:
430,362,192244,1,8,0:0:0:0:
250,170,192402,6,0,P|308:114|415:133,1,179.999994506836,6|2,0:0|0:0,0:0:0:0:
504,236,192876,1,8,0:0:0:0:
346,213,193033,1,2,0:0:0:0:
512,106,193191,1,8,0:0:0:0:
512,98,193270,2,0,L|508:42,1,44.999998626709,8|2,0:0|0:0,0:0:0:0:
505,236,193507,1,8,0:0:0:0:
250,170,193665,6,0,B|150:156|170:208|34:170,1,179.999994506836,6|2,0:0|0:0,0:0:0:0:
215,276,194139,2,0,P|224:340|213:387,1,89.9999972534181,8|0,0:0|0:0,0:0:0:0:
251,171,194454,1,2,0:0:0:0:
333,299,194612,1,2,0:0:0:0:
127,324,194770,1,8,0:0:0:0:
327,217,194928,6,0,P|386:236|397:355,1,179.999994506836,6|2,0:0|0:0,0:0:0:0:
268,126,195402,2,0,P|354:118|456:165,1,179.999994506836,8|2,0:0|0:0,0:0:0:0:
427,34,195876,1,2,0:0:0:0:
327,217,196033,1,8,0:0:0:0:
253,27,196191,6,0,P|186:72|198:196,1,179.999994506836,6|2,0:0|0:0,0:0:0:0:
69,61,196665,2,0,P|66:147|95:252,1,179.999994506836,8|2,0:0|0:0,0:0:0:0:
212,288,197139,1,2,0:0:0:0:
111,374,197297,1,8,0:0:0:0:
171,185,197454,6,0,B|250:162|277:213|358:183,1,179.999994506836,6|2,0:0|0:0,0:0:0:0:
123,98,197928,2,0,P|213:80|333:113,1,179.999994506836,8|2,0:0|0:0,0:0:0:0:
49,180,198402,1,2,0:0:0:0:
219,266,198560,2,0,P|230:329|231:370,1,75.0000028610231,8|0,0:0|0:0,0:0:0:0:
83,325,198876,5,6,0:0:0:0:
256,192,198954,12,0,206454,0:0:0:0:
