osu file format v14

[General]
AudioFilename: audio.mp3
AudioLeadIn: 0
PreviewTime: 73428
Countdown: 0
SampleSet: Soft
StackLeniency: 0.6
Mode: 0
LetterboxInBreaks: 0
WidescreenStoryboard: 1

[Editor]
Bookmarks: 6876,16981,27086,37033,47139,57244,67507,77454,87560,97665,107770,118033,127981,138086,148191,158454,172191,173454,178507,188612,198876,206454
DistanceSpacing: 1.1
BeatDivisor: 4
GridSize: 4
TimelineZoom: 1

[Metadata]
Title:Logic Agent
TitleUnicode:ロジックエージェント
Artist:Reol
ArtistUnicode:れをる
Creator:Naotoshi
Version:Akitoshi's Easy
Source:
Tags:jpop pan xinely niki polkamocha Gokusaishoku Gokusaishiki Giga-P Akitoshi
BeatmapID:1246923
BeatmapSetID:578814

[Difficulty]
HPDrainRate:2
CircleSize:2.5
OverallDifficulty:2
ApproachRate:3
SliderMultiplier:0.8
SliderTickRate:1

[Events]
//Background and Video events
0,0,"girl_anime_rain_glass_light_schoolgirl_102497_1366x768.jpg",0,0
//Break Periods
2,97865,101278
2,158654,162067
2,168602,170751
//Storyboard Layer 0 (Background)
//Storyboard Layer 1 (Fail)
//Storyboard Layer 2 (Pass)
//Storyboard Layer 3 (Foreground)
//Storyboard Sound Samples

[TimingPoints]
6876,315.789473684211,4,2,1,40,1,0
20454,-100,4,2,2,40,0,0
22033,-100,4,2,2,40,0,0
27086,-100,4,2,3,60,0,0
37033,-100,4,2,3,80,0,0
57244,-100,4,2,3,80,0,0
77454,-100,4,2,3,80,0,1
97665,-100,4,2,3,80,0,0
125454,-100,4,2,3,80,0,0
127981,-100,4,2,3,80,0,1
148191,-100,4,2,3,80,0,0
168402,-100,4,2,3,80,0,0
172191,-100,4,2,3,80,0,1
188612,-100,4,2,3,80,0,0
199028,-66.6666666666667,4,2,3,80,0,0
199492,-66.6666666666667,4,2,3,75,0,0
200124,-66.6666666666667,4,2,3,70,0,0
200755,-66.6666666666667,4,2,3,65,0,0
201387,-66.6666666666667,4,2,3,50,0,0
202033,-66.6666666666667,4,2,3,35,0,0
202981,-66.6666666666667,4,2,3,20,0,0
204244,-66.6666666666667,4,2,3,10,0,0
206454,-66.6666666666667,4,2,3,5,0,0

[Colours]
Combo1 : 253,159,2
Combo2 : 192,192,192
Combo3 : 227,210,166

[HitObjects]
53,231,6876,6,0,B|158:237|158:237|227:215,1,160,4|2,0:0|0:0,0:0:0:0:
287,177,7823,1,8,0:0:0:0:
364,135,8139,2,0,P|424:143|467:240,1,160,4|2,0:0|0:0,0:0:0:0:
436,305,9086,1,8,0:0:0:0:
372,365,9402,6,0,P|294:357|202:359,1,160,4|2,0:0|0:0,0:0:0:0:
124,362,10349,1,8,0:0:0:0:
38,339,10665,2,0,B|35:287|35:287|50:247|50:247|46:179,1,160,4|2,0:0|0:0,0:0:0:0:
40,94,11612,1,8,0:0:0:0:
89,21,11928,6,0,P|148:52|253:45,1,160,4|2,0:0|0:0,0:0:0:0:
323,23,12876,1,8,0:0:0:0:
374,94,13191,2,0,L|373:262,1,160,4|2,0:0|0:0,0:0:0:0:
350,339,14139,1,8,0:0:0:0:
267,368,14454,6,0,P|197:368|163:213,2,240,4|8|12,0:0|0:0|0:0,0:0:0:0:
398,238,16981,6,0,L|395:145,1,80,4|0,0:0|0:0,0:0:0:0:
379,71,17612,2,0,P|330:57|252:89,1,120,0|0,0:0|0:0,0:0:0:0:
207,143,18402,1,0,0:0:0:0:
148,208,18718,2,0,P|103:217|58:207,1,80,0|0,0:0|0:0,0:0:0:0:
3,97,19507,6,0,L|7:18,2,80,0|0|0,0:0|0:0|0:0,0:0:0:0:
86,124,20454,1,0,0:0:0:0:
86,124,22033,6,0,P|116:109|172:110,1,80,0|0,0:0|0:0,0:0:0:0:
234,156,22665,2,0,L|356:146,1,120,0|0,0:0|0:0,0:0:0:0:
441,137,23454,1,0,0:0:0:0:
486,212,23770,2,0,P|497:252|490:301,1,80,0|0,0:0|0:0,0:0:0:0:
369,336,24560,6,0,L|285:345,2,80,0|0|0,0:0|0:0|0:0,0:0:0:0:
409,258,25507,1,0,0:0:0:0:
409,258,27086,6,0,L|396:92,1,160,6|0,0:0|0:0,0:0:0:0:
328,42,28033,1,8,0:0:0:0:
244,70,28349,2,0,B|193:91|193:91|84:86,1,160,2|0,0:0|0:0,0:0:0:0:
14,135,29297,1,8,0:0:0:0:
47,215,29612,6,0,L|40:304,2,80,2|8|0,0:0|0:0|0:0,0:0:0:0:
127,179,30560,1,8,0:0:0:0:
198,230,30876,2,0,L|294:220,1,80,2|8,0:0|0:0,0:0:0:0:
339,159,31507,2,0,L|435:149,1,80,2|8,0:0|0:0,0:0:0:0:
481,88,32139,6,0,P|507:158|458:230,1,160,6|0,0:0|0:0,0:0:0:0:
388,268,33086,1,8,0:0:0:0:
304,240,33402,2,0,P|227:244|143:250,1,160,2|0,0:0|0:0,0:0:0:0:
58,268,34349,1,8,0:0:0:0:
9,194,34665,6,0,P|14:141|14:110,1,80,2|8,0:0|0:0,0:0:0:0:
83,60,35297,2,0,P|136:65|167:65,1,80,2|8,0:0|0:0,0:0:0:0:
246,37,35928,1,2,0:0:0:0:
246,37,37033,6,0,L|258:172,1,120,6|8,0:0|0:0,0:0:0:0:
262,244,37823,2,0,P|328:254|392:227,2,120,2|6|8,0:0|0:0|0:0,0:0:0:0:
184,201,39086,1,2,0:0:0:0:
267,98,39560,6,0,L|391:101,1,120,6|8,0:0|0:0,0:0:0:0:
466,137,40349,2,0,P|472:85|421:21,2,120,2|6|8,0:0|0:0|0:0,0:0:0:0:
415,208,41612,1,2,0:0:0:0:
289,248,42086,6,0,B|248:237|248:237|159:249,1,120,6|8,0:0|0:0,0:0:0:0:
83,259,42876,2,0,L|74:130,2,120,2|6|8,0:0|0:0|0:0,0:0:0:0:
136,328,44139,1,2,0:0:0:0:
267,341,44612,6,0,B|308:328|344:339|344:339|393:329,1,120,6|8,0:0|0:0,0:0:0:0:
452,273,45402,2,0,P|462:213|426:154,2,120,2|6|8,0:0|0:0|0:0,0:0:0:0:
375,228,46665,1,2,0:0:0:0:
255,171,47139,6,0,B|213:185|213:185|124:182,1,120,12|8,0:0|0:0,0:0:0:0:
49,182,47928,2,0,P|38:223|51:269,1,80,2|8,0:0|0:0,0:0:0:0:
102,326,48560,2,0,P|143:337|189:324,1,80,2|8,0:0|0:0,0:0:0:0:
248,275,49191,1,2,0:0:0:0:
315,161,49665,6,0,L|440:164,1,120,2|8,0:0|0:0,0:0:0:0:
497,226,50454,2,0,P|500:274|491:310,1,80,2|8,0:0|0:0,0:0:0:0:
429,366,51086,2,0,L|332:363,1,80,2|8,0:0|0:0,0:0:0:0:
261,354,51718,1,2,0:0:0:0:
183,247,52191,6,0,B|171:209|171:209|179:114,1,120,6|8,0:0|0:0,0:0:0:0:
178,40,52981,2,0,P|136:30|98:34,1,80,2|8,0:0|0:0,0:0:0:0:
47,104,53612,2,0,L|39:195,2,80,2|8|2,0:0|0:0|0:0,0:0:0:0:
177,129,54718,6,0,P|236:145|301:109,1,120,2|8,0:0|0:0,0:0:0:0:
359,70,55507,2,0,P|374:103|370:154,1,80,2|8,0:0|0:0,0:0:0:0:
340,228,56139,2,0,L|355:312,2,80,2|8|2,0:0|0:0|0:0,0:0:0:0:
236,145,57244,6,0,P|179:151|107:155,1,120,6|8,0:0|0:0,0:0:0:0:
28,153,58033,2,0,P|22:96|18:24,2,120,2|2|8,0:0|0:0|0:0,0:0:0:0:
71,230,59297,1,2,0:0:0:0:
192,281,59770,6,0,B|247:259|247:259|309:266,1,120,2|8,0:0|0:0,0:0:0:0:
395,274,60560,2,0,P|401:224|418:149,2,120,2|2|8,0:0|0:0|0:0,0:0:0:0:
406,361,61823,1,2,0:0:0:0:
275,339,62297,6,0,P|225:345|150:362,1,120,6|8,0:0|0:0,0:0:0:0:
79,318,63086,1,2,0:0:0:0:
16,256,63402,2,0,L|9:164,2,80,8|0|8,0:0|0:0|0:0,0:0:0:0:
101,232,64349,1,2,0:0:0:0:
227,194,64823,6,0,P|282:212|355:195,1,120,2|8,0:0|0:0,0:0:0:0:
418,157,65612,2,0,L|412:67,1,80,2|8,0:0|0:0,0:0:0:0:
334,35,66244,2,0,B|286:33|286:33|224:48|224:48|160:42,1,160,2|10,0:0|0:0,0:0:0:0:
89,26,67191,1,10,0:0:0:0:
31,92,67507,6,0,P|7:167|30:253,1,160,6|8,0:0|0:0,0:0:0:0:
171,341,68770,2,0,L|336:331,1,160,2|8,0:0|0:0,0:0:0:0:
418,320,69718,1,2,0:0:0:0:
480,258,70033,6,0,B|498:199|498:199|479:99,1,160,6|8,0:0|0:0,0:0:0:0:
320,27,71297,2,0,B|302:86|302:86|321:186,1,160,6|8,0:0|0:0,0:0:0:0:
341,268,72244,1,2,0:0:0:0:
277,328,72560,5,10,0:0:0:0:
277,328,74928,6,0,P|247:274|184:249,1,120,6|8,0:0|0:0,0:0:0:0:
107,250,75718,2,0,L|104:375,2,120,2|4|8,0:0|0:0|0:0,0:0:0:0:
147,172,76981,1,2,0:0:0:0:
277,191,77454,6,0,B|337:197|337:197|409:175,1,120,6|8,0:0|0:0,0:0:0:0:
452,112,78244,2,0,P|480:155|466:232,2,120,2|6|8,0:0|0:0|0:0,0:0:0:0:
365,93,79507,1,2,0:0:0:0:
277,191,79981,6,0,P|221:184|152:184,1,120,6|8,0:0|0:0,0:0:0:0:
76,149,80770,2,0,P|77:92|93:21,2,120,2|6|8,0:0|0:0|0:0,0:0:0:0:
84,236,82033,1,2,0:0:0:0:
198,302,82507,6,0,B|239:283|239:283|331:287,1,120,6|8,0:0|0:0,0:0:0:0:
402,289,83297,1,2,0:0:0:0:
495,196,83770,2,0,P|505:136|486:73,1,120,6|8,0:0|0:0,0:0:0:0:
424,20,84560,1,2,0:0:0:0:
309,85,85033,6,0,L|304:218,1,120,6|8,0:0|0:0,0:0:0:0:
296,292,85823,1,2,0:0:0:0:
182,359,86297,2,0,P|137:357|70:300,1,120,6|8,0:0|0:0,0:0:0:0:
45,232,87086,1,2,0:0:0:0:
148,149,87560,6,0,B|283:137,1,120,6|8,0:0|0:0,0:0:0:0:
325,71,88349,2,0,P|355:121|338:194,2,120,2|6|8,0:0|0:0|0:0,0:0:0:0:
238,53,89612,1,2,0:0:0:0:
148,149,90086,6,0,L|156:280,1,120,6|8,0:0|0:0,0:0:0:0:
159,357,90876,2,0,P|217:366|282:340,2,120,2|6|8,0:0|0:0|0:0,0:0:0:0:
81,315,92139,1,2,0:0:0:0:
151,203,92612,6,0,L|280:187,1,120,6|8,0:0|0:0,0:0:0:0:
356,168,93402,2,0,P|360:129|346:87,1,80,2|8,0:0|0:0,0:0:0:0:
280,34,94033,2,0,L|199:44,2,80,2|8|2,0:0|0:0|0:0,0:0:0:0:
412,31,95139,6,0,P|444:92|448:156,1,120,6|8,0:0|0:0,0:0:0:0:
405,218,95928,2,0,L|415:314,1,80,2|8,0:0|0:0,0:0:0:0:
343,351,96560,2,0,P|293:359|210:290,1,160,2|2,0:0|0:0,0:0:0:0:
205,163,97665,5,12,0:0:0:0:
127,312,102718,6,0,L|254:299,1,120,6|8,0:0|0:0,0:0:0:0:
421,285,103823,1,8,0:0:0:0:
475,215,104139,2,0,P|482:176|473:134,1,80,2|8,0:0|0:0,0:0:0:0:
413,73,104770,1,2,0:0:0:0:
298,139,105244,6,0,L|162:133,1,120,2|8,0:0|0:0,0:0:0:0:
97,97,106033,1,0,0:0:0:0:
2,122,106349,1,8,0:0:0:0:
6,209,106665,2,0,P|20:248|129:281,1,160,2|2,0:0|0:0,0:0:0:0:
244,228,107770,6,0,L|371:221,1,120,6|8,0:0|0:0,0:0:0:0:
444,185,108560,2,0,L|437:93,1,80,2|8,0:0|0:0,0:0:0:0:
376,42,109191,2,0,P|326:69|264:67,1,120,2|2,0:0|0:0,0:0:0:0:
184,29,109981,1,2,0:0:0:0:
110,77,110297,6,0,L|104:205,1,120,2|8,0:0|0:0,0:0:0:0:
106,284,111086,2,0,P|139:301|194:301,1,80,2|8,0:0|0:0,0:0:0:0:
250,249,111718,2,0,B|291:230|291:230|327:249|380:249,1,120,2|0,0:0|0:0,0:0:0:0:
449,264,112507,1,8,0:0:0:0:
497,189,112823,6,0,P|509:134|473:74,1,120,6|8,0:0|0:0,0:0:0:0:
422,145,113612,2,0,P|356:155|302:119,2,120,2|2|8,0:0|0:0|0:0,0:0:0:0:
376,69,114876,1,2,0:0:0:0:
245,50,115349,6,0,L|108:44,1,120,2|8,0:0|0:0,0:0:0:0:
49,89,116139,2,0,P|42:139|53:176,1,80,2|8,0:0|0:0,0:0:0:0:
95,242,116770,2,0,L|273:234,1,160,0|2,0:0|0:0,0:0:0:0:
342,225,117718,1,2,0:0:0:0:
412,173,118033,6,0,P|424:117|381:21,1,160,6|8,0:0|0:0,0:0:0:0:
219,85,119297,2,0,B|170:107|170:107|53:92,1,160,2|8,0:0|0:0,0:0:0:0:
5,158,120244,1,2,0:0:0:0:
29,242,120560,6,0,P|64:271|178:251,1,160,6|8,0:0|0:0,0:0:0:0:
267,110,121823,2,0,P|302:81|416:101,1,160,6|8,0:0|0:0,0:0:0:0:
471,156,122770,1,2,0:0:0:0:
491,241,123086,5,8,0:0:0:0:
491,241,125454,6,0,P|445:219|362:219,1,120,6|8,0:0|0:0,0:0:0:0:
288,224,126244,2,0,P|266:178|266:95,2,120,2|0|10,0:0|0:0|0:0,0:0:0:0:
338,296,127507,1,2,0:0:0:0:
208,321,127981,6,0,L|71:313,1,120,6|8,0:0|0:0,0:0:0:0:
28,249,128770,2,0,P|15:196|56:130,2,120,2|6|8,0:0|0:0|0:0,0:0:0:0:
103,204,130033,1,2,0:0:0:0:
208,125,130507,6,0,L|341:136,1,120,6|8,0:0|0:0,0:0:0:0:
415,142,131297,2,0,P|426:90|428:12,2,120,2|6|8,0:0|0:0|0:0,0:0:0:0:
369,217,132560,1,2,0:0:0:0:
265,298,133033,6,0,B|208:280|208:280|132:286,1,120,6|8,0:0|0:0,0:0:0:0:
60,296,133823,1,2,0:0:0:0:
9,174,134297,2,0,L|27:41,1,120,6|8,0:0|0:0,0:0:0:0:
105,19,135086,1,2,0:0:0:0:
215,90,135560,6,0,P|276:81|349:76,1,120,6|8,0:0|0:0,0:0:0:0:
422,81,136349,1,2,0:0:0:0:
493,192,136823,2,0,B|508:253|508:253|497:326,1,120,6|8,0:0|0:0,0:0:0:0:
431,365,137612,1,2,0:0:0:0:
316,299,138086,6,0,P|256:298|185:292,1,120,6|8,0:0|0:0,0:0:0:0:
138,226,138876,2,0,P|109:279|127:349,2,120,2|6|8,0:0|0:0|0:0,0:0:0:0:
221,199,140139,1,2,0:0:0:0:
347,162,140612,6,0,L|336:36,1,120,6|8,0:0|0:0,0:0:0:0:
250,62,141402,2,0,P|193:71|119:47,2,120,2|6|8,0:0|0:0|0:0,0:0:0:0:
336,42,142665,1,2,0:0:0:0:
456,95,143139,6,0,B|472:171|472:171|463:216,1,120,6|8,0:0|0:0,0:0:0:0:
404,277,143928,2,0,L|316:284,1,80,2|8,0:0|0:0,0:0:0:0:
262,220,144560,2,0,L|174:213,2,80,2|8|2,0:0|0:0|0:0,0:0:0:0:
258,352,145665,6,0,P|198:363|136:341,1,120,6|8,0:0|0:0,0:0:0:0:
88,276,146454,2,0,L|84:148,1,120,2|6,0:0|0:0,0:0:0:0:
130,80,147244,1,2,0:0:0:0:
214,105,147560,2,0,P|254:108|307:98,1,80,2|2,0:0|0:0,0:0:0:0:
369,58,148191,6,0,P|406:103|417:162,1,120,6|8,0:0|0:0,0:0:0:0:
405,249,148981,2,0,P|450:286|509:297,2,120,2|6|8,0:0|0:0|0:0,0:0:0:0:
334,196,150244,6,0,P|274:200|225:235,2,120,2|6|8,0:0|0:0|0:0,0:0:0:0:
405,249,151507,1,2,0:0:0:0:
325,354,151981,2,0,B|283:338|283:338|197:344,1,120,6|8,0:0|0:0,0:0:0:0:
120,352,152770,1,2,0:0:0:0:
18,267,153244,6,0,L|28:135,1,120,6|8,0:0|0:0,0:0:0:0:
65,68,154033,2,0,P|107:110|112:172,2,120,2|6|8,0:0|0:0|0:0,0:0:0:0:
27,147,155297,1,2,0:0:0:0:
103,254,155770,6,0,L|226:242,1,120,6|8,0:0|0:0,0:0:0:0:
281,177,156560,2,0,L|404:189,2,120,2|6|8,0:0|0:0|0:0,0:0:0:0:
210,124,157823,2,0,L|219:41,1,80,2|8,0:0|0:0,0:0:0:0:
300,11,158454,5,12,0:0:0:0:
39,281,163507,6,0,B|66:216|66:216|55:114,1,160,6|8,0:0|0:0,0:0:0:0:
192,16,164770,2,0,B|165:81|165:81|176:183,1,160,6|8,0:0|0:0,0:0:0:0:
217,295,165876,6,0,P|276:308|333:293,1,120,4|8,0:0|0:0,0:0:0:0:
393,229,166665,1,2,0:0:0:0:
407,142,166981,2,0,L|498:144,2,80,8|2|8,0:0|0:0|0:0,0:0:0:0:
340,84,167928,1,8,3:0:0:0:
228,154,168402,5,4,3:0:0:0:
389,348,172191,6,0,L|376:258,1,80,6|2,0:0|0:0,0:0:0:0:
315,206,172823,2,0,L|328:116,1,80,2|8,0:0|0:0,0:0:0:0:
384,60,173454,6,0,P|322:78|259:56,1,120,6|8,0:0|0:0,0:0:0:0:
187,32,174244,2,0,L|56:43,2,120,2|6|8,0:0|0:0|0:0,0:0:0:0:
270,63,175507,1,2,0:0:0:0:
356,162,175981,6,0,P|369:221|351:286,1,120,6|8,0:0|0:0,0:0:0:0:
286,332,176770,2,0,P|227:319|162:337,2,120,2|6|8,0:0|0:0|0:0,0:0:0:0:
367,366,178033,1,8,0:0:0:0:
471,285,178507,6,0,L|464:162,1,120,6|8,0:0|0:0,0:0:0:0:
396,108,179297,2,0,P|334:88|269:100,2,120,2|6|8,0:0|0:0|0:0,0:0:0:0:
464,165,180560,1,2,0:0:0:0:
383,269,181033,6,0,B|320:264|320:264|246:261,1,120,6|8,0:0|0:0,0:0:0:0:
189,212,181823,2,0,P|174:262|212:335,2,120,2|6|8,0:0|0:0|0:0,0:0:0:0:
253,151,183086,1,2,0:0:0:0:
179,41,183560,6,0,L|55:48,1,120,6|8,0:0|0:0,0:0:0:0:
9,120,184349,2,0,L|14:216,1,80,2|8,0:0|0:0,0:0:0:0:
76,262,184981,2,0,L|155:257,2,80,2|8|2,0:0|0:0|0:0,0:0:0:0:
141,147,186086,6,0,P|190:150|247:194,1,120,6|8,0:0|0:0,0:0:0:0:
281,271,186876,2,0,L|370:261,1,80,2|8,0:0|0:0,0:0:0:0:
437,220,187507,2,0,P|456:165|413:67,1,160,2|2,0:0|0:0,0:0:0:0:
291,101,188612,6,0,L|169:93,1,120,6|8,0:0|0:0,0:0:0:0:
96,140,189402,2,0,P|74:194|87:263,2,120,2|6|8,0:0|0:0|0:0,0:0:0:0:
171,93,190665,1,2,0:0:0:0:
264,185,191139,6,0,B|308:199|308:199|400:189,1,120,6|8,0:0|0:0,0:0:0:0:
466,166,191928,1,2,0:0:0:0:
418,42,192402,2,0,P|360:25|293:32,1,120,6|2,0:0|0:0,0:0:0:0:
218,59,193191,1,8,0:0:0:0:
178,185,193665,6,0,L|186:307,1,120,6|8,0:0|0:0,0:0:0:0:
118,361,194454,2,0,P|71:370|4:343,2,120,2|6|8,0:0|0:0|0:0,0:0:0:0:
185,304,195718,1,2,0:0:0:0:
273,205,196191,6,0,P|328:178|402:179,1,120,6|8,0:0|0:0,0:0:0:0:
474,176,196981,2,0,B|482:118|482:118|467:58,2,120,2|6|8,0:0|0:0|0:0,0:0:0:0:
430,252,198244,2,0,L|442:336,1,80,2|8,0:0|0:0,0:0:0:0:
364,375,198876,5,6,0:0:0:0:
256,192,199033,12,0,206454,0:0:0:0:
