osu file format v14

[General]
AudioFilename: audio.mp3
AudioLeadIn: 0
PreviewTime: 59201
Countdown: 0
SampleSet: Soft
StackLeniency: 0.4
Mode: 0
LetterboxInBreaks: 0
EpilepsyWarning: 1
WidescreenStoryboard: 1

[Editor]
DistanceSpacing: 1.9
BeatDivisor: 4
GridSize: 32
TimelineZoom: 1.9

[Metadata]
Title:Jitter Doll
TitleUnicode:ジッタードール
Artist:Reol
ArtistUnicode:れをる
Creator:HowRengar
Version:Extra
Source:
Tags:niki lily female utaite vocal japanese j-rock
BeatmapID:2123647
BeatmapSetID:1010993

[Difficulty]
HPDrainRate:5.2
CircleSize:4.2
OverallDifficulty:8.4
ApproachRate:9.2
SliderMultiplier:1.6
SliderTickRate:1

[Events]
//Background and Video events
0,0,"Jitter Doll.jpg",0,0
//Break Periods
//Storyboard Layer 0 (Background)
//Storyboard Layer 1 (Fail)
//Storyboard Layer 2 (Pass)
//Storyboard Layer 3 (Foreground)
//Storyboard Layer 4 (Overlay)
//Storyboard Sound Samples

[TimingPoints]
14702,333.333333333333,4,2,2,50,1,0
17202,-100,4,2,2,5,0,0
17368,-100,4,2,2,65,0,0
28035,-133.333333333333,4,2,1,55,0,0
31368,-125,4,2,1,55,0,0
37701,-125,4,2,1,55,0,0
38701,-100,4,2,1,65,0,0
40118,-100,4,2,1,5,0,0
40201,-100,4,2,1,65,0,0
44785,-100,4,2,1,5,0,0
44868,-100,4,2,1,65,0,0
45451,-100,4,2,1,5,0,0
45535,-100,4,2,1,65,0,0
47451,-100,4,2,1,5,0,0
47535,-100,4,2,1,65,0,0
49368,-166.666666666667,4,2,1,60,0,0
54035,-100,4,2,1,60,0,0
54701,-166.666666666667,4,2,1,60,0,0
55118,-166.666666666667,4,2,1,5,0,0
55201,-125,4,2,1,60,0,0
55618,-125,4,2,1,5,0,0
55701,-100,4,2,1,60,0,0
57701,-111.111111111111,4,2,1,60,0,0
58535,-90.9090909090909,4,2,1,60,0,0
58785,-90.9090909090909,4,2,1,5,0,0
58868,-90.9090909090909,4,2,1,60,0,0
59535,-303.030303030303,4,2,1,60,0,0
59785,-303.030303030303,4,2,1,5,0,0
59868,-66.6666666666667,4,2,1,85,0,1
61451,-66.6666666666667,4,2,1,5,0,1
61535,-66.6666666666667,4,2,1,85,0,1
64118,-66.6666666666667,4,2,1,5,0,1
64201,-66.6666666666667,4,2,1,85,0,1
64785,-66.6666666666667,4,2,1,5,0,1
64868,-66.6666666666667,4,2,1,85,0,1
66785,-66.6666666666667,4,2,1,5,0,1
66868,-66.6666666666667,4,2,1,85,0,1
68118,-66.6666666666667,4,2,1,5,0,1
68201,-66.6666666666667,4,2,1,85,0,1
70535,-64.5161290322581,4,2,1,85,0,1
71868,-62.5,4,2,1,85,0,1
72118,-62.5,4,2,1,5,0,1
72201,-62.5,4,2,1,85,0,1
73201,-60.6060606060606,4,2,1,85,0,1
74535,-62.5,4,2,1,85,0,1
75201,-64.5161290322581,4,2,1,85,0,1
75868,-66.6666666666667,4,2,1,85,0,1
78785,-66.6666666666667,4,2,1,5,0,1
78868,-66.6666666666667,4,2,1,85,0,1
82701,-100,4,2,1,65,0,0
82951,-100,4,2,1,5,0,0
83035,-100,4,2,1,65,0,0
88285,-100,4,2,1,5,0,0
88368,-100,4,2,1,65,0,0
90118,-100,4,2,1,5,0,0
90201,-100,4,2,1,65,0,0
90951,-100,4,2,1,5,0,0
91035,-100,4,2,1,65,0,0
104035,-125,4,2,1,60,0,0
104285,-125,4,2,1,5,0,0
104368,-125,4,2,1,60,0,0
106951,-125,4,2,1,5,0,0
107035,-125,4,2,1,60,0,0
109785,-125,4,2,1,5,0,0
109868,-111.111111111111,4,2,1,60,0,0
110285,-111.111111111111,4,2,1,5,0,0
110368,-100,4,2,1,60,0,0
113451,-100,4,2,1,5,0,0
113535,-100,4,2,1,60,0,0
114201,-303.030303030303,4,2,1,60,0,0
114451,-303.030303030303,4,2,1,5,0,0
114535,-66.6666666666667,4,2,1,85,0,1
116118,-66.6666666666667,4,2,1,5,0,1
116201,-66.6666666666667,4,2,1,85,0,1
118785,-66.6666666666667,4,2,1,5,0,1
118868,-66.6666666666667,4,2,1,85,0,1
119451,-66.6666666666667,4,2,1,5,0,1
119535,-66.6666666666667,4,2,1,85,0,1
121451,-66.6666666666667,4,2,1,5,0,1
121535,-66.6666666666667,4,2,1,85,0,1
122785,-66.6666666666667,4,2,1,5,0,1
122868,-66.6666666666667,4,2,1,85,0,1
125201,-64.5161290322581,4,2,1,85,0,1
126535,-62.5,4,2,1,85,0,1
126785,-62.5,4,2,1,5,0,1
126868,-62.5,4,2,1,85,0,1
127868,-60.6060606060606,4,2,1,85,0,1
129201,-62.5,4,2,1,85,0,1
129868,-64.5161290322581,4,2,1,85,0,1
130535,-66.6666666666667,4,2,1,85,0,1
132118,-66.6666666666667,4,2,1,5,0,1
132201,-66.6666666666667,4,2,1,85,0,1
132785,-66.6666666666667,4,2,1,5,0,1
132868,-66.6666666666667,4,2,1,85,0,1
133451,-66.6666666666667,4,2,1,5,0,1
133535,-66.6666666666667,4,2,1,85,0,1
137368,-90.9090909090909,4,2,1,70,0,0
142535,-90.9090909090909,4,2,1,5,0,0
142701,-90.9090909090909,4,2,1,70,0,0
142951,-90.9090909090909,4,2,1,5,0,0
143035,-90.9090909090909,4,2,1,70,0,0
145368,-100,4,2,1,60,0,0
145618,-100,4,2,1,5,0,0
145701,-100,4,2,1,60,0,0
148035,-181.818181818181,4,2,2,50,0,0
158451,-181.818181818181,4,2,2,5,0,0
158535,-181.818181818181,4,2,2,50,0,0
158701,-133.333333333333,4,2,1,50,0,0
161035,-133.333333333333,4,2,1,5,0,0
161118,-133.333333333333,4,2,1,50,0,0
161285,-133.333333333333,4,2,1,5,0,0
161368,-99.9999999999999,4,2,1,60,0,0
164035,-90.9090909090909,4,2,1,60,0,0
164285,-90.9090909090909,4,2,1,5,0,0
164368,-90.9090909090909,4,2,1,60,0,0
167035,-90.9090909090909,4,2,1,50,0,0
167701,-90.9090909090909,4,2,1,60,0,0
168368,-90.9090909090909,4,2,1,70,0,0
169035,-90.9090909090909,4,2,1,80,0,0
169368,-833.333333333333,4,2,3,100,0,0
170451,-833.333333333333,4,2,1,5,0,0
170535,-66.6666666666667,4,2,1,85,0,1
172118,-66.6666666666667,4,2,1,5,0,1
172201,-66.6666666666667,4,2,1,85,0,1
174785,-66.6666666666667,4,2,1,5,0,1
174868,-66.6666666666667,4,2,1,85,0,1
175451,-66.6666666666667,4,2,1,5,0,1
175535,-66.6666666666667,4,2,1,85,0,1
178118,-66.6666666666667,4,2,1,5,0,1
178201,-66.6666666666667,4,2,1,85,0,1
178785,-66.6666666666667,4,2,1,5,0,1
178868,-66.6666666666667,4,2,1,85,0,1
181201,-64.5161290322581,4,2,1,85,0,1
182535,-62.5,4,2,1,85,0,1
182785,-62.5,4,2,1,5,0,1
182868,-62.5,4,2,1,85,0,1
183868,-60.6060606060606,4,2,1,85,0,1
185201,-62.5,4,2,1,85,0,1
185868,-64.5161290322581,4,2,1,85,0,1
186535,-66.6666666666667,4,2,1,85,0,1
188118,-66.6666666666667,4,2,1,5,0,1
188201,-66.6666666666667,4,2,1,85,0,1
189451,-66.6666666666667,4,2,1,5,0,1
189535,-66.6666666666667,4,2,1,85,0,1
191868,-399.999999999997,4,2,1,70,0,0
192368,-55.5555555555556,4,2,1,90,0,1
192618,-55.5555555555556,4,2,1,5,0,1
192701,-62.5,4,2,1,90,0,1
193451,-62.5,4,2,1,5,0,1
193535,-62.5,4,2,1,90,0,1
196118,-62.5,4,2,1,5,0,1
196201,-62.5,4,2,1,90,0,1
196785,-62.5,4,2,1,5,0,1
196868,-62.5,4,2,1,90,0,1
198785,-62.5,4,2,1,5,0,1
198868,-62.5,4,2,1,90,0,1
200118,-62.5,4,2,1,5,0,1
200201,-62.5,4,2,1,90,0,1
202535,-60.6060606060606,4,2,1,90,0,1
203868,-58.8235294117647,4,2,1,90,0,1
205201,-57.1428571428571,4,2,1,90,0,1
206535,-58.8235294117647,4,2,1,90,0,1
207201,-60.6060606060606,4,2,1,90,0,1
207868,-62.5,4,2,1,90,0,1
209451,-62.5,4,2,1,5,0,1
209535,-62.5,4,2,1,90,0,1
210785,-62.5,4,2,1,5,0,1
210868,-62.5,4,2,1,90,0,1
214701,-90.9090909090909,4,2,1,80,0,0
220035,-100,4,2,1,70,0,0
220368,-125,4,2,1,60,0,0
224701,-125,4,2,1,30,0,0
224785,-125,4,2,1,35,0,0
224868,-125,4,2,1,40,0,0
224951,-125,4,2,1,45,0,0
225035,-125,4,2,1,50,0,0
225118,-125,4,2,1,54,0,0
225201,-125,4,2,1,60,0,0
225285,-125,4,2,1,65,0,0
225368,-125,4,2,1,70,0,0
226701,-125,4,2,1,50,0,0
228035,-125,4,2,1,40,0,0
229368,-125,4,2,1,30,0,0
230701,-125,4,2,1,20,0,0
232035,-125,4,2,1,10,0,0

[Colours]
Combo1 : 106,151,255
Combo2 : 251,235,170
Combo3 : 185,117,240
Combo4 : 255,192,130
Combo5 : 255,17,130

[HitObjects]
256,192,16035,12,0,17202,0:0:0:0:
190,100,17368,6,0,P|199:165|206:275,1,160,4|8,1:0|0:0,0:0:0:0:
272,332,17868,1,0,0:0:0:0:
387,262,18035,2,0,P|351:253|305:244,1,80,8|0,0:0|0:0,0:0:0:0:
230,172,18368,2,0,P|269:164|308:154,1,80,8|0,0:0|0:0,0:0:0:0:
447,106,18702,2,0,B|409:125|409:125|391:248,2,160,8|8|8,0:0|0:0|0:0,0:0:0:0:
512,28,19535,1,0,0:0:0:0:
512,28,19702,1,8,0:0:0:0:
405,16,19868,1,0,1:0:0:0:
308,154,20035,6,0,P|258:93|180:92,1,160,0|8,1:0|0:0,0:0:0:0:
102,167,20535,1,0,0:0:0:0:
203,252,20702,2,0,L|220:167,1,80,8|0,0:0|0:0,0:0:0:0:
90,288,21035,1,8,0:0:0:0:
178,365,21202,2,0,P|222:356|270:357,1,80,0|8,1:0|0:0,0:0:0:0:
317,268,21535,2,0,P|361:277|409:276,1,80,0|8,1:0|0:0,0:0:0:0:
477,209,21868,1,0,0:0:0:0:
382,103,22035,2,0,L|378:186,1,80,8|0,0:0|0:0,0:0:0:0:
476,34,22368,1,8,0:0:0:0:
378,182,22702,6,0,B|322:175|322:175|267:188|267:188|201:181,1,160,4|8,1:0|0:0,0:0:0:0:
158,261,23202,1,0,0:0:0:0:
44,165,23368,2,0,L|123:173,1,80,8|0,0:0|0:0,0:0:0:0:
208,91,23702,2,0,L|129:83,1,80,8|0,0:0|0:0,0:0:0:0:
294,17,24035,2,0,B|314:60|314:60|301:182,2,160,8|8|8,0:0|0:0|0:0,0:0:0:0:
208,91,24868,1,0,0:0:0:0:
208,91,25035,1,8,0:0:0:0:
118,48,25202,1,0,1:0:0:0:
0,193,25368,6,0,P|50:132|133:171,1,160,0|8,1:0|0:0,0:0:0:0:
166,244,25868,1,0,0:0:0:0:
249,176,26035,2,0,L|342:168,1,80,8|0,0:0|0:0,0:0:0:0:
469,256,26368,1,8,0:0:0:0:
406,354,26535,2,0,P|353:344|289:346,1,80,0|8,1:0|0:0,0:0:0:0:
250,264,26868,2,0,P|197:274|133:272,1,80,0|8,1:0|0:0,0:0:0:0:
78,357,27202,1,0,0:0:0:0:
30,263,27368,5,8,0:0:0:0:
53,177,27535,1,0,0:0:0:0:
76,91,27702,1,8,0:0:0:0:
250,264,28035,5,4,1:0:0:0:
250,264,28202,1,0,1:0:0:0:
161,76,30702,5,0,1:0:0:0:
161,76,30868,1,0,1:0:0:0:
402,186,31368,6,0,B|371:193|341:174|341:174|311:179|284:201|284:201|253:183|223:191,1,192,2|0,0:0|0:0,0:0:0:0:
402,50,32035,5,0,1:0:0:0:
402,50,32201,1,0,1:0:0:0:
426,333,33368,5,4,1:0:0:0:
426,333,33535,1,0,1:0:0:0:
241,334,34035,1,0,1:0:0:0:
229,323,34701,1,0,1:0:0:0:
218,312,35368,1,0,1:0:0:0:
309,114,36035,5,0,1:0:0:0:
309,114,36201,1,0,1:0:0:0:
89,128,36701,1,0,1:0:0:0:
0,325,37368,5,0,1:0:0:0:
0,325,37535,1,0,1:0:0:0:
139,258,37701,2,0,P|126:299|119:342,1,64,8|0,0:0|0:0,0:0:0:0:
254,237,38035,1,0,1:0:0:0:
154,129,38201,1,2,1:0:0:0:
225,323,38368,1,10,0:0:0:0:
261,329,38451,1,8,0:0:0:0:
298,318,38535,1,10,0:0:0:0:
328,297,38618,1,8,0:0:0:0:
350,256,38701,6,0,L|329:154,1,80,4|2,1:0|1:0,0:0:0:0:
324,152,38951,1,0,0:0:0:0:
324,152,39035,1,10,0:0:0:0:
438,311,39201,2,0,P|448:224|466:146,1,160,2|2,0:0|1:0,0:0:0:0:
472,127,39618,1,0,0:0:0:0:
472,127,39701,1,10,0:0:0:0:
388,9,39868,6,0,P|351:52|267:34,1,120,2|0,1:0|0:0,0:0:0:0:
268,40,40201,1,0,1:0:0:0:
124,13,40368,1,2,1:0:0:0:
121,12,40451,1,0,0:0:0:0:
118,11,40535,2,0,P|123:55|127:99,1,80,10|0,0:0|0:0,0:0:0:0:
186,170,40868,1,2,1:0:0:0:
32,101,41035,1,10,0:0:0:0:
36,272,41201,1,10,0:0:0:0:
37,275,41285,1,8,0:0:0:0:
38,278,41368,6,0,L|128:264,1,80,4|2,1:0|1:0,0:0:0:0:
266,250,41701,1,10,0:0:0:0:
341,353,41868,1,2,1:0:0:0:
344,356,41951,1,8,0:0:0:0:
347,359,42035,2,0,L|354:309,1,40,0|8,1:0|0:0,0:0:0:0:
366,214,42201,1,2,1:0:0:0:
266,250,42368,1,8,0:0:0:0:
473,314,42535,6,0,B|456:276|456:276|480:141,1,160,2|0,1:0|1:0,0:0:0:0:
406,42,43035,1,0,1:0:0:0:
404,61,43118,1,0,0:0:0:0:
401,80,43201,1,8,0:0:0:0:
296,150,43368,5,0,1:0:0:0:
298,131,43451,1,0,0:0:0:0:
300,113,43535,1,2,1:0:0:0:
175,50,43701,1,2,1:0:0:0:
194,183,43868,1,10,0:0:0:0:
192,201,43951,1,0,0:0:0:0:
189,221,44035,6,0,P|141:213|93:209,1,80,4|2,1:0|1:0,0:0:0:0:
81,207,44285,1,0,0:0:0:0:
81,207,44368,1,10,0:0:0:0:
100,339,44535,2,0,P|163:324|226:364,1,120,2|0,0:0|0:0,0:0:0:0:
232,368,44868,1,2,1:0:0:0:
349,284,45035,1,10,0:0:0:0:
356,384,45201,6,0,P|364:301|375:239,1,120,2|0,1:0|0:0,0:0:0:0:
381,243,45535,1,2,1:0:0:0:
231,243,45701,1,2,1:0:0:0:
228,246,45785,1,0,0:0:0:0:
225,249,45868,2,0,L|218:151,1,80,10|0,0:0|0:0,0:0:0:0:
196,21,46201,1,2,1:0:0:0:
314,70,46368,1,2,1:0:0:0:
59,114,46535,1,10,0:0:0:0:
56,117,46618,1,8,0:0:0:0:
53,120,46701,6,0,P|112:108|152:123,1,80,4|2,1:0|1:0,0:0:0:0:
219,169,47035,1,10,0:0:0:0:
105,320,47201,2,0,L|94:162,1,120,2|0,1:0|0:0,0:0:0:0:
98,182,47535,1,2,1:0:0:0:
200,270,47701,1,10,0:0:0:0:
306,135,47868,6,0,P|254:81|160:97,1,160,2|0,1:0|1:0,0:0:0:0:
305,245,48368,1,8,0:0:0:0:
319,237,48701,1,10,0:0:0:0:
356,222,48785,1,0,1:0:0:0:
395,219,48868,1,0,1:0:0:0:
434,227,48951,1,0,1:0:0:0:
469,246,49035,5,10,0:0:0:0:
468,256,49118,1,0,1:0:0:0:
466,266,49201,1,0,1:0:0:0:
465,276,49285,1,0,1:0:0:0:
463,286,49368,5,10,1:0:0:0:
388,325,49701,1,0,1:0:0:0:
269,319,50035,1,0,1:0:0:0:
135,384,50368,1,0,1:0:0:0:
104,325,50535,6,0,P|111:356|116:390,1,47.9999985351563,0|0,0:0|1:0,0:0:0:0:
187,323,50868,2,0,P|191:299|196:276,1,47.9999985351563,0|0,0:0|1:0,0:0:0:0:
213,189,51201,1,0,0:0:0:0:
161,123,51368,1,0,1:0:0:0:
198,43,51535,1,0,0:0:0:0:
39,25,51701,1,0,1:0:0:0:
23,8,52035,5,0,1:0:0:0:
120,53,52368,1,0,1:0:0:0:
282,29,52701,1,0,1:0:0:0:
337,141,53035,1,0,1:0:0:0:
407,145,53201,6,0,P|374:150|343:157,1,47.9999985351563,0|0,0:0|1:0,0:0:0:0:
425,249,53535,2,0,P|448:253|472:256,1,47.9999985351563,0|8,0:0|0:0,0:0:0:0:
406,365,53868,1,0,0:0:0:0:
288,343,54035,5,10,0:0:0:0:
265,339,54118,1,0,1:0:0:0:
243,343,54201,1,0,1:0:0:0:
223,354,54285,1,0,1:0:0:0:
205,374,54368,1,10,1:0:0:0:
176,381,54451,1,0,1:0:0:0:
147,374,54535,1,0,1:0:0:0:
125,354,54618,1,0,1:0:0:0:
116,325,54701,6,0,P|133:267|120:203,1,119.999996337891,6|0,1:0|0:0,0:0:0:0:
104,222,55201,2,0,B|179:250|177:177|265:211,1,160,2|0,1:0|0:0,0:0:0:0:
276,231,55701,2,0,P|223:195|240:111,1,160,2|8,1:0|0:0,0:0:0:0:
259,100,56368,1,2,1:0:0:0:
122,17,56701,1,10,0:0:0:0:
119,35,56785,1,8,0:0:0:0:
117,54,56868,1,8,0:0:0:0:
18,181,57035,2,0,P|23:136|27:79,1,80,2|0,1:0|0:0,0:0:0:0:
259,100,57368,5,2,1:0:0:0:
258,104,57451,1,0,1:0:0:0:
257,109,57535,1,0,1:0:0:0:
252,226,57701,1,8,0:0:0:0:
384,82,57868,5,0,1:0:0:0:
380,102,57951,1,0,1:0:0:0:
377,129,58035,1,2,1:0:0:0:
460,300,58201,1,0,1:0:0:0:
465,260,58285,1,8,0:0:0:0:
469,222,58368,1,8,0:0:0:0:
271,306,58535,6,0,P|223:303|171:220,1,132.00000402832,2|0,1:0|0:0,0:0:0:0:
165,217,58868,1,0,1:0:0:0:
7,362,59035,1,8,1:0:0:0:
86,238,59201,2,0,L|94:310,1,44.0000013427735,2|0,0:0|0:0,0:0:0:0:
165,217,59368,2,0,L|160:173,1,44.0000013427735,2|0,0:0|0:0,0:0:0:0:
3,199,59535,6,0,L|7:247,1,39.5999998791504,2|0,0:0|0:0,0:0:0:0:
6,271,59868,6,0,P|131:254|272:240,1,240.000009155274,6|0,1:0|1:0,0:0:0:0:
432,183,60368,2,0,P|364:172|308:158,1,120.000004577637,8|0,0:0|0:0,0:0:0:0:
167,86,60701,1,0,1:0:0:0:
261,17,60868,1,0,1:0:0:0:
360,137,61035,1,10,0:0:0:0:
485,0,61201,6,0,P|476:59|464:185,1,180.000006866455,6|0,1:0|0:0,0:0:0:0:
465,205,61535,1,0,1:0:0:0:
322,249,61701,1,10,0:0:0:0:
362,363,61868,2,0,P|359:314|346:238,1,120.000004577637,2|0,0:0|0:0,0:0:0:0:
263,165,62201,1,2,1:0:0:0:
121,202,62368,1,10,0:0:0:0:
1,84,62535,6,0,P|127:90|134:193,1,240.000009155274,6|2,1:0|1:0,0:0:0:0:
121,202,62951,1,0,0:0:0:0:
121,202,63035,1,10,0:0:0:0:
0,298,63201,1,0,0:0:0:0:
63,145,63368,1,2,1:0:0:0:
206,337,63535,2,0,P|216:274|233:195,1,120.000004577637,2|8,1:0|0:0,0:0:0:0:
434,121,63868,6,0,B|390:149|390:149|214:119,1,180.000006866455,6|0,1:0|0:0,0:0:0:0:
233,123,64201,1,2,1:0:0:0:
353,20,64368,1,10,0:0:0:0:
461,216,64535,6,0,P|467:140|490:17,1,180.000006866455,4|0,1:0|0:0,0:0:0:0:
496,12,64868,1,2,1:0:0:0:
347,141,65035,1,10,0:0:0:0:
512,319,65201,6,0,B|387:267|413:394|264:334,1,240.000009155274,6|0,1:0|1:0,0:0:0:0:
309,138,65701,2,0,P|333:193|339:268,1,120.000004577637,10|0,0:0|0:0,0:0:0:0:
202,350,66035,1,2,1:0:0:0:
154,266,66201,1,2,1:0:0:0:
0,263,66368,1,10,0:0:0:0:
0,134,66535,6,0,P|15:211|24:323,1,180.000006866455,6|0,1:0|0:0,0:0:0:0:
18,347,66868,2,0,P|77:340|157:342,1,120.000004577637,2|8,1:0|0:0,0:0:0:0:
282,190,67201,2,0,P|222:190|162:183,1,120.000004577637,2|0,0:0|1:0,0:0:0:0:
101,105,67535,1,2,1:0:0:0:
248,1,67701,1,10,0:0:0:0:
371,187,67868,6,0,P|344:128|231:119,1,180.000006866455,6|0,1:0|0:0,0:0:0:0:
220,123,68201,1,0,1:0:0:0:
51,31,68368,1,8,0:0:0:0:
0,149,68535,2,0,P|15:82|44:15,1,120.000004577637,2|0,0:0|1:0,0:0:0:0:
253,237,68868,2,0,P|238:170|209:103,1,120.000004577637,2|8,1:0|0:0,0:0:0:0:
47,353,69201,6,0,B|137:343|137:343|187:369|187:369|294:352,1,240.000009155274,6|0,1:0|1:0,0:0:0:0:
408,233,69701,1,10,0:0:0:0:
266,183,69868,1,0,1:0:0:0:
263,180,69951,1,0,0:0:0:0:
260,177,70035,2,0,L|251:245,1,60.0000022888184,2|0,0:0|0:0,0:0:0:0:
400,292,70201,2,0,L|407:232,1,60.0000022888184,10|8,0:0|0:0,0:0:0:0:
363,81,70368,2,0,L|422:88,1,60.0000022888184,10|0,1:0|0:0,0:0:0:0:
509,134,70535,6,0,L|261:102,1,248.00000189209,6|0,1:0|1:0,0:0:0:0:
33,205,71035,2,0,L|166:224,1,124.000000946045,10|0,0:0|0:0,0:0:0:0:
361,276,71368,1,2,1:0:0:0:
260,177,71535,1,2,1:0:0:0:
304,6,71701,1,10,0:0:0:0:
133,61,71868,6,0,P|226:71|251:189,1,192,6|0,1:0|0:0,0:0:0:0:
260,177,72201,1,0,1:0:0:0:
150,294,72368,2,0,L|166:161,1,128,10|0,0:0|0:0,0:0:0:0:
168,144,72618,1,0,0:0:0:0:
168,144,72701,1,2,1:0:0:0:
34,234,72868,1,2,1:0:0:0:
271,368,73035,2,0,L|275:305,1,64,10|0,0:0|0:0,0:0:0:0:
373,120,73201,6,0,B|360:302|360:302|378:266|411:236,1,264.0000025177,6|0,1:0|1:0,0:0:0:0:
440,53,73701,2,0,P|367:29|309:47,1,132.00000125885,10|0,0:0|0:0,0:0:0:0:
196,268,74035,2,0,P|186:195|160:115,1,132.00000125885,2|0,1:0|1:0,0:0:0:0:
27,26,74368,1,10,0:0:0:0:
293,7,74535,6,0,B|286:80|286:80|312:154|312:154|307:258,1,256,6|2,1:0|1:0,0:0:0:0:
89,215,75035,1,8,0:0:0:0:
169,374,75201,6,0,P|173:286|298:313,1,248.00000189209,4|2,1:0|1:0,0:0:0:0:
451,341,75701,1,10,0:0:0:0:
512,175,75868,6,0,B|393:124|398:238|270:182,1,240.000009155274,6|0,1:0|1:0,0:0:0:0:
142,66,76368,2,0,P|155:133|159:197,1,120.000004577637,10|0,0:0|0:0,0:0:0:0:
324,8,76701,1,2,1:0:0:0:
334,118,76868,2,0,P|338:58|350:0,1,120.000004577637,2|8,1:0|0:0,0:0:0:0:
493,284,77201,6,0,P|474:226|356:232,1,180.000006866455,6|0,1:0|0:0,0:0:0:0:
343,245,77535,1,2,1:0:0:0:
246,133,77701,1,10,0:0:0:0:
101,302,77868,2,0,P|160:310|220:321,1,120.000004577637,2|0,0:0|1:0,0:0:0:0:
0,185,78201,1,2,1:0:0:0:
110,77,78368,1,10,0:0:0:0:
62,9,78535,6,0,P|73:84|81:188,1,180.000006866455,6|0,1:0|0:0,0:0:0:0:
81,216,78868,1,0,1:0:0:0:
296,186,79035,2,0,P|230:163|157:158,1,120.000004577637,10|0,0:0|0:0,0:0:0:0:
407,60,79368,1,2,1:0:0:0:
281,77,79535,2,0,P|340:69|396:48,1,120.000004577637,2|8,1:0|0:0,0:0:0:0:
166,0,79868,6,0,L|190:260,1,240.000009155274,6|0,1:0|1:0,0:0:0:0:
302,384,80368,2,0,P|311:323|321:260,1,120.000004577637,8|0,0:0|0:0,0:0:0:0:
310,160,80701,1,0,1:0:0:0:
188,238,80868,1,0,1:0:0:0:
56,113,81035,2,0,P|65:172|74:231,1,120.000004577637,8|0,0:0|1:0,0:0:0:0:
194,382,81368,5,8,0:0:0:0:
188,238,81535,1,0,1:0:0:0:
310,160,81701,5,8,0:0:0:0:
316,305,81868,1,0,1:0:0:0:
438,227,82035,5,8,0:0:0:0:
182,94,82201,1,8,1:0:0:0:
455,18,82368,5,10,0:0:0:0:
452,48,82451,1,8,0:0:0:0:
449,79,82535,1,8,0:0:0:0:
446,110,82618,1,8,0:0:0:0:
443,142,82701,6,0,P|365:131|295:123,1,120,6|0,1:0|0:0,0:0:0:0:
297,125,83035,1,10,0:0:0:0:
169,14,83201,2,0,P|177:59|182:102,1,80,2|0,1:0|1:0,0:0:0:0:
218,213,83535,1,2,1:0:0:0:
129,276,83701,1,10,0:0:0:0:
314,334,83868,6,0,P|272:327|217:323,1,80,2|0,1:0|0:0,0:0:0:0:
338,227,84201,2,0,P|395:220|424:212,1,80,2|8,1:0|0:0,0:0:0:0:
129,276,84535,2,0,P|90:231|94:130,1,160,2|0,0:0|1:0,0:0:0:0:
186,53,85035,1,10,0:0:0:0:
143,364,85285,1,8,0:0:0:0:
140,367,85368,6,0,L|247:352,1,80,2|0,1:0|0:0,0:0:0:0:
32,284,85701,1,10,0:0:0:0:
141,197,85868,2,0,P|132:240|128:283,1,80,2|0,1:0|0:0,0:0:0:0:
236,176,86201,1,2,1:0:0:0:
120,104,86368,1,10,0:0:0:0:
257,55,86535,6,0,B|179:40|174:100|96:74,1,160,2|0,1:0|1:0,0:0:0:0:
0,0,87035,2,0,P|4:43|7:81,1,80,8|0,0:0|0:0,0:0:0:0:
32,225,87368,1,0,1:0:0:0:
144,171,87535,1,0,1:0:0:0:
211,317,87701,1,10,0:0:0:0:
240,312,87785,1,8,0:0:0:0:
270,307,87868,1,8,0:0:0:0:
299,303,87951,1,8,0:0:0:0:
329,298,88035,6,0,L|314:159,1,120,6|0,1:0|0:0,0:0:0:0:
313,154,88368,1,10,0:0:0:0:
242,40,88535,2,0,P|236:86|231:136,1,80,2|0,0:0|1:0,0:0:0:0:
217,229,88868,1,2,1:0:0:0:
77,224,89035,1,8,0:0:0:0:
132,360,89201,6,0,P|176:349|248:337,1,80,2|0,1:0|0:0,0:0:0:0:
407,315,89535,2,0,P|367:307|328:297,1,80,2|8,1:0|0:0,0:0:0:0:
183,142,89868,2,0,P|240:138|302:195,1,120,2|0,0:0|0:0,0:0:0:0:
302,203,90201,1,0,1:0:0:0:
362,82,90368,1,10,0:0:0:0:
118,201,90535,1,0,0:0:0:0:
114,201,90618,1,8,0:0:0:0:
111,202,90701,6,0,P|92:124|112:74,1,120,2|0,1:0|0:0,0:0:0:0:
119,69,91035,1,10,0:0:0:0:
252,6,91201,1,2,0:0:0:0:
255,3,91285,1,8,0:0:0:0:
258,0,91368,2,0,P|263:38|266:82,1,80,0|2,1:0|1:0,0:0:0:0:
269,220,91701,1,10,0:0:0:0:
408,272,91868,6,0,P|366:211|280:230,1,160,2|0,1:0|1:0,0:0:0:0:
231,365,92368,2,0,P|194:360|141:355,1,80,8|0,0:0|0:0,0:0:0:0:
33,374,92701,1,0,1:0:0:0:
81,275,92868,1,2,1:0:0:0:
0,156,93035,1,2,0:0:0:0:
205,169,93201,1,10,0:0:0:0:
204,172,93285,1,0,0:0:0:0:
203,175,93368,6,0,P|158:171|114:168,1,80,4|2,1:0|1:0,0:0:0:0:
99,168,93618,1,0,0:0:0:0:
99,168,93701,1,10,0:0:0:0:
217,268,93868,1,2,0:0:0:0:
218,271,93951,1,0,0:0:0:0:
219,274,94035,5,0,1:0:0:0:
309,209,94201,1,2,1:0:0:0:
412,318,94368,1,10,0:0:0:0:
415,319,94451,1,0,0:0:0:0:
418,320,94535,1,2,1:0:0:0:
453,175,94701,5,0,0:0:0:0:
452,178,94785,1,0,0:0:0:0:
452,181,94868,1,0,1:0:0:0:
343,66,95035,1,10,0:0:0:0:
509,34,95201,2,0,B|428:66|426:5|349:41,1,160,2|2,0:0|1:0,0:0:0:0:
343,66,95618,1,0,0:0:0:0:
343,66,95701,1,10,0:0:0:0:
202,9,95868,1,2,0:0:0:0:
199,12,95951,1,8,0:0:0:0:
196,15,96035,6,0,P|202:61|207:122,1,80,0|2,1:0|1:0,0:0:0:0:
210,122,96285,1,0,0:0:0:0:
210,122,96368,1,10,0:0:0:0:
96,140,96535,2,0,L|90:81,2,40,2|8|0,0:0|0:0|1:0,0:0:0:0:
42,273,96868,1,2,1:0:0:0:
181,355,97035,1,2,0:0:0:0:
224,221,97201,6,0,P|213:289|201:390,1,160,10|0,0:0|1:0,0:0:0:0:
331,248,97701,1,8,0:0:0:0:
332,228,97785,1,0,0:0:0:0:
334,208,97868,1,0,0:0:0:0:
474,130,98035,1,0,1:0:0:0:
472,150,98118,1,0,0:0:0:0:
471,170,98201,1,2,1:0:0:0:
318,55,98368,1,10,0:0:0:0:
411,0,98535,2,0,P|429:13|455:22,1,40,10|8,0:0|0:0,0:0:0:0:
512,48,98701,6,0,P|473:42|416:55,1,80,4|2,1:0|0:0,0:0:0:0:
410,65,98951,1,0,0:0:0:0:
410,65,99035,1,2,1:0:0:0:
237,125,99201,1,8,0:0:0:0:
234,128,99285,1,0,0:0:0:0:
231,131,99368,6,0,P|227:88|222:39,1,80,0|2,1:0|1:0,0:0:0:0:
218,19,99618,1,0,0:0:0:0:
218,19,99701,1,10,0:0:0:0:
82,103,99868,1,2,1:0:0:0:
79,104,99951,1,0,0:0:0:0:
76,105,100035,5,0,0:0:0:0:
123,242,100201,1,2,1:0:0:0:
0,298,100368,1,10,0:0:0:0:
186,380,100535,2,0,P|142:370|73:362,1,80,2|0,0:0|1:0,0:0:0:0:
313,283,100868,1,2,1:0:0:0:
228,178,101035,1,10,0:0:0:0:
123,242,101201,1,2,0:0:0:0:
120,239,101285,1,8,0:0:0:0:
117,236,101368,6,0,L|138:126,1,80,0|2,1:0|0:0,0:0:0:0:
140,132,101618,1,0,0:0:0:0:
140,132,101701,1,10,0:0:0:0:
236,37,101868,2,0,L|230:91,2,40,2|0|0,0:0|0:0|1:0,0:0:0:0:
314,138,102201,1,2,1:0:0:0:
460,63,102368,1,2,0:0:0:0:
512,226,102535,6,0,P|485:158|394:190,1,160,10|0,0:0|0:0,0:0:0:0:
328,243,103035,1,8,0:0:0:0:
314,138,103201,1,2,0:0:0:0:
237,307,103368,2,0,L|152:290,1,80,2|0,1:0|1:0,0:0:0:0:
0,189,103701,2,0,L|46:199,3,40,10|0|8|0,0:0|0:0|0:0|0:0,0:0:0:0:
67,203,104035,6,0,L|50:325,1,96,2|0,1:0|0:0,0:0:0:0:
50,328,104368,1,10,0:0:0:0:
238,208,104535,1,2,1:0:0:0:
307,263,104868,1,2,1:0:0:0:
371,205,105201,1,2,1:0:0:0:
439,260,105535,5,2,1:0:0:0:
442,263,105618,1,0,1:0:0:0:
445,266,105701,1,8,0:0:0:0:
490,190,105868,1,2,0:0:0:0:
414,69,106035,2,0,P|418:105|424:135,1,64,2|0,1:0|1:0,0:0:0:0:
315,65,106368,2,0,P|320:33|324:1,1,64,10|0,0:0|1:0,0:0:0:0:
206,159,106701,6,0,L|326:177,1,96,2|0,1:0|0:0,0:0:0:0:
329,179,107035,1,10,0:0:0:0:
143,226,107201,1,2,1:0:0:0:
101,146,107535,1,2,1:0:0:0:
163,83,107868,1,2,1:0:0:0:
118,7,108201,5,2,1:0:0:0:
115,4,108285,1,0,1:0:0:0:
112,1,108368,1,8,0:0:0:0:
304,0,108535,1,0,1:0:0:0:
342,137,108701,2,0,L|410:126,1,64,10|8,0:0|0:0,0:0:0:0:
411,319,109035,1,10,0:0:0:0:
389,299,109118,1,8,0:0:0:0:
377,273,109201,1,8,0:0:0:0:
376,244,109285,1,8,0:0:0:0:
386,218,109368,6,0,B|311:249|305:185|224:223,1,160,2|0,1:0|0:0,0:0:0:0:
205,238,109868,2,0,P|248:189|154:171,1,179.999994506836,2|8,1:0|0:0,0:0:0:0:
152,167,110368,2,0,P|133:96|175:2,1,160,2|0,1:0|0:0,0:0:0:0:
187,0,111035,1,2,1:0:0:0:
345,139,111368,1,2,1:0:0:0:
496,65,111701,1,2,1:0:0:0:
485,226,112035,5,2,1:0:0:0:
486,223,112118,1,0,1:0:0:0:
487,220,112201,1,0,1:0:0:0:
345,139,112368,1,8,0:0:0:0:
231,248,112535,1,0,1:0:0:0:
173,68,112701,5,2,1:0:0:0:
167,87,112785,1,0,1:0:0:0:
161,106,112868,1,0,1:0:0:0:
23,230,113035,1,8,0:0:0:0:
288,185,113201,6,0,P|316:232|305:296,1,120,2|0,1:0|0:0,0:0:0:0:
293,325,113535,1,0,1:0:0:0:
487,220,113701,1,8,0:0:0:0:
231,248,113868,1,2,0:0:0:0:
161,106,114035,2,0,L|144:167,1,40,2|0,0:0|0:0,0:0:0:0:
33,268,114201,6,0,L|23:230,1,39.5999998791504,2|0,0:0|0:0,0:0:0:0:
0,203,114535,6,0,B|85:198|85:198|147:234|147:234|243:224,1,240.000009155274,6|0,1:0|1:0,0:0:0:0:
405,82,115035,2,0,L|249:99,1,120.000004577637,8|0,0:0|0:0,0:0:0:0:
161,106,115368,1,0,1:0:0:0:
97,0,115535,1,0,1:0:0:0:
305,2,115701,1,10,0:0:0:0:
361,142,115868,6,0,P|447:125|502:200,1,180.000006866455,6|0,1:0|0:0,0:0:0:0:
501,222,116201,1,0,1:0:0:0:
309,223,116368,1,10,0:0:0:0:
402,328,116535,2,0,P|405:279|418:203,1,120.000004577637,2|0,0:0|0:0,0:0:0:0:
499,61,116868,1,2,1:0:0:0:
387,122,117035,1,10,0:0:0:0:
212,18,117201,6,0,B|201:96|201:96|226:162|226:162|214:270,1,240.000009155274,6|2,1:0|1:0,0:0:0:0:
211,281,117618,1,0,0:0:0:0:
211,281,117701,1,10,0:0:0:0:
302,116,117868,1,0,0:0:0:0:
72,206,118035,1,2,1:0:0:0:
66,75,118201,2,0,P|80:131|90:193,1,120.000004577637,2|8,1:0|0:0,0:0:0:0:
11,335,118535,6,0,P|122:312|161:381,1,180.000006866455,6|0,1:0|0:0,0:0:0:0:
168,384,118868,1,2,1:0:0:0:
257,199,119035,1,10,0:0:0:0:
403,371,119201,6,0,L|432:172,1,180.000006866455,4|0,1:0|0:0,0:0:0:0:
435,161,119535,1,2,1:0:0:0:
322,0,119701,1,10,0:0:0:0:
512,131,119868,6,0,B|396:174|406:60|264:116,1,240.000009155274,6|0,1:0|1:0,0:0:0:0:
113,0,120368,2,0,P|127:65|133:130,1,120.000004577637,10|0,0:0|0:0,0:0:0:0:
142,246,120701,1,2,1:0:0:0:
48,191,120868,1,2,1:0:0:0:
285,106,121035,1,10,0:0:0:0:
251,308,121201,6,0,P|258:218|274:129,1,180.000006866455,6|0,1:0|0:0,0:0:0:0:
285,106,121535,1,2,1:0:0:0:
377,205,121701,1,10,0:0:0:0:
505,47,121868,2,0,P|497:103|490:166,1,120.000004577637,2|0,0:0|1:0,0:0:0:0:
469,299,122201,1,2,1:0:0:0:
397,112,122368,1,10,0:0:0:0:
344,325,122535,6,0,B|310:297|310:297|147:276,1,180.000006866455,6|0,1:0|0:0,0:0:0:0:
141,273,122868,1,2,1:0:0:0:
0,139,123035,1,8,0:0:0:0:
111,34,123201,2,0,P|120:98|122:165,1,120.000004577637,2|0,0:0|1:0,0:0:0:0:
255,259,123535,2,0,P|257:199|266:139,1,120.000004577637,2|8,1:0|0:0,0:0:0:0:
464,41,123868,6,0,B|418:73|364:47|364:47|322:60|322:60|277:34|226:54,1,240.000009155274,6|0,1:0|1:0,0:0:0:0:
65,229,124368,1,10,0:0:0:0:
163,317,124535,1,2,1:0:0:0:
166,320,124618,1,0,1:0:0:0:
169,323,124701,2,0,L|178:255,1,60.0000022888184,10|0,0:0|0:0,0:0:0:0:
266,139,124868,2,0,L|259:199,1,60.0000022888184,10|8,1:0|0:0,0:0:0:0:
325,345,125035,2,0,L|332:285,1,60.0000022888184,10|8,0:0|0:0,0:0:0:0:
459,130,125201,6,0,B|449:213|449:213|489:276|489:276|477:383,1,248.00000189209,6|0,1:0|1:0,0:0:0:0:
362,137,125701,1,10,0:0:0:0:
331,285,125868,1,2,0:0:0:0:
244,50,126035,1,2,1:0:0:0:
378,0,126201,1,2,1:0:0:0:
226,184,126368,1,10,0:0:0:0:
120,34,126535,6,0,P|202:55|215:185,1,192,6|0,1:0|0:0,0:0:0:0:
226,184,126868,1,0,1:0:0:0:
0,135,127035,2,0,P|75:124|135:121,1,128,10|0,0:0|0:0,0:0:0:0:
152,120,127285,1,0,0:0:0:0:
152,120,127368,1,2,1:0:0:0:
120,34,127535,1,0,1:0:0:0:
196,295,127701,2,0,P|233:298|280:281,1,64,10|0,0:0|0:0,0:0:0:0:
432,169,127868,6,0,B|293:162|331:286|196:268,1,264.0000025177,6|0,1:0|1:0,0:0:0:0:
207,52,128368,2,0,P|239:118|208:188,1,132.00000125885,10|0,0:0|0:0,0:0:0:0:
448,288,128701,2,0,P|416:222|447:152,1,132.00000125885,2|0,1:0|1:0,0:0:0:0:
512,49,129035,1,10,0:0:0:0:
292,0,129201,6,0,P|311:96|330:278,1,256,6|2,1:0|1:0,0:0:0:0:
431,168,129701,1,8,0:0:0:0:
383,335,129868,6,0,B|259:380|264:260|148:317,1,248.00000189209,4|2,1:0|1:0,0:0:0:0:
0,259,130368,1,10,0:0:0:0:
38,379,130535,6,0,L|25:132,1,240.000009155274,6|0,1:0|1:0,0:0:0:0:
265,0,131035,2,0,P|240:57|237:121,1,120.000004577637,10|0,0:0|0:0,0:0:0:0:
134,183,131368,2,0,P|129:123|105:68,1,120.000004577637,2|0,1:0|1:0,0:0:0:0:
0,0,131701,1,10,0:0:0:0:
12,244,131868,6,0,B|59:219|59:219|224:207,1,180.000006866455,6|0,1:0|0:0,0:0:0:0:
214,207,132201,1,2,1:0:0:0:
319,320,132368,1,10,0:0:0:0:
370,192,132535,2,0,P|359:251|351:310,1,120.000004577637,2|0,0:0|0:0,0:0:0:0:
477,183,132868,1,2,1:0:0:0:
327,45,133035,1,10,0:0:0:0:
512,45,133201,6,0,P|435:90|320:41,1,180.000006866455,6|0,1:0|0:0,0:0:0:0:
327,45,133535,1,0,1:0:0:0:
214,143,133701,2,0,P|225:72|239:-10,1,120.000004577637,10|0,0:0|0:0,0:0:0:0:
322,199,134035,1,2,1:0:0:0:
122,252,134201,2,0,P|111:181|97:99,1,120.000004577637,2|8,1:0|0:0,0:0:0:0:
17,372,134535,6,0,L|274:322,1,240.000009155274,6|0,1:0|1:0,0:0:0:0:
439,176,135035,2,0,L|301:202,1,120.000004577637,8|0,0:0|0:0,0:0:0:0:
322,10,135368,1,0,1:0:0:0:
222,178,135535,1,0,1:0:0:0:
153,69,135701,2,0,L|290:95,1,120.000004577637,8|0,0:0|1:0,0:0:0:0:
510,112,136035,5,8,0:0:0:0:
321,198,136201,1,0,1:0:0:0:
504,338,136368,5,10,0:0:0:0:
402,114,136535,1,0,1:0:0:0:
264,282,136701,5,10,0:0:0:0:
291,294,136785,1,8,0:0:0:0:
320,298,136868,1,0,1:0:0:0:
350,293,136951,1,0,1:0:0:0:
376,279,137035,1,10,0:0:0:0:
416,259,137118,1,8,0:0:0:0:
460,265,137201,1,8,0:0:0:0:
493,294,137285,1,8,0:0:0:0:
504,338,137368,1,4,1:0:0:0:
256,192,137535,12,0,142535,0:0:0:0:
345,108,142701,6,0,P|336:172|328:248,1,132.00000402832,4|0,1:0|0:0,0:0:0:0:
329,257,143035,1,8,1:0:0:0:
207,200,143201,1,0,0:0:0:0:
228,317,143368,2,0,P|170:306|128:301,1,88.000002685547,0|0,1:0|0:0,0:0:0:0:
0,356,143701,6,0,B|-5:289|-5:289|15:233|15:233|8:152,1,176.000005371094,12|0,1:0|1:0,0:0:0:0:
104,81,144201,2,0,L|112:179,1,88.000002685547,0|8,0:0|0:0,0:0:0:0:
112,187,144701,1,0,1:0:0:0:
269,87,144868,1,8,0:0:0:0:
342,168,145035,1,0,1:0:0:0:
353,185,145368,6,0,P|401:150|473:169,1,120,4|0,1:0|0:0,0:0:0:0:
484,176,145701,1,8,1:0:0:0:
512,354,145868,1,0,0:0:0:0:
418,312,146035,2,0,L|423:218,1,80,0|0,1:0|0:0,0:0:0:0:
351,67,146368,6,0,B|347:129|347:129|320:167|320:167|315:232,1,160,12|0,1:0|1:0,0:0:0:0:
176,302,146868,2,0,L|183:211,1,80,0|8,0:0|1:0,0:0:0:0:
184,207,147368,1,8,0:0:0:0:
418,312,147535,1,8,0:0:0:0:
418,312,148035,6,0,P|415:290|411:268,1,44.0000013427735,6|0,0:0|0:0,0:0:0:0:
395,187,148368,1,2,0:0:0:0:
313,196,148535,2,0,P|318:168|323:146,1,44.0000013427735,2|8,0:0|0:0,0:0:0:0:
394,107,148868,2,0,P|388:79|384:57,1,44.0000013427735,2|0,0:0|0:0,0:0:0:0:
318,22,149201,1,2,0:0:0:0:
156,120,149535,1,2,0:0:0:0:
11,3,149868,2,0,P|17:52|19:105,1,88.000002685547,2|0,0:0|0:0,0:0:0:0:
7,169,150368,1,2,0:0:0:0:
209,278,150701,6,0,P|168:255|114:252,1,88.000002685547,2|0,0:0|0:0,0:0:0:0:
182,368,151201,2,0,P|212:363|234:362,1,44.0000013427735,2|8,0:0|0:0,0:0:0:0:
296,311,151535,2,0,P|326:316|348:317,1,44.0000013427735,2|0,0:0|0:0,0:0:0:0:
427,305,151868,1,2,0:0:0:0:
427,305,153035,1,2,0:0:0:0:
449,311,153368,6,0,L|443:251,1,44.0000013427735,2|0,0:0|0:0,0:0:0:0:
459,176,153701,1,2,0:0:0:0:
374,214,153868,2,0,P|352:209|328:206,1,44.0000013427735,2|8,0:0|0:0,0:0:0:0:
270,135,154201,2,0,P|291:132|313:127,1,44.0000013427735,2|0,0:0|0:0,0:0:0:0:
394,100,154535,1,2,0:0:0:0:
194,28,154868,1,2,0:0:0:0:
163,249,155201,6,0,P|210:238|257:232,1,88.000002685547,2|0,0:0|0:0,0:0:0:0:
333,223,155701,1,2,0:0:0:0:
166,334,156035,6,0,B|116:339|117:304|65:315,1,88.000002685547,2|0,0:0|0:0,0:0:0:0:
0,329,156535,2,0,P|5:307|11:275,1,44.0000013427735,2|8,0:0|0:0,0:0:0:0:
73,231,156868,2,0,P|68:209|62:177,1,44.0000013427735,2|0,0:0|0:0,0:0:0:0:
47,110,157201,1,2,0:0:0:0:
47,110,157701,1,2,0:0:0:0:
37,95,158035,1,10,0:0:0:0:
152,13,158201,2,0,L|160:95,1,66.0000020141602,2|0,0:0|0:0,0:0:0:0:
160,97,158535,1,2,0:0:0:0:
259,172,158701,6,0,B|274:137|274:137|266:48,1,120.000004577637,4|0,1:0|1:0,0:0:0:0:
365,147,159201,2,0,L|356:75,1,60.0000022888184,8|0,0:0|1:0,0:0:0:0:
354,56,159701,1,8,0:0:0:0:
331,249,160035,5,0,1:0:0:0:
331,249,160201,1,0,1:0:0:0:
488,235,160368,2,0,L|410:218,1,60.0000022888184,2|8,0:0|0:0,0:0:0:0:
244,294,160701,1,10,0:0:0:0:
192,211,160868,5,2,1:0:0:0:
12,333,161118,5,0,1:0:0:0:
54,147,161368,6,0,B|131:174|148:98|238:127,1,160,4|8,1:0|0:0,0:0:0:0:
312,49,161868,1,0,1:0:0:0:
292,47,161951,1,0,1:0:0:0:
272,42,162035,1,8,0:0:0:0:
419,0,162201,1,0,1:0:0:0:
469,106,162368,2,0,L|452:197,1,80,0|0,0:0|0:0,0:0:0:0:
285,283,162701,6,0,P|341:246|423:286,1,160,0|10,1:0|0:0,0:0:0:0:
424,285,163118,1,8,0:0:0:0:
427,289,163201,1,10,0:0:0:0:
343,370,163368,2,0,L|353:320,2,40,2|0|2,1:0|0:0|0:0,0:0:0:0:
164,324,163701,1,0,1:0:0:0:
170,342,164035,6,0,L|194:206,1,132.00000402832,4|0,1:0|0:0,0:0:0:0:
197,186,164368,1,2,1:0:0:0:
74,239,164535,1,2,0:0:0:0:
98,114,164701,1,2,1:0:0:0:
233,0,164868,2,0,P|223:44|218:91,1,88.000002685547,2|0,0:0|1:0,0:0:0:0:
447,120,165201,6,0,P|437:69|308:78,1,176.000005371094,2|0,0:0|0:0,0:0:0:0:
298,154,165701,1,2,1:0:0:0:
218,86,165868,1,10,0:0:0:0:
74,239,166035,1,2,1:0:0:0:
175,312,166201,2,0,L|163:215,1,88.000002685547,10|0,0:0|1:0,0:0:0:0:
69,379,166535,6,0,P|158:362|269:347,1,176.000005371094,2|0,0:0|0:0,0:0:0:0:
381,336,167035,1,8,0:0:0:0:
366,367,167201,1,8,0:0:0:0:
459,251,167368,5,10,0:0:0:0:
501,352,167535,1,8,0:0:0:0:
344,233,167701,1,10,0:0:0:0:
512,152,167868,1,8,0:0:0:0:
381,336,168035,5,10,0:0:0:0:
298,138,168201,1,8,0:0:0:0:
490,258,168368,1,8,0:0:0:0:
237,317,168535,1,8,0:0:0:0:
427,58,168701,5,8,0:0:0:0:
381,336,168868,1,8,0:0:0:0:
190,106,169035,1,8,0:0:0:0:
512,152,169201,1,8,0:0:0:0:
247,378,169368,6,0,L|236:316,1,62.4000015234375,2|0,0:0|0:0,0:0:0:0:
234,298,170535,6,0,B|174:317|130:290|130:290|86:305|86:305|38:286|3:303,1,240.000009155274,6|0,1:0|1:0,0:0:0:0:
175,90,171035,2,0,P|185:150|192:219,1,120.000004577637,8|0,0:0|0:0,0:0:0:0:
3,125,171368,1,0,1:0:0:0:
80,52,171535,1,0,1:0:0:0:
283,134,171701,1,10,0:0:0:0:
413,9,171868,6,0,P|396:102|387:211,1,180.000006866455,6|0,1:0|0:0,0:0:0:0:
390,219,172201,1,0,1:0:0:0:
182,201,172368,1,10,0:0:0:0:
226,336,172535,2,0,P|219:284|200:190,1,120.000004577637,2|0,0:0|0:0,0:0:0:0:
85,130,172868,1,2,1:0:0:0:
255,6,173035,1,10,0:0:0:0:
365,124,173201,6,0,P|305:152|236:25,1,240.000009155274,6|2,1:0|1:0,0:0:0:0:
255,6,173618,1,0,0:0:0:0:
255,6,173701,1,10,0:0:0:0:
459,95,173868,1,0,0:0:0:0:
327,243,174035,1,2,1:0:0:0:
461,266,174201,2,0,P|418:239|315:229,1,120.000004577637,2|8,1:0|0:0,0:0:0:0:
156,350,174535,6,0,B|209:358|209:358|272:341|272:341|332:349,1,180.000006866455,6|0,1:0|0:0,0:0:0:0:
359,354,174868,1,2,1:0:0:0:
201,246,175035,1,10,0:0:0:0:
35,384,175201,6,0,P|50:306|64:185,1,180.000006866455,4|0,1:0|0:0,0:0:0:0:
54,182,175535,1,2,1:0:0:0:
257,70,175701,1,10,0:0:0:0:
313,249,175868,6,0,P|240:264|185:124,1,240.000009155274,6|0,1:0|1:0,0:0:0:0:
34,63,176368,2,0,P|50:142|52:186,1,120.000004577637,10|0,0:0|0:0,0:0:0:0:
43,296,176701,1,2,1:0:0:0:
201,246,176868,1,2,1:0:0:0:
395,384,177035,1,10,0:0:0:0:
374,247,177201,6,0,P|361:315|371:381,1,120.000004577637,6|0,1:0|0:0,0:0:0:0:
176,235,177535,2,0,P|189:167|179:101,1,120.000004577637,2|8,1:0|0:0,0:0:0:0:
25,79,177868,2,0,B|121:94|101:8|211:23,1,180.000006866455,2|0,1:0|0:0,0:0:0:0:
217,23,178201,1,2,1:0:0:0:
399,142,178368,1,10,0:0:0:0:
474,0,178535,6,0,B|435:35|435:35|425:196,1,180.000006866455,6|0,1:0|0:0,0:0:0:0:
427,187,178868,1,0,1:0:0:0:
248,162,179035,1,8,0:0:0:0:
328,319,179201,2,0,L|485:301,1,120.000004577637,2|0,0:0|1:0,0:0:0:0:
257,141,179535,2,0,L|137:154,1,120.000004577637,2|8,1:0|0:0,0:0:0:0:
21,360,179868,6,0,P|113:371|146:211,1,240.000009155274,6|0,1:0|1:0,0:0:0:0:
66,101,180368,1,10,0:0:0:0:
66,101,180451,1,0,0:0:0:0:
66,101,180535,1,2,1:0:0:0:
66,101,180618,1,0,0:0:0:0:
66,101,180701,5,10,0:0:0:0:
92,113,180784,1,8,0:0:0:0:
122,117,180867,1,10,0:0:0:0:
151,112,180951,1,8,0:0:0:0:
178,98,181034,1,10,0:0:0:0:
199,77,181117,1,8,0:0:0:0:
213,51,181201,6,0,B|209:147|209:147|235:192|235:192|230:303,1,248.00000189209,6|0,1:0|1:0,0:0:0:0:
437,260,181701,1,10,0:0:0:0:
342,320,181868,1,2,0:0:0:0:
321,87,182035,1,2,1:0:0:0:
429,126,182201,1,2,1:0:0:0:
512,0,182368,1,10,0:0:0:0:
273,3,182535,6,0,P|285:91|297:204,1,192,6|0,1:0|0:0,0:0:0:0:
298,214,182868,1,0,1:0:0:0:
404,384,183035,2,0,P|408:320|418:257,1,128,10|2,0:0|0:0,0:0:0:0:
425,232,183285,1,0,0:0:0:0:
425,232,183368,1,2,1:0:0:0:
321,87,183535,1,2,1:0:0:0:
200,193,183701,2,0,P|198:162|190:126,1,64,10|0,0:0|0:0,0:0:0:0:
0,225,183868,6,0,P|96:281|171:180,1,264.0000025177,6|0,1:0|1:0,0:0:0:0:
66,61,184368,2,0,L|86:215,1,132.00000125885,10|0,0:0|0:0,0:0:0:0:
298,130,184701,2,0,L|280:0,1,132.00000125885,2|0,1:0|1:0,0:0:0:0:
200,193,185035,1,10,0:0:0:0:
413,277,185201,6,0,B|358:243|287:258|287:258|235:321|143:293,1,256,6|2,1:0|1:0,0:0:0:0:
198,88,185701,1,8,0:0:0:0:
0,60,185868,6,0,P|18:161|35:315,1,248.00000189209,4|2,1:0|1:0,0:0:0:0:
200,193,186368,1,10,0:0:0:0:
186,384,186535,6,0,P|256:297|376:368,1,240.000009155274,6|0,1:0|1:0,0:0:0:0:
512,273,187035,2,0,P|493:212|482:146,1,120.000004577637,10|0,0:0|0:0,0:0:0:0:
345,25,187368,2,0,P|334:83|316:141,1,120.000004577637,2|0,1:0|1:0,0:0:0:0:
84,151,187701,1,10,0:0:0:0:
164,15,187868,6,0,B|168:76|168:76|200:133|200:133|205:228,1,180.000006866455,6|0,1:0|0:0,0:0:0:0:
205,209,188201,1,2,1:0:0:0:
112,294,188368,1,10,0:0:0:0:
281,384,188535,2,0,P|289:324|300:265,1,120.000004577637,2|0,1:0|0:0,0:0:0:0:
426,197,188868,1,2,1:0:0:0:
314,116,189035,1,10,0:0:0:0:
487,36,189201,6,0,B|404:71|391:-25|303:3,1,180.000006866455,6|0,1:0|0:0,0:0:0:0:
295,4,189535,1,0,1:0:0:0:
197,112,189701,2,0,P|188:50|139:-24,1,120.000004577637,10|0,0:0|0:0,0:0:0:0:
34,114,190035,1,2,1:0:0:0:
112,253,190201,2,0,L|249:231,1,120.000004577637,2|8,1:0|0:0,0:0:0:0:
512,288,190535,6,0,L|274:326,1,240.000009155274,6|0,1:0|1:0,0:0:0:0:
249,331,190951,1,0,1:0:0:0:
249,331,191035,1,8,0:0:0:0:
351,160,191201,1,2,1:0:0:0:
354,163,191285,1,0,1:0:0:0:
357,166,191368,5,10,0:0:0:0:
387,141,191451,1,8,0:0:0:0:
398,103,191535,1,10,0:0:0:0:
386,66,191618,1,8,0:0:0:0:
354,42,191701,1,8,0:0:0:0:
315,41,191785,1,8,0:0:0:0:
282,63,191868,6,0,L|288:106,1,40,2|0,0:0|1:0,0:0:0:0:
287,102,192368,6,0,B|178:75|186:166|77:133,1,215.999993408203,12|0,0:0|0:0,0:0:0:0:
58,125,192701,1,2,1:0:0:0:
118,28,192868,1,0,1:0:0:0:
253,200,193035,1,8,0:0:0:0:
412,104,193201,6,0,P|398:193|390:314,1,192,6|0,1:0|0:0,0:0:0:0:
387,329,193535,1,2,1:0:0:0:
512,206,193701,1,10,0:0:0:0:
512,382,193868,2,0,P|465:373|383:363,1,128,2|0,0:0|0:0,0:0:0:0:
248,277,194201,1,2,1:0:0:0:
139,322,194368,1,10,0:0:0:0:
37,90,194535,6,0,P|142:73|172:206,1,256,6|2,1:0|1:0,0:0:0:0:
162,211,194951,1,0,0:0:0:0:
162,211,195035,1,10,0:0:0:0:
293,96,195201,1,0,0:0:0:0:
455,169,195368,1,2,1:0:0:0:
328,248,195535,2,0,P|372:217|447:177,1,128,2|8,1:0|0:0,0:0:0:0:
457,0,195868,6,0,L|479:246,1,192,6|0,1:0|0:0,0:0:0:0:
477,221,196201,1,2,1:0:0:0:
395,369,196368,1,10,0:0:0:0:
226,160,196535,6,0,P|269:232|408:206,1,192,4|0,1:0|0:0,0:0:0:0:
393,212,196868,1,2,1:0:0:0:
512,81,197035,1,10,0:0:0:0:
394,108,197201,6,0,B|295:157|265:18|150:106,1,256,6|0,1:0|1:0,0:0:0:0:
47,241,197701,2,0,P|42:177|31:102,1,128,10|0,0:0|0:0,0:0:0:0:
61,0,198035,1,2,1:0:0:0:
163,64,198201,1,2,1:0:0:0:
47,241,198368,1,10,0:0:0:0:
261,280,198535,6,0,B|228:246|228:246|37:237,1,192,6|0,1:0|0:0,0:0:0:0:
47,241,198868,2,0,P|56:315|55:370,1,128,2|8,1:0|0:0,0:0:0:0:
261,280,199201,2,0,P|260:216|269:152,1,128,2|0,0:0|1:0,0:0:0:0:
457,116,199535,1,2,1:0:0:0:
374,215,199701,1,10,0:0:0:0:
335,0,199868,6,0,P|357:92|373:242,1,192,6|0,1:0|0:0,0:0:0:0:
374,215,200201,1,2,1:0:0:0:
512,185,200368,1,8,0:0:0:0:
459,334,200535,2,0,L|326:322,1,128,2|0,0:0|1:0,0:0:0:0:
153,134,200868,2,0,L|280:145,1,128,2|8,1:0|0:0,0:0:0:0:
51,232,201201,6,0,P|17:135|97:7,1,256,6|0,1:0|1:0,0:0:0:0:
314,15,201701,1,10,0:0:0:0:
159,128,201868,1,0,1:0:0:0:
156,131,201951,1,0,1:0:0:0:
153,134,202035,2,0,L|225:140,1,64,10|8,0:0|0:0,0:0:0:0:
347,100,202201,2,0,L|305:159,1,64,10|8,0:0|0:0,0:0:0:0:
278,282,202368,2,0,L|247:216,1,64,10|8,0:0|0:0,0:0:0:0:
141,13,202535,6,0,L|110:275,1,264.0000025177,6|0,1:0|1:0,0:0:0:0:
308,357,203035,2,0,L|324:221,1,132.00000125885,10|0,0:0|0:0,0:0:0:0:
347,100,203368,1,2,1:0:0:0:
461,177,203535,1,2,1:0:0:0:
192,230,203701,1,10,0:0:0:0:
82,98,203868,6,0,P|192:76|183:228,1,272.000005187988,6|0,1:0|1:0,0:0:0:0:
0,359,204368,2,0,P|67:343|136:334,1,136.000002593994,10|0,0:0|0:0,0:0:0:0:
167,338,204618,1,0,0:0:0:0:
167,338,204701,1,2,1:0:0:0:
346,289,204868,1,2,1:0:0:0:
474,384,205035,2,0,P|486:346|492:311,1,68.0000012969971,10|0,0:0|0:0,0:0:0:0:
475,79,205201,6,0,B|449:128|468:185|468:185|453:242|453:242|474:293|451:352,1,280.000002670288,6|0,1:0|1:0,0:0:0:0:
221,271,205701,2,0,P|301:257|354:301,1,140.000001335144,10|0,0:0|0:0,0:0:0:0:
201,138,206035,2,0,P|121:152|68:108,1,140.000001335144,2|0,1:0|1:0,0:0:0:0:
60,98,206285,1,0,0:0:0:0:
60,98,206368,1,10,0:0:0:0:
240,0,206535,6,0,L|220:281,1,272.000005187988,6|2,1:0|1:0,0:0:0:0:
93,231,207035,1,8,0:0:0:0:
358,339,207201,6,0,P|359:254|218:278,1,264.0000025177,4|2,1:0|1:0,0:0:0:0:
35,324,207701,1,10,0:0:0:0:
95,144,207868,6,0,B|222:190|225:95|354:135,1,256,6|0,1:0|1:0,0:0:0:0:
490,283,208368,2,0,P|475:207|466:147,1,128,10|0,0:0|0:0,0:0:0:0:
271,362,208701,2,0,P|286:286|295:226,1,128,2|0,1:0|1:0,0:0:0:0:
169,64,209035,1,10,0:0:0:0:
22,249,209201,6,0,P|123:266|161:174,1,192,6|0,1:0|0:0,0:0:0:0:
157,178,209535,1,2,1:0:0:0:
56,107,209701,1,10,0:0:0:0:
281,20,209868,2,0,P|270:79|263:152,1,128,2|0,0:0|1:0,0:0:0:0:
340,233,210201,1,2,1:0:0:0:
480,162,210368,1,10,0:0:0:0:
478,376,210535,6,0,B|440:339|440:339|288:325,1,192,6|0,1:0|0:0,0:0:0:0:
274,325,210868,1,0,1:0:0:0:
136,384,211035,2,0,P|128:323|131:251,1,128,10|0,0:0|0:0,0:0:0:0:
324,106,211368,1,2,1:0:0:0:
340,233,211535,2,0,P|348:172|345:100,1,128,2|8,1:0|0:0,0:0:0:0:
147,49,211868,6,0,B|248:45|248:45|301:6|301:6|412:-2,1,256,6|0,1:0|1:0,0:0:0:0:
172,174,212368,2,0,L|25:179,1,128,8|0,0:0|0:0,0:0:0:0:
27,280,212701,1,0,1:0:0:0:
138,366,212868,1,0,1:0:0:0:
281,266,213035,2,0,L|134:271,1,128,8|0,0:0|1:0,0:0:0:0:
434,187,213368,5,8,0:0:0:0:
310,263,213535,1,0,1:0:0:0:
140,96,213701,5,10,0:0:0:0:
303,131,213868,1,0,1:0:0:0:
139,262,214035,5,10,0:0:0:0:
109,224,214118,1,0,1:0:0:0:
98,178,214201,1,0,1:0:0:0:
109,132,214285,1,0,1:0:0:0:
140,96,214368,1,10,0:0:0:0:
146,49,214451,1,8,0:0:0:0:
119,11,214535,1,8,0:0:0:0:
73,2,214618,1,8,0:0:0:0:
34,27,214701,1,4,1:0:0:0:
256,192,214868,12,0,219868,0:0:0:0:
331,153,220035,6,0,P|313:222|297:317,1,160,4|0,1:0|1:0,0:0:0:0:
168,338,220535,1,0,0:0:0:0:
204,227,220701,2,0,L|197:153,1,64,0|0,1:0|0:0,0:0:0:0:
50,92,221035,6,0,B|130:135|153:36|245:81,1,192,12|0,1:0|0:0,0:0:0:0:
320,156,221701,1,8,0:0:0:0:
334,168,222035,2,0,L|342:105,1,64,0|8,1:0|0:0,0:0:0:0:
360,0,222368,1,0,1:0:0:0:
264,216,222701,6,0,P|317:249|379:240,1,128,4|0,1:0|1:0,0:0:0:0:
499,213,223201,1,8,0:0:0:0:
512,344,223368,2,0,L|442:335,1,64,0|0,1:0|0:0,0:0:0:0:
277,374,223701,6,0,L|265:224,1,128,4|0,1:0|1:0,0:0:0:0:
251,99,224201,1,0,0:0:0:0:
372,59,224368,2,0,L|367:128,1,64,8|0,0:0|0:0,0:0:0:0:
266,246,224701,5,8,0:0:0:0:
258,252,224785,1,8,0:0:0:0:
240,259,224868,1,8,0:0:0:0:
211,262,224951,1,8,0:0:0:0:
173,253,225035,1,8,0:0:0:0:
137,225,225118,1,8,0:0:0:0:
87,213,225201,1,8,0:0:0:0:
37,243,225285,1,8,0:0:0:0:
24,311,225368,1,4,1:0:0:0:
256,192,225535,12,0,232035,0:0:0:0:
