osu file format v14

[General]
AudioFilename: wubwub.mp3
AudioLeadIn: 0
PreviewTime: 97673
Countdown: 0
SampleSet: Soft
StackLeniency: 0.7
Mode: 0
LetterboxInBreaks: 0
WidescreenStoryboard: 1

[Editor]
DistanceSpacing: 1
BeatDivisor: 4
GridSize: 4
TimelineZoom: 3.799999

[Metadata]
Title:Gokusaishiki
TitleUnicode:極彩色
Artist:Reol
ArtistUnicode:れをる
Creator:Pho
Version:Hard
Source:
Tags:-nil- gigap giga-p richly colored short version
BeatmapID:919147
BeatmapSetID:425590

[Difficulty]
HPDrainRate:5
CircleSize:4
OverallDifficulty:6
ApproachRate:7
SliderMultiplier:2.1
SliderTickRate:1

[Events]
//Background and Video events
0,0,"bg.jpg",0,0
//Break Periods
//Storyboard Layer 0 (Background)
//Storyboard Layer 1 (Fail)
//Storyboard Layer 2 (Pass)
//Storyboard Layer 3 (Foreground)
//Storyboard Sound Samples

[TimingPoints]
7125,437.956204379562,4,2,1,30,1,0
8438,-200,4,2,1,30,0,0
8876,-133.333333333333,4,2,1,30,0,0
10190,-133.333333333333,4,2,1,20,0,0
10409,-133.333333333333,4,2,1,30,0,0
13694,-133.333333333333,4,2,1,20,0,0
13913,-133.333333333333,4,2,1,30,0,0
15665,-133.333333333333,4,2,1,20,0,0
15884,-133.333333333333,4,2,1,30,0,0
17197,-133.333333333333,4,2,1,20,0,0
17416,-133.333333333333,4,2,1,30,0,0
18402,-133.333333333333,4,2,1,20,0,0
18512,-133.333333333333,4,2,1,30,0,0
20154,-133.333333333333,4,2,1,20,0,0
20263,-133.333333333333,4,2,1,30,0,0
20592,-133.333333333333,4,2,1,20,0,0
20920,-133.333333333333,4,2,1,30,0,0
22453,-133.333333333333,4,2,1,32,0,0
22563,-133.333333333333,4,2,1,34,0,0
22672,-133.333333333333,4,2,1,36,0,0
22782,-133.333333333333,4,2,1,38,0,0
22891,-111.111111111111,4,2,1,50,0,0
23329,-111.111111111111,4,2,1,40,0,0
24205,-111.111111111111,4,2,1,20,0,0
24424,-111.111111111111,4,2,1,40,0,0
26176,-111.111111111111,4,2,1,30,0,0
26395,-111.111111111111,4,2,1,40,0,0
27709,-111.111111111111,4,2,1,20,0,0
27928,-111.111111111111,4,2,1,40,0,0
31212,-111.111111111111,4,2,1,20,0,0
31431,-111.111111111111,4,2,1,40,0,0
33621,-111.111111111111,4,2,1,20,0,0
33840,-111.111111111111,4,2,1,40,0,0
34716,-111.111111111111,4,2,1,20,0,0
34935,-111.111111111111,4,2,1,40,0,0
36905,-100,4,2,1,40,0,0
39971,-100,4,2,2,80,0,0
40409,-83.3333333333333,4,2,1,80,0,0
46979,-90.9090909090909,4,2,1,80,0,0
47307,-83.3333333333333,4,2,1,30,0,0
47416,-83.3333333333333,4,2,1,80,0,0
51249,-83.3333333333333,4,2,1,30,0,0
51358,-83.3333333333333,4,2,1,80,0,0
54424,-100,4,2,2,80,0,0
54643,-100,4,2,1,20,0,0
54862,-100,4,2,1,80,0,0
55081,-100,4,2,1,30,0,0
55300,-100,4,2,1,35,0,0
55519,-100,4,2,1,40,0,0
55738,-100,4,2,1,45,0,0
55957,-100,4,2,1,60,0,0
56176,-100,4,2,1,90,0,0
56395,-100,4,2,1,70,0,0
60336,-83.3333333333333,4,2,1,70,0,0
60555,-100,4,2,1,40,0,0
61212,-100,4,2,1,70,0,0
67453,-100,4,2,1,30,0,0
67562,-100,4,2,1,70,0,0
67781,-100,4,2,1,70,0,0
67891,-100,4,2,1,30,0,0
68000,-100,4,2,1,70,0,0
70190,-100,4,2,2,70,0,0
84095,-100,4,2,2,10,0,0
84205,-125,4,2,1,50,0,0
88968,-125,4,2,1,10,0,0
89022,-125,4,2,1,50,0,0
90719,-125,4,2,1,10,0,0
90774,-100,4,2,1,50,0,0
90993,-100,4,2,1,55,0,0
91212,-100,4,2,1,65,0,0
92964,-100,4,2,1,75,0,0
94716,-100,4,2,1,85,0,0
96468,-100,4,2,2,70,0,0
96906,-86.9565217391304,4,2,2,80,0,0
97343,-76.9230769230769,4,2,2,90,0,0
97781,-83.3333333333333,4,2,2,100,0,0
97891,-83.3333333333333,4,2,2,65,0,0
98219,-90.9090909090909,4,2,1,100,0,1
112234,-111.111111111111,4,2,1,80,0,0
118365,-90.9090909090909,4,2,2,100,0,0

[Colours]
Combo1 : 192,197,120
Combo2 : 192,192,192
Combo3 : 103,103,103
Combo4 : 43,43,255
Combo5 : 181,208,251
Combo6 : 150,5,56
Combo7 : 245,107,142
Combo8 : 109,98,69

[HitObjects]
84,123,8438,54,0,L|89:165,3,26.25,0|0|0|0,0:0|0:0|0:0|0:0,0:0:0:0:
92,180,8877,86,0,P|154:191|185:179,1,78.7500030040742,0|2,1:0|0:0,0:0:0:0:
251,92,9314,2,0,P|300:71|379:96,1,118.125004506111,2|2,0:0|0:0,0:0:0:0:
417,139,9752,2,0,L|407:321,1,157.500006008148,0|0,0:0|0:0,0:0:0:0:
288,345,10409,101,2,0:0:0:0:
288,345,10519,1,0,0:0:0:0:
288,345,10628,2,0,L|281:247,1,78.7500030040742,0|2,0:0|0:0,0:0:0:0:
197,172,11066,2,0,L|188:265,1,78.7500030040742,2|0,0:0|0:0,0:0:0:0:
172,380,11504,2,0,P|123:373|47:263,1,157.500006008148,0|2,0:0|0:0,0:0:0:0:
53,275,12052,1,0,0:0:0:0:
56,255,12161,1,0,0:0:0:0:
141,72,12380,6,0,P|182:98|192:144,1,78.7500030040742,0|2,1:0|0:0,0:0:0:0:
248,220,12818,2,0,P|278:198|300:112,1,118.125004506111,2|2,0:0|0:0,0:0:0:0:
332,53,13256,2,0,B|384:70|448:51|448:51|406:93,1,157.500006008148,0|0,0:0|0:0,0:0:0:0:
361,177,13913,101,2,0:0:0:0:
361,177,14022,1,0,0:0:0:0:
361,177,14132,2,0,L|368:261,1,78.7500030040742,0|2,0:0|0:0,0:0:0:0:
455,351,14570,2,0,L|471:244,1,78.7500030040742,2|0,0:0|0:0,0:0:0:0:
279,199,15008,2,0,L|299:377,1,157.500006008148,0|0,0:0|0:0,0:0:0:0:
288,369,15555,1,2,0:0:0:0:
281,381,15665,1,0,0:0:0:0:
124,342,15884,6,0,P|105:308|120:257,1,78.7500030040742,0|2,1:0|0:0,0:0:0:0:
151,153,16322,2,0,P|166:103|118:20,1,118.125004506111,2|2,0:0|0:0,0:0:0:0:
44,23,16760,2,0,B|25:50|25:50|98:81|167:27,1,157.500006008148,0|0,0:0|0:0,0:0:0:0:
285,13,17417,101,2,0:0:0:0:
218,103,17636,2,0,P|208:158|220:191,1,78.7500030040742,0|2,0:0|0:0,0:0:0:0:
309,288,18074,2,0,P|348:240|350:172,1,118.125004506111,2|2,0:0|0:0,0:0:0:0:
372,106,18512,2,0,B|428:65|487:91|487:91|469:133,1,157.500006008148,0|2,0:0|0:0,0:0:0:0:
466,145,19059,1,0,0:0:0:0:
459,162,19168,1,0,0:0:0:0:
308,303,19387,6,0,P|300:245|312:212,1,78.7500030040742,0|2,1:0|0:0,0:0:0:0:
360,372,19825,2,0,P|316:387|241:354,1,118.125004506111,2|2,0:0|0:0,0:0:0:0:
195,296,20263,2,0,L|169:113,1,157.500006008148,0|0,0:0|0:0,0:0:0:0:
114,34,20920,102,0,L|52:6,2,39.3750015020371,2|0|0,0:0|0:0|0:0,0:0:0:0:
223,49,21358,1,2,0:0:0:0:
246,156,21577,1,0,0:0:0:0:
147,205,21796,1,0,0:0:0:0:
67,128,22015,1,2,0:0:0:0:
172,108,22234,1,0,0:0:0:0:
264,193,22453,69,0,0:0:0:0:
262,194,22563,1,0,0:0:0:0:
262,194,22672,1,0,0:0:0:0:
262,194,22782,1,0,0:0:0:0:
260,194,22891,2,0,P|293:150|432:132,1,188.999994232178,0|2,1:0|0:0,0:0:0:0:
466,208,23548,1,0,0:0:0:0:
361,340,23767,54,0,L|165:315,1,188.999994232178,2|0,0:0|0:0,0:0:0:0:
87,188,24424,1,2,0:0:0:0:
159,283,24643,1,0,0:0:0:0:
104,376,24862,1,2,0:0:0:0:
25,287,25081,1,2,0:0:0:0:
208,92,25519,2,0,P|251:132|371:105,1,188.999994232178,0|0,0:0|0:0,0:0:0:0:
294,44,26176,1,2,0:0:0:0:
179,111,26395,102,0,B|141:179|141:216|141:216|204:320,1,188.999994232178,0|2,1:0|0:0,0:0:0:0:
289,364,27052,1,0,0:0:0:0:
415,275,27271,2,0,B|426:84,1,188.999994232178,2|0,0:0|0:0,0:0:0:0:
283,19,27928,1,2,0:0:0:0:
217,95,28147,2,0,P|263:122|334:107,1,94.499997116089,0|2,0:0|0:0,0:0:0:0:
164,197,28585,2,0,P|110:185|56:216,1,94.499997116089,2|0,0:0|0:0,0:0:0:0:
190,316,29022,2,0,L|312:293,1,94.499997116089,2|0,0:0|0:0,0:0:0:0:
290,280,29351,1,2,0:0:0:0:
403,257,29570,1,0,0:0:0:0:
409,236,29679,1,2,0:0:0:0:
482,123,29898,6,0,P|428:100|372:111,1,94.499997116089,0|0,1:0|0:0,0:0:0:0:
298,187,30336,1,2,0:0:0:0:
253,69,30555,1,0,0:0:0:0:
126,173,30774,2,0,P|101:126|131:0,1,188.999994232178,2|0,0:0|0:0,0:0:0:0:
239,141,31431,1,2,0:0:0:0:
192,233,31650,1,0,0:0:0:0:
90,254,31869,1,2,0:0:0:0:
2,198,32088,1,0,0:0:0:0:
239,141,32416,101,0,0:0:0:0:
239,141,32526,2,0,P|341:111|454:129,1,188.999994232178,2|2,0:0|0:0,0:0:0:0:
431,128,33074,1,0,0:0:0:0:
437,137,33183,1,0,0:0:0:0:
443,147,33293,1,0,0:0:0:0:
449,158,33402,6,0,L|397:251,1,94.499997116089,0|2,1:0|0:0,0:0:0:0:
242,273,33840,1,2,0:0:0:0:
334,338,34059,1,0,0:0:0:0:
305,206,34278,2,0,P|241:182|148:253,1,188.999994232178,2|0,0:0|0:0,0:0:0:0:
83,354,34935,101,2,0:0:0:0:
83,354,35154,2,0,L|59:165,1,188.999994232178,0|0,0:0|0:0,0:0:0:0:
147,35,36030,101,2,0:0:0:0:
244,111,36249,1,0,0:0:0:0:
244,111,36358,1,2,0:0:0:0:
134,195,36577,1,2,0:0:0:0:
134,195,36687,1,0,0:0:0:0:
255,264,36906,6,0,P|309:274|346:63,1,315,0|0,0:0|0:0,0:0:0:0:
137,81,37782,2,0,P|118:224|257:264,1,315,2|2,0:1|0:1,0:0:0:0:
256,192,38658,12,8,39971,1:2:0:0:
255,79,40409,22,0,P|188:102|129:83,1,125.999996154785,4|0,1:0|0:0,0:0:0:0:
39,169,40847,1,8,1:3:0:0:
152,223,41066,1,8,1:3:0:0:
51,299,41285,1,0,1:0:0:0:
163,354,41504,2,0,L|318:332,1,125.999996154785,2|0,0:1|1:0,0:0:0:0:
452,317,41942,1,0,0:0:0:0:
375,367,42161,6,0,B|352:312|380:260|380:260|438:209|420:132,1,251.999992309571,0|2,1:0|1:2,0:0:0:0:
298,163,42818,1,0,1:0:0:0:
298,163,42928,1,0,0:0:0:0:
298,163,43037,2,0,L|278:94,2,62.9999980773926,0|0|8,1:0|0:0|0:3,0:0:0:0:
397,52,43475,1,0,1:0:0:0:
261,8,43694,1,0,1:0:0:0:
176,123,43913,5,0,1:0:0:0:
212,263,44132,1,4,1:2:0:0:
125,203,44351,1,0,1:0:0:0:
164,105,44570,1,0,1:0:0:0:
268,112,44789,1,0,1:0:0:0:
292,213,45008,1,0,0:0:0:0:
107,206,45227,5,0,1:0:0:0:
152,89,45446,1,2,1:0:0:0:
277,95,45665,1,0,1:0:0:0:
317,214,45884,1,0,1:0:0:0:
212,284,46103,1,0,1:0:0:0:
214,158,46322,1,0,1:0:0:0:
291,287,46541,6,0,P|272:340|200:366,1,125.999996154785,2|0,1:0|0:3,0:0:0:0:
84,300,46979,2,0,L|72:104,1,173.250005287171,2|0,1:0|0:0,0:0:0:0:
71,82,47417,5,6,1:0:0:0:
174,18,47636,2,0,P|232:23|285:62,1,125.999996154785,0|8,0:0|0:3,0:0:0:0:
352,191,48074,1,8,1:3:0:0:
479,132,48293,1,0,1:0:0:0:
376,270,48512,2,0,L|242:250,1,125.999996154785,2|0,1:0|1:0,0:0:0:0:
65,199,48949,1,0,1:0:0:0:
143,286,49168,37,0,1:0:0:0:
237,138,49387,2,0,P|180:125|110:173,1,125.999996154785,2|2,0:1|1:0,0:0:0:0:
232,236,49825,2,0,P|285:225|335:156,1,125.999996154785,2|0,1:0|1:0,0:0:0:0:
396,1,50263,2,0,L|410:140,1,125.999996154785,2|0,1:0|1:0,0:0:0:0:
416,351,50701,1,4,1:1:0:0:
478,273,50920,2,0,B|416:243|381:264|381:264|360:316|276:331,1,188.999994232178,4|0,1:2|0:0,0:0:0:0:
232,310,51358,6,0,P|190:271|195:189,1,125.999996154785,4|0,1:2|1:0,0:0:0:0:
253,96,51796,2,0,L|391:83,1,125.999996154785,0|0,1:0|1:0,0:0:0:0:
465,181,52234,1,0,1:0:0:0:
465,181,52453,1,0,1:0:0:0:
335,287,52672,5,0,1:0:0:0:
235,272,52891,1,0,1:0:0:0:
201,177,53110,1,0,1:0:0:0:
262,97,53329,1,0,1:0:0:0:
333,303,53548,5,0,1:0:0:0:
222,287,53767,1,0,1:0:0:0:
186,182,53986,1,0,1:0:0:0:
253,96,54205,1,0,1:0:0:0:
446,100,54424,38,0,B|434:136|453:170|453:170|435:234|435:234|458:264|454:323,1,210,8|2,1:2|0:0,0:0:0:0:
354,368,55081,1,0,3:0:0:0:
354,368,55190,1,0,3:0:0:0:
354,368,55300,1,0,3:0:0:0:
281,273,55519,1,0,3:0:0:0:
211,357,55738,2,0,L|94:338,1,105,0|2,3:0|1:3,0:0:0:0:
47,203,56176,38,0,P|29:139|51:65,1,105,4|0,1:0|0:0,0:0:0:0:
122,23,56614,2,0,P|140:87|118:161,1,105,0|2,1:2|0:0,0:0:0:0:
132,151,56942,1,2,0:0:0:0:
132,151,57052,2,0,L|305:140,1,157.5,0|0,1:2|0:0,0:0:0:0:
310,139,57490,1,0,1:0:0:0:
370,45,57709,1,2,0:0:0:0:
448,151,57928,22,0,P|463:220|434:318,1,157.5,0|0,1:0|0:0,0:0:0:0:
442,303,58366,1,2,1:2:0:0:
306,357,58585,1,2,0:0:0:0:
206,251,58804,1,2,1:2:0:0:
206,251,58913,1,0,0:0:0:0:
206,251,59022,1,0,0:0:0:0:
292,174,59241,1,0,1:0:0:0:
387,242,59460,1,2,0:2:0:0:
300,328,59679,22,0,P|248:351|170:345,1,105,0|2,1:0|0:2,0:0:0:0:
178,343,60008,1,0,0:0:0:0:
154,333,60117,1,0,1:0:0:0:
68,264,60336,54,0,P|88:215|77:134,1,125.999996154785,0|8,0:0|1:3,0:0:0:0:
66,117,60665,1,8,0:3:0:0:
66,117,60774,2,0,L|6:108,2,52.5,8|8|0,0:3|0:3|1:0,0:0:0:0:
176,34,61212,1,2,0:1:0:0:
276,153,61431,22,0,P|342:152|390:111,1,105,0|2,1:0|0:2,0:0:0:0:
408,38,61869,2,0,P|342:39|294:80,1,105,0|2,1:0|0:2,0:0:0:0:
206,111,62307,1,0,1:0:0:0:
206,111,62417,2,0,L|84:102,1,105,2|2,0:2|0:0,0:0:0:0:
101,103,62745,1,0,1:0:0:0:
0,193,62964,1,2,1:2:0:0:
124,242,63183,22,0,P|188:250|239:314,1,105,0|0,1:0|0:0,0:0:0:0:
364,324,63621,2,0,P|300:336|264:366,1,105,0|2,1:0|0:2,0:0:0:0:
256,382,63949,1,2,0:0:0:0:
256,380,64059,2,0,L|258:221,1,157.5,0|0,1:0|0:0,0:0:0:0:
258,199,64497,1,0,1:0:0:0:
283,80,64716,1,2,0:0:0:0:
429,126,64935,54,0,B|450:151|450:151|379:193|312:141,1,157.5,0|0,1:0|0:0,0:0:0:0:
331,154,65373,1,2,1:2:0:0:
201,123,65592,1,2,0:0:0:0:
54,211,65811,1,0,1:0:0:0:
54,211,65920,1,0,0:0:0:0:
54,211,66030,1,2,0:0:0:0:
112,313,66249,1,0,1:0:0:0:
188,226,66468,1,2,0:0:0:0:
259,343,66687,22,0,P|318:328|354:285,1,105,0|2,1:0|0:0,0:0:0:0:
353,280,67015,1,0,0:0:0:0:
360,264,67124,1,0,1:0:0:0:
303,163,67343,2,0,L|280:112,2,52.5,2|2|0,0:1|0:1|1:0,0:0:0:0:
405,108,67781,2,0,L|436:34,2,52.5,2|2|0,0:1|0:1|1:0,0:0:0:0:
464,207,68219,1,2,0:1:0:0:
360,262,68438,22,0,B|308:274|308:274|245:250,1,105,0|2,1:0|0:0,0:0:0:0:
103,181,68876,2,0,B|153:153|153:153|225:157,1,105,0|2,1:0|0:0,0:0:0:0:
314,178,69314,1,0,1:0:0:0:
314,178,69424,2,0,P|326:112|297:33,1,105,2|2,0:0|0:0,0:0:0:0:
308,48,69752,1,0,1:0:0:0:
188,34,69971,1,2,1:2:0:0:
69,25,70190,38,0,L|81:194,1,157.5,4|2,1:0|0:0,0:0:0:0:
80,182,70628,1,0,1:0:0:0:
150,326,70847,5,2,0:0:0:0:
150,326,70957,1,0,0:0:0:0:
150,326,71066,1,0,1:2:0:0:
220,234,71285,1,2,0:0:0:0:
254,344,71504,1,2,1:2:0:0:
324,252,71723,1,0,1:0:0:0:
363,359,71942,6,0,P|404:307|401:195,1,157.5,0|2,1:0|0:0,0:0:0:0:
411,219,72380,1,0,1:0:0:0:
376,40,72599,6,0,L|435:16,2,52.5,2|0|0,0:0|0:0|1:0,0:0:0:0:
297,116,73037,1,2,0:0:0:0:
408,146,73256,1,2,1:2:0:0:
309,206,73475,1,0,1:0:0:0:
200,167,73694,22,0,P|188:103|209:42,1,105,0|2,1:0|0:0,0:0:0:0:
297,116,74132,2,0,P|358:137|400:186,1,105,0|2,1:0|0:0,0:0:0:0:
288,226,74570,2,0,P|238:268|175:280,1,105,2|2,1:2|0:0,0:0:0:0:
109,200,75008,1,0,1:0:0:0:
83,349,75227,1,2,1:2:0:0:
83,349,75446,38,0,L|243:331,1,157.5,0|2,1:0|0:0,0:0:0:0:
239,331,75884,1,0,1:0:0:0:
364,349,76103,5,2,0:0:0:0:
378,206,76322,1,0,1:0:0:0:
364,349,76541,1,2,1:2:0:0:
478,264,76760,1,2,1:2:0:0:
364,349,76979,1,2,0:0:0:0:
269,246,77197,6,0,P|238:189|252:87,1,157.5,0|2,1:0|0:0,0:0:0:0:
245,99,77635,1,0,1:0:0:0:
409,46,77854,5,2,0:0:0:0:
409,46,77964,1,0,0:0:0:0:
409,46,78073,1,0,1:0:0:0:
483,134,78292,1,2,0:0:0:0:
373,171,78511,1,2,1:2:0:0:
449,257,78730,1,0,1:0:0:0:
339,334,78949,6,0,P|269:307|175:338,1,157.5,0|2,1:0|0:0,0:0:0:0:
192,327,79387,1,0,1:0:0:0:
65,235,79606,6,0,L|9:266,2,52.5,2|0|0,0:0|0:0|1:0,0:0:0:0:
72,119,80044,1,2,0:0:0:0:
182,86,80263,1,2,1:2:0:0:
253,176,80482,1,0,1:0:0:0:
190,273,80701,2,0,P|158:221|157:155,1,105,0|2,1:0|0:0,0:0:0:0:
279,44,81139,54,0,L|255:174,1,105,0|2,1:0|1:2,0:0:0:0:
380,305,81577,2,0,L|357:190,1,105,0|2,1:0|0:0,0:0:0:0:
477,44,82015,2,0,L|446:162,1,105,0|2,1:0|0:0,0:0:0:0:
380,306,82453,22,0,P|327:339|197:324,1,157.5,0|2,1:0|0:0,0:0:0:0:
234,341,82891,1,0,1:0:0:0:
160,257,83110,1,2,1:2:0:0:
58,274,83329,2,0,P|50:326|72:378,1,105,2|2,1:2|1:2,0:0:0:0:
160,219,83767,102,0,L|151:25,1,157.5,0|0,1:0|0:0,0:0:0:0:
152,45,84205,70,0,P|190:88|322:116,1,168,4|0,0:0|0:0,0:0:0:0:
397,43,84862,1,0,0:0:0:0:
394,135,85081,1,2,0:0:0:0:
395,227,85300,1,0,0:0:0:0:
483,138,85519,1,0,0:0:0:0:
308,133,85738,101,0,0:0:0:0:
308,133,85847,1,0,0:0:0:0:
308,133,85957,2,0,P|263:161|248:213,1,84,0|0,0:0|0:0,0:0:0:0:
192,260,86395,2,0,P|128:246|68:153,1,168,0|2,0:0|0:0,0:0:0:0:
69,166,87270,5,0,0:0:0:0:
183,67,87489,1,0,0:0:0:0:
334,82,87708,102,0,L|321:262,1,168,0|2,0:0|0:0,0:0:0:0:
310,355,88365,1,0,0:0:0:0:
448,274,88584,1,2,0:0:0:0:
298,56,89022,2,0,L|287:179,1,84,2|0,0:0|0:0,0:0:0:0:
186,208,89460,6,0,L|163:108,1,84,2|0,0:0|0:0,0:0:0:0:
334,82,89898,2,0,L|323:205,1,84,0|0,0:0|0:0,0:0:0:0:
166,245,90336,2,0,L|139:145,1,84,2|0,0:0|0:0,0:0:0:0:
135,129,90628,2,0,L|122:83,2,28,0|0|0,0:0|0:0|1:0,0:0:0:0:
254,156,90993,1,0,0:0:0:0:
301,290,91212,6,0,P|355:319|407:317,1,105,2|0,1:0|2:1,0:0:0:0:
378,215,91650,2,0,P|426:207|476:165,1,105,0|0,1:0|0:0,0:0:0:0:
384,111,92088,2,0,P|408:57|394:11,1,105,0|0,1:0|0:0,0:0:0:0:
273,48,92526,1,0,1:0:0:0:
322,161,92745,1,0,1:0:0:0:
226,303,92964,22,0,P|168:334|112:331,1,105,2|0,1:0|0:1,0:0:0:0:
123,209,93402,2,0,P|71:200|18:155,1,105,0|0,1:0|0:0,0:0:0:0:
171,103,93840,2,0,P|145:45|160:-4,1,105,0|0,1:0|0:0,0:0:0:0:
273,48,94278,1,0,1:0:0:0:
194,179,94497,1,0,1:0:0:0:
309,260,94716,22,0,P|355:258|418:216,1,105,2|0,1:0|0:1,0:0:0:0:
178,316,95154,2,0,P|122:309|73:270,1,105,0|0,1:0|0:0,0:0:0:0:
350,381,95592,2,0,P|397:380|456:342,1,105,0|0,1:0|0:0,0:0:0:0:
492,167,96030,1,0,1:0:0:0:
399,269,96249,1,0,1:0:0:0:
345,105,96468,70,0,L|330:31,2,70,0|0|0,1:0|1:0|1:0,0:0:0:0:
272,159,96906,22,0,L|247:47,2,80.5000015354157,0|0|0,1:0|1:0|1:0,0:0:0:0:
192,199,97343,22,0,L|172:101,2,90.9999958343508,0|0|0,1:0|1:0|1:0,0:0:0:0:
110,253,97781,22,0,L|80:91,1,125.999996154785,8|0,1:2|1:0,0:0:0:0:
137,33,98219,6,0,P|212:24|286:53,1,115.50000352478,4|2,1:0|0:0,0:0:0:0:
259,39,98548,1,0,0:0:0:0:
268,46,98657,1,8,1:2:0:0:
355,121,98876,2,0,L|432:103,2,57.7500017623902,2|0|0,0:0|0:0|1:0,0:0:0:0:
275,218,99314,2,0,L|194:193,2,57.7500017623902,2|0|8,1:2|1:0|1:2,0:0:0:0:
379,306,99752,21,2,1:2:0:0:
379,306,99862,1,0,2:2:0:0:
379,306,99971,2,0,B|343:347|297:356|297:356|254:292|170:324,1,231.000007049561,0|10,1:0|1:2,0:0:0:0:
133,78,100847,2,0,B|169:37|215:28|215:28|258:92|342:60,1,231.000007049561,0|8,1:0|1:2,0:0:0:0:
297,292,101723,22,0,P|236:298|178:255,1,115.50000352478,0|2,1:0|0:0,0:0:0:0:
127,160,102161,2,0,L|249:152,1,115.50000352478,8|2,1:2|0:0,0:0:0:0:
252,137,102489,1,2,0:0:0:0:
263,119,102599,1,0,0:0:0:0:
365,45,102818,1,2,1:2:0:0:
365,45,102927,1,0,1:0:0:0:
365,45,103037,1,8,1:2:0:0:
457,130,103256,1,2,1:2:0:0:
353,204,103475,54,0,P|339:254|358:336,1,115.50000352478,0|2,1:0|0:0,0:0:0:0:
227,384,103913,2,0,P|231:326|199:262,1,115.50000352478,8|2,1:2|0:0,0:0:0:0:
192,264,104241,1,0,0:0:0:0:
176,254,104351,1,0,1:0:0:0:
57,296,104570,2,0,L|36:366,2,57.7500017623902,2|2|8,1:2|1:2|1:2,0:0:0:0:
2,183,105008,1,2,1:2:0:0:
122,145,105227,22,0,P|174:178|248:172,1,115.50000352478,0|2,1:0|0:0,0:0:0:0:
361,43,105665,2,0,P|299:42|247:66,1,115.50000352478,8|2,1:2|0:0,0:0:0:0:
251,82,105993,1,0,0:0:0:0:
252,100,106103,1,0,1:0:0:0:
351,158,106322,2,0,L|369:234,2,57.7500017623902,2|0|2,1:2|0:0|1:2,0:0:0:0:
435,67,106760,1,2,1:2:0:0:
475,185,106979,22,0,P|481:245|442:324,1,115.50000352478,0|2,1:0|0:0,0:0:0:0:
335,350,107416,2,0,L|209:329,1,115.50000352478,8|2,1:2|0:0,0:0:0:0:
217,314,107745,1,2,0:0:0:0:
213,296,107854,1,0,1:0:0:0:
113,232,108073,2,0,L|44:239,2,57.7500017623902,2|0|2,1:2|0:0|1:2,0:0:0:0:
208,164,108511,1,0,1:0:0:0:
205,146,108621,1,0,0:0:0:0:
201,127,108730,54,0,P|153:92|73:97,1,115.50000352478,0|2,1:0|0:0,0:0:0:0:
2,197,109168,2,0,L|125:236,1,115.50000352478,8|2,1:2|0:0,0:0:0:0:
137,240,109497,1,0,0:0:0:0:
137,240,109606,1,0,1:0:0:0:
253,349,109825,1,2,1:2:0:0:
302,183,110044,1,8,1:2:0:0:
226,242,110263,1,0,1:0:0:0:
226,242,110373,1,0,1:0:0:0:
226,242,110482,22,0,P|276:274|339:269,1,115.50000352478,0|0,1:0|0:0,0:0:0:0:
490,219,110920,2,0,P|440:187|376:196,1,115.50000352478,8|0,1:2|0:0,0:0:0:0:
263,171,111358,2,0,L|230:50,1,115.50000352478,8|8,1:2|1:2,0:0:0:0:
401,0,111796,2,0,L|381:122,1,115.50000352478,0|0,1:0|1:0,0:0:0:0:
326,269,112234,70,0,P|254:286|142:235,1,188.999994232178,4|0,1:0|0:0,0:0:0:0:
66,157,112891,1,8,0:0:0:0:
44,354,113110,1,0,1:0:0:0:
150,299,113329,2,0,L|151:192,1,94.499997116089
149,43,113767,1,0,0:0:0:0:
229,122,113986,102,0,P|308:130|423:60,1,188.999994232178,8|0,1:2|0:0,0:0:0:0:
411,90,114643,1,8,0:0:0:0:
411,90,114862,2,0,L|398:200,1,94.499997116089,2|0,1:2|0:0,0:0:0:0:
304,314,115300,2,0,L|282:207,1,94.499997116089,0|0,0:0|0:0,0:0:0:0:
182,29,115738,6,0,P|161:80|173:222,1,188.999994232178,8|0,1:2|0:0,0:0:0:0:
224,314,116395,1,8,0:0:0:0:
287,131,116614,1,0,1:0:0:0:
375,220,116833,2,0,L|382:251,3,31.4999990386963,0|0|0|0,0:0|0:0|0:0|0:0,0:0:0:0:
330,343,117270,1,0,0:0:0:0:
215,240,117489,102,0,B|117:183|86:220|86:220|128:241|169:197|175:136,1,283.499991348267,8|8,1:2|0:0,0:0:0:0:
166,27,118365,1,8,1:2:0:0:
379,84,118803,2,0,P|429:112|334:181,1,231.000007049561,8|4,1:2|1:0,0:0:0:0:
