osu file format v14

[General]
AudioFilename: wubwub.mp3
AudioLeadIn: 0
PreviewTime: 97673
Countdown: 0
SampleSet: Soft
StackLeniency: 0.7
Mode: 0
LetterboxInBreaks: 0
WidescreenStoryboard: 1

[Editor]
DistanceSpacing: 1.1
BeatDivisor: 4
GridSize: 4
TimelineZoom: 3.799999

[Metadata]
Title:Gokusaishiki
TitleUnicode:極彩色
Artist:Reol
ArtistUnicode:れをる
Creator:Pho
Version:Easy
Source:
Tags:-nil- gigap giga-p richly colored short version
BeatmapID:919146
BeatmapSetID:425590

[Difficulty]
HPDrainRate:2
CircleSize:2
OverallDifficulty:2
ApproachRate:3.5
SliderMultiplier:1
SliderTickRate:1

[Events]
//Background and Video events
0,0,"bg.jpg",0,0
//Break Periods
2,85081,89394
//Storyboard Layer 0 (Background)
//Storyboard Layer 1 (Fail)
//Storyboard Layer 2 (Pass)
//Storyboard Layer 3 (Foreground)
//Storyboard Sound Samples

[TimingPoints]
7125,437.956204379562,4,2,1,30,1,0
22453,-100,4,2,1,40,0,0
22891,-100,4,2,1,50,0,0
23329,-100,4,2,1,40,0,0
31212,-100,4,2,1,20,0,0
31431,-100,4,2,1,40,0,0
36905,-100,4,2,1,60,0,0
39971,-100,4,2,2,80,0,0
40409,-100,4,2,1,80,0,0
54424,-100,4,2,2,80,0,0
55300,-100,4,2,1,70,0,0
55738,-100,4,2,1,80,0,0
56176,-100,4,2,1,90,0,0
56285,-100,4,2,1,70,0,0
91212,-100,4,2,1,65,0,0
92964,-100,4,2,1,75,0,0
94716,-100,4,2,1,85,0,0
96468,-100,4,2,2,95,0,0
97781,-100,4,2,2,100,0,0
98219,-100,4,2,1,100,0,1
112234,-100,4,2,1,80,0,0
118365,-100,4,2,2,100,0,0

[Colours]
Combo1 : 192,197,120
Combo2 : 192,192,192
Combo3 : 103,103,103
Combo4 : 43,43,255
Combo5 : 181,208,251
Combo6 : 150,5,56
Combo7 : 245,107,142
Combo8 : 109,98,69

[HitObjects]
81,180,8876,6,0,P|154:226|275:209,1,200,0|0,1:0|0:0,0:0:0:0:
382,101,10409,2,0,B|401:181|401:181|373:286|373:286|387:359,1,250,2|0,0:0|0:0,0:0:0:0:
278,375,11942,1,2,0:0:0:0:
180,323,12380,6,0,P|146:270|178:137,1,200,0|0,1:0|0:0,0:0:0:0:
309,50,13913,2,0,P|343:103|323:290,1,250,2|0,0:0|0:0,0:0:0:0:
226,240,15446,1,2,0:0:0:0:
144,314,15884,102,0,P|98:272|91:132,1,200,0|0,1:0|0:0,0:0:0:0:
200,21,17416,2,0,L|458:61,1,250,2|0,0:0|0:0,0:0:0:0:
476,165,18949,1,2,0:0:0:0:
375,210,19387,6,0,P|275:175|168:173,1,200,0|0,1:0|0:0,0:0:0:0:
64,287,20920,2,0,B|137:346|250:348|250:348|312:310,1,250,2|2,0:0|0:0,0:0:0:0:
356,231,22453,1,0,0:0:0:0:
441,300,22891,102,0,B|465:203|465:203|447:96,1,200,0|2,1:0|0:0,0:0:0:0:
297,37,24424,2,0,B|243:48|243:48|193:42|193:42|126:51,1,150,2|2,0:0|0:0,0:0:0:0:
39,60,25519,2,0,L|54:168,1,100,0|0,0:0|0:0,0:0:0:0:
68,268,26395,6,0,P|116:316|257:333,1,200,0|2,1:0|0:0,0:0:0:0:
392,269,27927,2,0,P|376:234|270:179,1,150,2|2,0:0|0:0,0:0:0:0:
182,225,29022,2,0,L|73:193,1,100,2|0,0:0|0:0,0:0:0:0:
12,115,29898,102,0,P|50:101|100:54,1,100,0|2,1:0|0:0,0:0:0:0:
193,14,30774,2,0,P|287:18|386:64,1,200,2|0,0:0|0:0,0:0:0:0:
454,144,32088,1,0,0:0:0:0:
440,253,32526,1,2,0:0:0:0:
242,350,33402,5,0,1:0:0:0:
153,284,33840,1,2,0:0:0:0:
137,175,34278,1,2,0:0:0:0:
260,66,34935,2,0,B|305:20|305:20|349:21|425:72|405:157|358:219|287:203,1,350
202,142,36906,102,0,P|102:122|27:198,1,200,0|2,0:0|0:1,0:0:0:0:
149,373,38657,2,0,B|208:378|243:341|243:341|314:365|314:365|372:310|357:239,1,300,0|8,0:0|1:2,0:0:0:0:
311,157,40409,21,4,1:0:0:0:
322,47,40847,2,0,P|370:27|435:37,1,100,8|0,1:3|1:0,0:0:0:0:
495,107,41723,1,0,1:0:0:0:
431,196,42161,2,0,B|379:222|330:198|330:198|237:238,1,200,0|0,1:0|1:0,0:0:0:0:
188,331,43475,1,0,1:0:0:0:
122,242,43913,6,0,L|18:196,2,100,0|0|0,1:0|1:0|1:0,0:0:0:0:
228,212,45227,1,0,1:0:0:0:
277,113,45665,2,0,P|321:75|457:126,1,200,0|2,1:0|1:0,0:0:0:0:
494,208,46979,1,2,1:0:0:0:
444,305,47416,6,0,L|343:294,1,100,6|8,1:0|1:3,0:0:0:0:
256,360,48292,1,0,1:0:0:0:
189,272,48730,1,0,1:0:0:0:
100,338,49168,2,0,B|61:288|61:288|69:142,1,200,0|0,1:0|1:0,0:0:0:0:
116,52,50482,2,0,L|226:42,1,100,0|4,1:0|1:2,0:0:0:0:
280,132,51358,6,0,L|169:143,1,100,4|0,1:2|1:0,0:0:0:0:
121,233,52234,2,0,B|137:334|137:334|183:371|246:348,1,200,0|0,1:0|1:0,0:0:0:0:
311,276,53548,2,0,P|365:260|410:270,2,100,0|0|8,1:0|1:0|1:2,0:0:0:0:
121,163,55300,2,0,L|103:62,1,100,0|0,3:0|3:0,0:0:0:0:
198,8,56176,86,0,P|252:24|292:73,1,100,4|0,1:0|1:2,0:0:0:0:
368,122,57052,2,0,L|470:106,2,100,0|0|0,1:2|1:0|1:0,0:0:0:0:
274,179,58365,1,2,1:2:0:0:
170,218,58803,2,0,L|59:206,1,100,2|0,1:2|1:0,0:0:0:0:
18,304,59679,22,0,P|85:350|208:315,1,200,0|8,1:0|1:3,0:0:0:0:
270,245,60993,1,0,1:0:0:0:
339,330,61431,2,0,L|450:335,1,100,0|0,1:0|1:0,0:0:0:0:
500,243,62307,2,0,P|439:203|400:67,1,200,0|0,1:0|1:0,0:0:0:0:
304,27,63621,22,0,L|184:35,1,100,0|0,1:0|1:0,0:0:0:0:
128,113,64497,1,0,1:0:0:0:
37,50,64935,2,0,P|21:88|101:220,1,200,0|0,1:0|1:0,0:0:0:0:
199,201,66249,1,0,1:0:0:0:
290,261,66687,54,0,L|282:369,2,100,0|0|0,1:0|1:0|1:0,0:0:0:0:
366,181,68000,1,0,1:0:0:0:
451,112,68438,2,0,P|356:26|264:142,1,300,0|0,1:0|1:0,0:0:0:0:
277,240,70190,22,0,P|230:252|90:185,1,200,4|0,1:0|1:2,0:0:0:0:
52,93,71504,1,2,1:2:0:0:
140,26,71942,2,0,B|239:47|239:47|356:41,1,200,0|0,1:0|1:0,0:0:0:0:
446,24,73256,1,2,1:2:0:0:
501,118,73694,22,0,L|485:220,1,100,0|0,1:0|1:0,0:0:0:0:
376,202,74570,2,0,L|388:311,1,100,2|0,1:2|1:0,0:0:0:0:
293,359,75446,2,0,B|195:369|195:369|156:326|93:329,1,200,0|0,1:0|1:0,0:0:0:0:
21,256,76760,1,2,1:2:0:0:
101,182,77197,54,0,P|126:154|267:57,1,200,0|0,1:0|1:0,0:0:0:0:
368,52,78511,1,2,1:2:0:0:
309,145,78949,2,0,P|291:195|321:345,1,200,0|0,1:0|1:0,0:0:0:0:
422,362,80263,1,2,1:2:0:0:
476,266,80701,22,0,L|487:167,1,100,0|0,1:0|1:0,0:0:0:0:
376,166,81577,2,0,L|361:52,1,100,0|0,1:0|1:0,0:0:0:0:
261,23,82453,2,0,P|207:10|162:17,1,100,0|0,1:0|1:0,0:0:0:0:
95,103,83329,2,0,P|50:115|-5:106,2,100,2|0|4,1:2|1:0|0:0,0:0:0:0:
95,103,90774,53,0,1:0:0:0:
154,195,91212,22,0,P|154:243|180:292,2,100,2|0|0,1:0|1:0|1:0,0:0:0:0:
256,154,92526,1,0,1:0:0:0:
295,51,92964,22,0,P|252:27|197:24,2,100,2|0|0,1:0|1:0|1:0,0:0:0:0:
257,154,94278,1,0,1:0:0:0:
327,238,94716,22,0,P|368:213|398:166,2,100,2|0|0,1:0|1:0|1:0,0:0:0:0:
256,154,96030,1,0,1:0:0:0:
147,136,96468,6,0,P|100:146|204:233,1,300,0|8,1:0|1:2,0:0:0:0:
256,154,98219,22,0,P|304:151|417:241,1,200,4|0,1:0|1:0,0:0:0:0:
434,349,99533,1,8,1:2:0:0:
324,341,99971,2,0,L|204:330,1,100,0|10,1:0|1:2,0:0:0:0:
205,223,100847,2,0,L|97:241,1,100,0|8,1:0|1:2,0:0:0:0:
24,165,101723,22,0,P|46:112|179:50,1,200,0|0,1:0|0:0,0:0:0:0:
256,113,103037,1,8,1:2:0:0:
344,49,103475,2,0,P|437:81|488:165,1,200,0|0,1:0|1:0,0:0:0:0:
390,217,104789,1,8,1:2:0:0:
307,290,105227,22,0,B|223:296|223:296|111:349,1,200,0|0,1:0|1:0,0:0:0:0:
33,275,106541,1,8,1:2:0:0:
126,216,106979,2,0,B|193:180|193:180|218:52,1,200,0|0,1:0|1:0,0:0:0:0:
314,8,108292,1,8,1:2:0:0:
418,43,108730,6,0,L|421:157,1,100,0|8,0:0|0:0,0:0:0:0:
467,242,109606,2,0,P|420:251|356:229,1,100,0|8,1:0|1:2,0:0:0:0:
279,175,110482,2,0,L|167:190,1,100,0|8,1:0|1:2,0:0:0:0:
88,249,111358,1,8,1:2:0:0:
66,141,111796,1,0,1:0:0:0:
128,50,112234,102,0,P|181:49|282:144,1,200,4|0,1:0|1:0,0:0:0:0:
384,334,113986,2,0,P|331:335|230:240,1,200,8|2,1:2|1:2,0:0:0:0:
256,132,115300,1,0,0:0:0:0:
337,205,115738,102,0,B|378:209|417:159|417:159|356:64,1,200,8|0,1:2|1:0,0:0:0:0:
150,71,117489,2,0,B|95:159|95:159|134:209|175:205,1,200,8|8,1:2|1:2,0:0:0:0:
256,130,118803,1,8,1:2:0:0:
364,148,119241,1,4,1:0:0:0:
