osu file format v14

[General]
AudioFilename: FLASH BACK.mp3
AudioLeadIn: 0
PreviewTime: 97057
Countdown: 0
SampleSet: Soft
StackLeniency: 0.2
Mode: 0
LetterboxInBreaks: 0
WidescreenStoryboard: 0

[Editor]
DistanceSpacing: 0.6
BeatDivisor: 4
GridSize: 8
TimelineZoom: 4.099998

[Metadata]
Title:FLASH BACK
TitleUnicode:FLASH BACK
Artist:Reol
ArtistUnicode:れをる
Creator:sukiNathan
Version:BLACKOUT
Source:
Tags:umetora ギガP giga-p giga p cametek remix flashback reworu exclusive bonus utaite 梅とら 極彩色 Gokusaishiki pishifat vinxis anxient tower ver camellia かめりあ
BeatmapID:888715
BeatmapSetID:409397

[Difficulty]
HPDrainRate:6
CircleSize:4
OverallDifficulty:8.4
ApproachRate:9.4
SliderMultiplier:2
SliderTickRate:1

[Events]
//Background and Video events
0,0,"merrychristmasbitches.jpg",0,0
//Break Periods
2,159614,165731
//Storyboard Layer 0 (Background)
//Storyboard Layer 1 (Fail)
//Storyboard Layer 2 (Pass)
//Storyboard Layer 3 (Foreground)
//Storyboard Sound Samples

[TimingPoints]
1700,428.571428571429,4,2,2,40,1,0
1700,-133.333333333333,4,2,2,40,0,0
2128,-133.333333333333,4,2,1,40,0,0
8557,-133.333333333333,4,2,1,45,0,0
15414,-117.647058823529,4,2,1,50,0,0
29128,-105.263157894737,4,2,1,60,0,0
34271,-105.263157894737,4,2,1,70,0,0
35985,-100,4,2,1,70,0,0
41128,-100,4,2,1,40,0,0
41557,-100,4,2,1,50,0,0
41985,-100,4,2,1,60,0,0
42842,-133.333333333333,4,2,1,80,0,0
43271,-66.6666666666667,4,2,1,70,0,0
45628,-58.8235294117647,4,2,1,70,0,0
46271,-100,4,2,1,70,0,0
46700,-66.6666666666667,4,2,1,70,0,0
49700,-133.333333333333,4,2,1,70,0,0
50128,-66.6666666666667,4,2,1,70,0,0
52485,-58.8235294117647,4,2,1,70,0,0
53128,-100,4,2,1,70,0,0
53557,-66.6666666666667,4,2,1,70,0,0
56557,-66.6666666666667,4,2,1,75,0,1
57842,-100,4,2,1,75,0,1
58271,-66.6666666666667,4,2,1,75,0,1
59985,-100,4,2,1,75,0,1
60414,-66.6666666666667,4,2,1,75,0,1
61271,-133.333333333333,4,2,1,75,0,1
61700,-66.6666666666667,4,2,1,75,0,1
64700,-100,4,2,1,75,0,1
65128,-66.6666666666667,4,2,1,75,0,1
66842,-100,4,2,1,75,0,1
67271,-66.6666666666667,4,2,1,75,0,1
68128,-133.333333333333,4,2,1,75,0,1
69842,-66.6666666666667,4,2,1,75,0,0
71557,-58.8235294117647,4,2,1,75,0,0
71985,-66.6666666666667,4,2,1,75,0,0
73271,-58.8235294117647,4,2,1,75,0,0
73700,-100,4,2,1,75,0,0
74128,-66.6666666666667,4,2,1,75,0,0
78414,-58.8235294117647,4,2,1,75,0,0
78842,-66.6666666666667,4,2,1,75,0,0
80128,-58.8235294117647,4,2,1,75,0,0
80557,-100,4,2,1,75,0,0
80985,-66.6666666666667,4,2,1,75,0,0
83985,-80,4,2,1,65,0,0
86985,-100,4,2,1,65,0,0
87414,-80,4,2,1,65,0,0
93842,-100,4,2,1,65,0,0
94271,-80,4,2,1,65,0,0
95128,-66.6666666666667,4,2,1,65,0,0
97271,-66.6666666666667,4,2,1,40,0,0
97700,-58.8235294117647,4,2,1,80,0,1
100700,-100,4,2,1,80,0,1
101128,-58.8235294117647,4,2,1,80,0,1
102414,-133.333333333333,4,2,1,80,0,1
102842,-58.8235294117647,4,2,1,80,0,1
107557,-100,4,2,1,80,0,1
107985,-58.8235294117647,4,2,1,80,0,1
109271,-133.333333333333,4,2,1,80,0,1
109700,-58.8235294117647,4,2,1,80,0,1
111414,-100,4,2,1,80,0,1
114414,-133.333333333333,4,2,1,80,0,1
114842,-100,4,2,1,80,0,1
118271,-133.333333333333,4,2,1,80,0,1
121700,-100,4,2,1,70,0,0
124807,-100,4,2,1,70,0,0
125128,-166.666666666667,4,2,1,70,0,0
125557,-66.6666666666667,4,2,1,70,0,0
127914,-58.8235294117647,4,2,1,70,0,0
128557,-100,4,2,1,70,0,0
128985,-66.6666666666667,4,2,1,70,0,0
131985,-133.333333333333,4,2,1,70,0,0
132414,-66.6666666666667,4,2,1,70,0,0
134771,-58.8235294117647,4,2,1,70,0,0
135414,-100,4,2,1,70,0,0
135842,-66.6666666666667,4,2,1,70,0,0
138842,-133.333333333333,4,2,1,60,0,0
141842,-66.6666666666667,4,2,1,60,0,0
142700,-100,4,2,1,60,0,0
144842,-80,4,2,1,60,0,0
145271,-133.333333333333,4,2,1,60,0,0
146557,-58.8235294117647,4,2,1,60,0,1
146985,-66.6666666666667,4,2,1,70,0,1
147414,-66.6666666666667,4,2,1,70,0,0
147842,-133.333333333333,4,2,1,70,0,0
148271,-58.8235294117647,4,2,1,70,0,1
149128,-133.333333333333,4,2,1,70,0,0
149985,-58.8235294117647,4,2,1,70,0,1
150842,-133.333333333333,4,2,1,70,0,0
152557,-50,4,2,1,70,0,0
152610,-50,4,2,1,10,0,0
152985,-133.333333333333,4,2,1,70,0,0
153414,-58.8235294117647,4,2,1,70,0,1
154271,-66.6666666666667,4,2,1,70,0,0
154700,-133.333333333333,4,2,1,70,0,0
155128,-50,4,2,1,70,0,0
155557,-133.333333333333,4,2,1,70,0,0
156842,-58.8235294117647,4,2,1,70,0,1
157700,-133.333333333333,4,2,1,70,0,0
158021,-105.263157894737,4,2,1,70,0,0
158342,-86.9565217391304,4,2,1,70,0,0
158771,-74.0740740740741,4,2,1,70,0,0
158985,-64.5161290322581,4,2,1,70,0,0
159200,-57.1428571428571,4,2,1,70,0,0
166271,-100,4,2,1,60,0,0
173128,-80,4,2,1,60,0,0
176128,-100,4,2,1,60,0,0
176557,-80,4,2,1,60,0,0
182985,-100,4,2,1,60,0,0
183414,-80,4,2,1,60,0,0
186842,-105.263157894737,4,2,1,60,0,0
191985,-105.263157894737,4,2,1,70,0,0
193700,-90.9090909090909,4,2,1,70,0,0
197985,-90.9090909090909,4,2,1,40,0,0
198414,-90.9090909090909,4,2,1,50,0,0
198842,-90.9090909090909,4,2,1,30,0,0
200128,-90.9090909090909,4,2,1,60,0,0
200557,-58.8235294117647,4,2,1,80,0,1
203557,-100,4,2,1,80,0,1
203985,-58.8235294117647,4,2,1,80,0,1
205271,-133.333333333333,4,2,1,80,0,1
205700,-58.8235294117647,4,2,1,80,0,1
210414,-100,4,2,1,80,0,1
210842,-58.8235294117647,4,2,1,80,0,1
212128,-133.333333333333,4,2,1,80,0,1
212557,-58.8235294117647,4,2,1,80,0,1
214271,-100,4,2,1,80,0,1
217271,-133.333333333333,4,2,1,80,0,1
217700,-100,4,2,1,80,0,1
221128,-133.333333333333,4,2,1,80,0,1
224557,-100,4,2,1,70,0,0
227985,-66.6666666666667,4,2,1,75,0,1
229271,-100,4,2,1,75,0,1
229700,-66.6666666666667,4,2,1,75,0,1
231414,-100,4,2,1,75,0,1
231842,-66.6666666666667,4,2,1,75,0,1
232700,-133.333333333333,4,2,1,75,0,1
233128,-66.6666666666667,4,2,1,75,0,1
236128,-100,4,2,1,75,0,1
236557,-66.6666666666667,4,2,1,75,0,1
238271,-100,4,2,1,75,0,1
238700,-66.6666666666667,4,2,1,75,0,1
239557,-133.333333333333,4,2,1,75,0,1
239985,-66.6666666666667,4,2,1,75,0,1
241700,-125,4,2,1,65,0,0
243628,-133.333333333333,4,2,1,60,0,0
245342,-142.857142857143,4,2,1,55,0,0
247057,-153.846153846154,4,2,1,50,0,0
248128,-153.846153846154,4,2,1,65,0,0
248557,-153.846153846154,4,2,1,50,0,0
248771,-166.666666666667,4,2,1,50,0,0
250485,-166.666666666667,4,2,1,40,0,0
251557,-166.666666666667,4,2,1,35,0,0
251985,-133.333333333333,4,2,1,30,0,0
252414,-100,4,2,1,40,0,0
252842,-100,4,2,1,50,0,0
253271,-100,4,2,1,70,0,0
253914,-66.6666666666667,4,2,1,70,0,0
254557,-133.333333333333,4,2,1,70,0,0
254985,-133.333333333333,4,2,1,20,0,0

[Colours]
Combo1 : 100,100,100
Combo2 : 73,92,180
Combo3 : 153,166,223
Combo4 : 201,201,201

[HitObjects]
440,201,1700,54,0,L|348:208,1,75.0000028610231,6|0,3:2|0:0,0:0:0:0:
189,227,2128,1,0,0:0:0:0:
189,227,2342,2,0,L|127:231,3,37.5000014305115
273,220,2771,2,0,L|307:271,1,37.5000014305115,2|0,0:0|0:0,0:0:0:0:
224,148,2985,2,0,L|251:92,1,37.5000014305115,2|0,0:0|0:0,0:0:0:0:
351,37,3200,37,0,0:0:0:0:
351,37,3414,2,0,L|412:28,3,37.5000014305115,2|0|0|0,0:0|0:0|0:0|0:0,0:0:0:0:
265,88,3842,2,0,L|190:78,1,75.0000028610231,2|0,0:0|0:0,0:0:0:0:
345,140,4164,2,0,L|420:130,1,75.0000028610231,2|0,0:0|0:0,0:0:0:0:
274,205,4485,2,0,L|266:251,1,37.5000014305115,2|0,0:0|0:0,0:0:0:0:
251,326,4700,1,2,0:0:0:0:
288,123,4914,1,2,0:0:0:0:
108,205,5128,6,0,L|61:213,3,37.5000014305115,2|0|0|0,0:0|0:0|0:0|0:0,0:0:0:0:
188,122,5557,2,0,L|199:26,1,75.0000028610231,2|0,0:0|0:0,0:0:0:0:
266,209,5878,2,0,L|277:305,1,75.0000028610231,2|0,0:0|0:0,0:0:0:0:
347,119,6200,2,0,L|352:71,1,37.5000014305115,2|0,0:0|0:0,0:0:0:0:
248,224,6414,2,0,L|253:272,1,37.5000014305115,2|0,0:0|0:0,0:0:0:0:
177,112,6628,2,0,L|181:74,1,37.5000014305115,2|0,0:0|0:0,0:0:0:0:
109,221,6842,38,0,L|62:229,3,37.5000014305115,2|0|0|0,0:0|0:0|0:0|0:0,0:0:0:0:
188,276,7271,2,0,L|272:293,1,75.0000028610231,2|0,0:0|0:0,0:0:0:0:
103,202,7592,2,0,L|19:219,1,75.0000028610231,2|0,0:0|0:0,0:0:0:0:
195,97,7914,2,0,L|192:152,1,37.5000014305115,2|0,0:0|0:0,0:0:0:0:
273,228,8128,2,0,L|275:190,1,37.5000014305115,2|0,0:0|0:0,0:0:0:0:
363,110,8342,2,0,L|360:147,1,37.5000014305115,2|0,0:0|0:0,0:0:0:0:
309,319,8557,6,0,L|346:316,1,37.5000014305115,2|0,0:0|0:0,0:0:0:0:
229,366,8771,1,0,0:0:0:0:
211,358,8878,1,0,0:0:0:0:
193,351,8985,2,0,L|92:344,1,75.0000028610231,2|0,0:0|0:0,0:0:0:0:
18,295,9307,2,0,L|23:369,1,75.0000028610231,2|0,0:0|0:0,0:0:0:0:
57,208,9628,2,0,L|13:205,1,37.5000014305115,2|0,0:0|0:0,0:0:0:0:
137,250,9842,2,0,L|181:247,1,37.5000014305115,2|0,0:0|0:0,0:0:0:0:
109,139,10057,2,0,L|117:73,1,37.5000014305115,2|0,0:0|0:0,0:0:0:0:
234,64,10271,37,2,0:0:0:0:
227,89,10378,1,0,0:0:0:0:
222,114,10485,1,0,0:0:0:0:
218,140,10592,1,0,0:0:0:0:
213,166,10700,2,0,L|207:203,1,37.5000014305115,2|0,0:0|0:0,0:0:0:0:
324,171,10914,5,0,0:0:0:0:
324,171,11021,2,0,L|335:96,1,75.0000028610231,2|0,0:0|0:0,0:0:0:0:
293,279,11342,2,0,L|257:292,1,37.5000014305115,2|0,0:0|0:0,0:0:0:0:
399,247,11557,2,0,L|428:270,1,37.5000014305115,2|0,0:0|0:0,0:0:0:0:
324,171,11771,2,0,L|329:133,1,37.5000014305115,2|0,0:0|0:0,0:0:0:0:
225,194,11985,37,2,0:0:0:0:
192,205,12092,1,0,0:0:0:0:
160,217,12199,1,0,0:0:0:0:
129,229,12306,1,0,0:0:0:0:
97,243,12414,2,0,L|83:143,1,75.0000028610231,2|0,0:0|0:0,0:0:0:0:
192,141,12735,2,0,L|199:46,1,75.0000028610231,2|0,0:0|0:0,0:0:0:0:
285,191,13057,2,0,L|271:225,1,37.5000014305115,2|0,0:0|0:0,0:0:0:0:
295,74,13271,2,0,L|354:81,1,37.5000014305115,2|0,0:0|0:0,0:0:0:0:
395,162,13485,2,0,L|454:169,1,37.5000014305115,2|0,0:0|0:0,0:0:0:0:
381,264,13700,5,2,0:0:0:0:
339,258,13807,1,0,0:0:0:0:
297,252,13914,1,0,0:0:0:0:
257,247,14021,1,0,0:0:0:0:
215,240,14128,2,0,L|124:225,1,75.0000028610231,2|0,0:0|0:0,0:0:0:0:
33,239,14450,2,0,L|45:313,1,75.0000028610231,2|0,0:0|0:0,0:0:0:0:
91,133,14771,1,2,0:0:0:0:
112,97,14878,1,0,0:0:0:0:
134,62,14985,2,0,L|140:24,1,37.5000014305115,2|0,0:0|0:0,0:0:0:0:
33,239,15200,2,0,L|39:276,1,37.5000014305115,2|0,0:0|0:0,0:0:0:0:
170,195,15414,6,0,P|223:200|271:223,1,85.0000016212464,6|0,3:2|0:0,0:0:0:0:
308,274,15735,1,0,0:0:0:0:
244,330,15842,2,0,P|204:344|161:346,1,85.0000016212464,2|0,0:0|0:0,0:0:0:0:
370,331,16164,1,0,0:0:0:0:
370,331,16271,2,0,P|399:339|433:334,1,42.5000008106232,2|0,0:0|0:0,0:0:0:0:
368,211,16485,2,0,P|397:203|431:208,1,42.5000008106232,2|0,0:0|0:0,0:0:0:0:
487,269,16700,1,2,0:0:0:0:
426,105,16914,38,0,P|430:59|443:15,1,85.0000016212464,2|0,0:0|0:0,0:0:0:0:
247,0,17342,2,0,P|258:40|261:83,1,85.0000016212464,2|0,0:0|0:0,0:0:0:0:
212,153,17664,1,0,0:0:0:0:
129,131,17771,2,0,P|76:133|53:138,1,42.5000008106232,2|0,0:0|0:0,0:0:0:0:
237,235,17985,2,0,P|290:241|352:226,1,85.0000016212464,2|0,0:0|0:0,0:0:0:0:
405,221,18307,1,0,0:0:0:0:
379,301,18414,1,2,0:0:0:0:
418,134,18628,6,0,P|365:128|303:143,1,85.0000016212464,2|0,0:0|0:0,0:0:0:0:
200,102,19057,2,0,P|204:59|198:17,1,85.0000016212464,2|0,0:0|0:0,0:0:0:0:
45,109,19485,2,0,P|84:120|103:121,1,42.5000008106232,2|0,0:0|0:0,0:0:0:0:
172,245,19700,1,2,0:0:0:0:
172,245,19914,2,0,P|162:205|153:188,1,42.5000008106232
230,72,20128,2,0,P|200:100|190:116,1,42.5000008106232,2|0,0:0|0:0,0:0:0:0:
278,182,20342,38,0,P|356:204|394:206,1,85.0000016212464,2|0,0:0|0:0,0:0:0:0:
222,277,20771,1,2,0:0:0:0:
222,277,20985,2,0,P|180:284|140:299,1,85.0000016212464,2|0,0:0|0:0,0:0:0:0:
104,321,21307,1,0,0:0:0:0:
68,343,21414,1,2,0:0:0:0:
142,165,21628,1,0,0:0:0:0:
102,181,21735,1,0,0:0:0:0:
62,196,21842,2,0,P|29:191|4:181,1,42.5000008106232,2|0,0:0|0:0,0:0:0:0:
134,44,22057,2,0,P|146:75|150:101,1,42.5000008106232,2|0,0:0|0:0,0:0:0:0:
199,225,22271,6,0,P|253:222|308:241,1,85.0000016212464,2|0,0:0|0:0,0:0:0:0:
352,277,22592,1,0,0:0:0:0:
366,192,22700,2,0,P|408:196|449:187,1,85.0000016212464,2|0,0:0|0:0,0:0:0:0:
292,6,23128,1,2,0:0:0:0:
250,170,23342,1,2,0:0:0:0:
381,60,23557,1,2,0:0:0:0:
211,73,23771,38,0,P|168:77|127:68,1,85.0000016212464,2|0,0:0|0:0,0:0:0:0:
359,162,24200,2,0,P|401:166|442:157,1,85.0000016212464,2|0,0:0|0:0,0:0:0:0:
254,277,24628,1,0,0:0:0:0:
243,235,24735,1,0,0:0:0:0:
241,193,24842,1,2,0:0:0:0:
396,204,25057,1,2,0:0:0:0:
400,363,25271,1,2,0:0:0:0:
254,277,25485,6,0,P|241:218|244:173,1,85.0000016212464,2|0,0:0|0:0,0:0:0:0:
313,147,25807,1,0,0:0:0:0:
378,92,25914,2,0,P|391:33|388:-12,1,85.0000016212464,2|0,0:0|0:0,0:0:0:0:
223,38,26342,1,0,0:0:0:0:
183,55,26450,1,0,0:0:0:0:
146,73,26557,2,0,P|87:86|42:83,1,85.0000016212464,2|0,0:0|0:0,0:0:0:0:
223,129,26878,1,0,0:0:0:0:
301,80,26985,2,0,P|323:86|343:95,1,42.5000008106232,2|0,0:0|0:0,0:0:0:0:
223,129,27200,38,0,P|224:176|234:243,1,85.0000016212464,2|0,0:0|0:0,0:0:0:0:
429,140,27628,2,0,P|433:97|434:55,1,85.0000016212464,2|0,0:0|0:0,0:0:0:0:
362,244,28057,1,0,0:0:0:0:
362,244,28164,2,0,P|416:245|456:253,1,85.0000016212464,2|0,0:0|0:0,0:0:0:0:
345,161,28485,2,0,P|317:151|296:141,1,42.5000008106232,2|0,0:0|0:0,0:0:0:0:
422,98,28700,2,0,P|427:127|429:150,1,42.5000008106232,2|0,0:0|0:0,0:0:0:0:
319,44,28914,2,0,P|341:24|360:11,1,42.5000008106232,2|0,0:0|0:0,0:0:0:0:
225,87,29128,38,0,B|180:100|180:100|115:96,1,94.9999974632264,6|0,3:2|0:0,0:0:0:0:
132,274,29450,1,0,0:0:0:0:
76,197,29557,2,0,B|121:184|121:184|186:188,1,94.9999974632264,2|0,1:2|0:0,0:0:0:0:
270,324,29985,1,2,1:2:0:0:
327,168,30200,1,2,0:0:0:0:
198,263,30414,1,2,1:2:0:0:
368,254,30628,38,0,B|410:223|410:223|425:176,1,94.9999974632264,2|0,0:0|1:0,0:0:0:0:
234,21,31057,2,0,B|239:72|239:72|273:109,1,94.9999974632264,2|0,0:0|1:0,0:0:0:0:
339,167,31378,1,0,0:0:0:0:
247,197,31485,2,0,P|223:192|199:193,1,47.4999987316132,2|0,0:0|0:0,0:0:0:0:
317,268,31700,2,0,P|340:272|422:263,1,94.9999974632264,2|0,1:2|0:0,0:0:0:0:
232,309,32021,1,0,0:0:0:0:
232,309,32128,2,0,P|208:304|184:305,1,47.4999987316132,2|0,1:2|0:0,0:0:0:0:
277,191,32342,70,0,B|288:144|288:144|278:97,1,94.9999974632264,2|0,0:0|1:0,0:0:0:0:
100,265,32771,2,0,B|90:310|90:310|101:357,1,94.9999974632264,2|0,0:0|1:0,0:0:0:0:
152,137,33200,1,2,0:0:0:0:
152,137,33414,2,0,P|113:109|69:91,1,94.9999974632264,2|0,1:2|0:0,0:0:0:0:
267,42,33842,2,0,P|260:82|261:120,1,47.4999987316132,2|0,1:2|0:0,0:0:0:0:
335,198,34057,38,0,P|378:180|417:152,1,94.9999974632264,2|0,0:0|1:0,0:0:0:0:
164,153,34485,1,0,0:0:0:0:
167,200,34592,1,0,0:0:0:0:
170,247,34700,2,0,L|178:355,1,94.9999974632264,2|0,1:2|0:0,0:0:0:0:
341,126,35128,2,0,L|333:31,1,94.9999974632264,2|0,1:2|0:0,0:0:0:0:
245,216,35557,2,0,P|221:220|197:220,1,47.4999987316132,2|0,1:2|2:0,0:0:0:0:
67,79,35771,2,0,P|90:75|114:75,1,47.4999987316132,2|0,1:2|0:0,0:0:0:0:
208,136,35985,38,0,B|151:131|165:162|95:157,1,100,2|0,3:2|1:0,0:0:0:0:
25,149,36307,1,0,1:0:0:0:
40,237,36414,2,0,L|47:328,2,50,2|0|0,3:2|1:0|1:0,0:0:0:0:
186,300,36735,1,0,0:0:0:0:
186,300,36842,2,0,P|161:303|138:312,1,50,2|0,3:2|0:0,0:0:0:0:
307,341,37057,2,0,P|330:350|354:353,1,50,2|0,1:2|1:0,0:0:0:0:
262,256,37271,2,0,P|259:228|259:202,1,50,2|0,3:2|1:0,0:0:0:0:
399,107,37485,6,0,P|409:171|408:235,1,100,2|0,1:2|3:0,0:0:0:0:
305,93,37807,1,0,0:0:0:0:
356,20,37914,2,0,P|405:22|443:28,2,50,2|0|0,1:2|1:0|3:0,0:0:0:0:
243,30,38235,1,0,0:0:0:0:
243,30,38342,2,0,P|203:39|172:50,1,50,2|0,1:2|0:0,0:0:0:0:
292,140,38557,2,0,P|304:100|310:68,1,50,2|0,3:2|0:0,0:0:0:0:
170,132,38771,2,0,P|197:162|222:183,1,50,2|0,1:2|1:0,0:0:0:0:
339,221,38985,2,0,P|321:238|304:257,1,50,2|0,3:2|1:0,0:0:0:0:
184,301,39200,37,2,1:2:0:0:
184,301,39414,2,0,L|179:337,2,25,0|0|0,3:0|1:0|1:0,0:0:0:0:
80,212,39628,5,0,3:0:0:0:
90,173,39735,1,0,1:0:0:0:
98,134,39842,2,0,L|102:109,2,25,0|0|0,3:0|1:0|1:0,0:0:0:0:
209,173,40057,37,0,3:0:0:0:
220,124,40164,1,0,1:0:0:0:
229,74,40271,2,0,L|233:49,2,25,0|0|0,3:0|1:0|1:0,0:0:0:0:
315,250,40485,5,0,3:0:0:0:
327,191,40592,1,0,1:0:0:0:
335,131,40700,2,0,L|339:106,2,25,0|0|0,3:0|1:0|1:0,0:0:0:0:
440,237,40914,37,0,3:0:0:0:
452,168,41021,1,0,1:0:0:0:
460,98,41128,2,2,L|465:57,7,25,2|2|2|2|2|2|2|2,3:2|3:2|3:2|3:2|3:2|3:2|3:2|3:2,3:2:0:0:
337,153,41557,2,2,L|298:169,7,25,2|2|2|2|2|2|2|2,3:2|3:2|3:2|3:2|3:2|3:2|3:2|3:2,3:2:0:0:
440,237,41985,2,2,L|473:261,7,25,2|2|2|2|2|2|2|2,3:2|3:2|3:2|3:2|3:2|3:2|3:2|3:2,3:2:0:0:
488,173,42414,5,0,1:0:0:0:
488,173,42521,1,0,1:0:0:0:
488,173,42628,2,0,L|446:144,1,50,0|0,1:0|0:0,0:0:0:0:
392,64,42842,22,0,B|425:59|425:59|447:63|447:63|469:54|469:54|511:51,1,112.500004291535,4|0,3:2|0:0,0:0:0:0:
308,116,43271,6,0,B|297:81|261:58|261:58|294:35|312:2,1,150.000005722046,8|0,0:0|0:0,0:0:0:0:
444,175,43592,2,0,B|355:151|391:228|263:201,1,150.000005722046,2|0,3:2|0:0,0:0:0:0:
430,335,43914,2,0,P|437:296|424:261,1,75.0000028610231,2|0,3:2|0:0,0:0:0:0:
224,180,44128,2,0,P|217:219|230:254,1,75.0000028610231,10|0,0:2|0:0,0:0:0:0:
399,90,44342,2,0,P|406:51|393:16,1,75.0000028610231,2|0,0:2|0:0,0:0:0:0:
357,176,44557,6,0,L|462:182,1,75.0000028610231,0|0,3:0|0:0,0:0:0:0:
306,68,44771,1,0,3:0:0:0:
306,68,44878,1,0,0:0:0:0:
208,126,44985,2,0,L|103:120,1,75.0000028610231,8|0,0:0|0:0,0:0:0:0:
357,176,45200,1,0,0:0:0:0:
257,265,45307,6,0,B|197:259|197:259|168:277|168:277|95:272,1,150.000005722046,2|0,3:2|0:0,0:0:0:0:
360,226,45628,2,0,B|373:261|373:261|353:325,1,85.0000016212464,2|0,3:2|0:0,0:0:0:0:
146,171,45842,2,0,B|179:155|179:155|231:161,1,85.0000016212464,10|0,0:2|0:0,0:0:0:0:
229,360,46057,2,0,B|194:380|194:380|133:377,1,85.0000016212464,2|0,0:2|0:0,0:0:0:0:
324,153,46271,6,0,B|428:167|428:167|381:200,1,150,0|0,3:0|0:0,0:0:0:0:
195,163,46700,6,0,B|155:154|155:154|123:165|123:165|94:151|94:151|51:157,1,150.000005722046,8|0,0:0|0:0,0:0:0:0:
268,106,47021,2,0,B|326:152|326:152|250:231,1,150.000005722046,2|0,3:2|0:0,0:0:0:0:
320,32,47342,2,0,L|396:84,1,75.0000028610231,2|0,3:2|0:0,0:0:0:0:
345,268,47557,2,0,L|396:213,1,75.0000028610231,10|0,0:0|0:0,0:0:0:0:
198,159,47771,2,0,L|123:162,1,75.0000028610231,2|0,0:2|0:0,0:0:0:0:
362,113,47985,5,2,3:2:0:0:
303,54,48092,1,2,0:0:0:0:
313,188,48200,2,0,L|318:263,1,75.0000028610231,2|0,3:2|0:0,0:0:0:0:
109,72,48414,2,0,L|114:147,1,75.0000028610231,10|0,0:2|0:0,0:0:0:0:
129,346,48628,1,2,0:0:0:0:
51,274,48735,2,0,B|120:240|120:240|189:264,1,150.000005722046,2|0,3:2|0:0,0:0:0:0:
305,140,49057,6,0,L|209:135,1,75.0000028610231,0|0,3:0|3:0,0:0:0:0:
237,44,49217,1,0,3:0:0:0:
237,44,49271,2,0,P|270:39|315:48,1,75.0000028610231,10|0,0:2|3:0,0:0:0:0:
298,236,49485,2,0,P|265:241|220:232,1,75.0000028610231,2|0,0:2|0:0,0:0:0:0:
418,109,49700,6,2,P|449:139|387:177,1,112.500004291535,0|2,3:0|0:0,0:0:0:0:
254,20,50128,6,0,P|231:85|298:113,1,150.000005722046,8|0,0:0|0:0,0:0:0:0:
494,34,50450,2,0,P|420:21|305:58,1,150.000005722046,2|0,3:2|0:0,0:0:0:0:
406,148,50771,2,0,B|448:142|500:167,1,75.0000028610231,2|0,3:2|0:0,0:0:0:0:
249,122,50985,2,0,B|222:88|218:31,1,75.0000028610231,10|0,0:0|0:0,0:0:0:0:
302,269,51200,2,0,B|286:308|238:340,1,75.0000028610231,2|0,0:2|0:0,0:0:0:0:
389,232,51414,6,0,L|492:236,1,75.0000028610231,0|0,3:0|0:0,0:0:0:0:
338,91,51628,1,0,3:0:0:0:
338,91,51735,1,0,0:0:0:0:
235,212,51842,2,0,L|110:222,1,75.0000028610231,8|0,0:0|0:0,0:0:0:0:
255,17,52057,1,0,0:0:0:0:
215,116,52164,2,0,B|138:121|138:121|78:74,1,150.000005722046,2|0,3:2|0:0,0:0:0:0:
296,159,52485,2,0,B|311:191|311:191|299:257,1,85.0000016212464,2|0,3:2|0:0,0:0:0:0:
164,45,52700,2,0,B|184:16|184:16|250:-7,1,85.0000016212464,10|0,0:2|0:0,0:0:0:0:
142,205,52914,2,0,B|106:201|106:201|54:157,1,85.0000016212464,2|0,0:2|0:0,0:0:0:0:
296,159,53128,22,0,B|354:152|354:152|389:169|389:169|464:163,1,150,0|0,3:0|0:0,0:0:0:0:
288,63,53557,38,0,B|308:47|308:47|337:45|357:60|357:60|375:45|403:43|403:43|422:57,1,150.000005722046,8|0,0:0|0:0,0:0:0:0:
198,129,53878,2,0,B|152:86|152:86|162:-11,1,150.000005722046,2|0,3:2|0:0,0:0:0:0:
296,159,54200,2,0,L|286:233,1,75.0000028610231,2|0,3:2|0:0,0:0:0:0:
120,93,54414,2,0,L|129:18,1,75.0000028610231,10|0,0:2|0:0,0:0:0:0:
322,183,54628,2,0,L|312:257,1,75.0000028610231,2|0,0:2|0:0,0:0:0:0:
257,54,54842,21,2,3:2:0:0:
339,44,54949,1,0,0:0:0:0:
198,129,55057,2,0,L|124:119,1,75.0000028610231,2|0,3:2|0:0,0:0:0:0:
424,105,55271,2,0,B|439:212|439:212|407:239,1,150.000005722046,8|0,0:0|0:0,0:0:0:0:
286,315,55592,2,0,P|350:315|407:379,1,150.000005722046,0|0,3:0|0:0,0:0:0:0:
190,344,55914,2,0,B|183:308|183:308|196:273,1,75.0000028610231,0|0,3:0|3:0,0:0:0:0:
201,187,56075,1,0,3:0:0:0:
201,187,56128,2,0,L|126:197,1,75.0000028610231,10|0,0:2|3:0,0:0:0:0:
286,315,56342,2,0,L|361:325,1,75.0000028610231,2|0,0:2|0:0,0:0:0:0:
305,136,56557,5,4,3:2:0:0:
297,217,56664,1,0,0:0:0:0:
395,149,56771,2,0,B|403:131|397:110|397:110|409:97|415:62,1,75.0000028610231,2|0,0:0|0:0,0:0:0:0:
204,205,56985,2,0,B|163:197|140:169|140:169|107:194|69:187,1,150.000005722046,10|0,0:2|0:0,0:0:0:0:
293,172,57307,2,0,B|306:211|293:245|293:245|331:261|344:297,1,150.000005722046,2|0,3:2|0:0,0:0:0:0:
220,115,57628,2,0,B|232:99|232:77|232:77|246:68|261:36,1,75.0000028610231,2|0,3:2|0:0,0:0:0:0:
388,173,57842,22,0,P|443:127|429:56,1,150,10|0,0:0|0:0,0:0:0:0:
250,195,58271,38,0,P|209:191|143:208,1,75.0000028610231,2|0,3:2|0:0,0:0:0:0:
425,272,58485,2,0,P|466:276|532:259,1,75.0000028610231,2|0,3:2|0:0,0:0:0:0:
333,152,58700,2,0,B|372:245|302:208|338:332,1,150.000005722046,10|0,0:2|0:0,0:0:0:0:
270,78,59021,2,0,P|337:50|403:82,1,150.000005722046,2|0,3:2|0:0,0:0:0:0:
237,169,59342,2,0,P|199:174|163:162,1,75.0000028610231,2|0,3:2|0:0,0:0:0:0:
431,168,59557,2,0,P|469:163|505:175,1,75.0000028610231,10|0,0:2|0:0,0:0:0:0:
270,78,59771,1,2,0:0:0:0:
337,11,59878,1,0,0:0:0:0:
333,153,59985,6,0,B|341:179|330:208|330:208|348:230|348:230|334:262|345:306,1,150,2|0,3:2|0:0,0:0:0:0:
270,78,60414,6,0,L|110:100,1,150.000005722046,10|0,0:0|0:0,0:0:0:0:
337,11,60735,2,0,B|389:63|389:63|335:157,1,150.000005722046,2|0,3:2|0:0,0:0:0:0:
187,79,61057,2,0,B|195:4,1,75.0000028610231,2|0,3:2|0:0,0:0:0:0:
419,60,61271,38,0,L|431:194,1,131.25000500679,10|0,0:0|0:0,0:0:0:0:
278,186,61700,22,0,L|203:197,1,75.0000028610231,2|0,3:2|0:0,0:0:0:0:
329,46,61914,2,0,L|403:56,1,75.0000028610231,2|0,3:2|0:0,0:0:0:0:
127,121,62128,2,0,B|108:220|108:220|139:258,1,150.000005722046,10|0,0:2|0:0,0:0:0:0:
317,179,62450,2,0,B|204:196|204:196|237:241,1,150.000005722046,0|0,3:0|0:0,0:0:0:0:
410,195,62771,2,0,B|410:153|410:153|385:110,1,75.0000028610231,2|0,3:2|3:0,0:0:0:0:
296,84,62932,1,0,3:0:0:0:
296,84,62985,2,0,B|189:102,1,75.0000028610231,10|0,0:2|0:0,0:0:0:0:
36,134,63200,5,0,3:0:0:0:
36,134,63414,2,0,B|33:153|17:168|17:168|24:184|23:240,1,75.0000028610231,4|0,3:2|0:0,0:0:0:0:
122,69,63628,2,0,B|106:57|102:35|102:35|84:33|36:4,1,75.0000028610231,2|0,0:2|0:0,0:0:0:0:
129,171,63842,2,0,B|175:164|198:135|198:135|231:156|265:151,1,150.000005722046,10|0,0:2|0:0,0:0:0:0:
421,203,64164,2,0,B|397:164|355:160|355:160|357:121|336:94,1,150.000005722046,2|0,3:2|0:0,0:0:0:0:
269,0,64485,2,0,B|263:18|272:37|272:37|260:49|253:67,1,75.0000028610231,2|0,3:2|0:0,0:0:0:0:
281,280,64700,6,0,P|318:237|367:305,1,150,10|0,0:2|0:0,0:0:0:0:
209,340,65128,6,0,P|188:268|202:226,1,75.0000028610231,2|0,3:2|0:0,0:0:0:0:
469,322,65342,2,0,P|417:376|373:385,1,75.0000028610231,2|0,3:2|0:0,0:0:0:0:
342,206,65557,2,0,B|355:156|355:156|345:113|345:113|365:42,1,150.000005722046,10|0,2:2|2:0,2:0:0:0:
467,203,65878,2,0,B|453:252|453:252|463:295|463:295|443:366,1,150.000005722046,2|0,3:2|2:0,2:0:0:0:
237,269,66200,2,0,L|138:257,1,75.0000028610231,2|0,3:2|0:0,0:0:0:0:
357,136,66414,2,0,L|456:124,1,75.0000028610231,10|0,0:2|0:0,0:0:0:0:
176,104,66628,1,2,0:0:0:0:
274,67,66735,1,0,0:0:0:0:
255,177,66842,38,0,B|249:221|249:221|261:248|261:248|246:276|246:276|245:320,1,150,2|0,3:2|0:0,0:0:0:0:
207,91,67271,22,0,B|245:71|262:42|262:42|278:71|316:100,1,150.000005722046,8|0,0:2|0:0,0:0:0:0:
135,161,67592,2,0,P|104:103|138:23,1,150.000005722046,2|0,3:2|0:0,0:0:0:0:
92,250,67914,2,0,B|57:266|57:266|-2:265,1,75.0000028610231,2|0,3:2|0:0,0:0:0:0:
187,250,68128,22,0,B|192:278|176:303|176:303|186:334|186:334|176:372,1,112.500004291535,10|0,0:2|0:0,0:0:0:0:
135,161,68557,37,6,3:2:0:0:
256,192,68664,12,8,69842,0:0:0:0:
255,353,70271,22,0,P|322:380|402:349,1,150.000005722046,4|0,3:2|0:0,0:0:0:0:
325,175,70592,1,0,0:0:0:0:
269,248,70700,2,0,P|324:288|384:247,1,150.000005722046,10|0,0:0|0:0,0:0:0:0:
323,148,71021,1,0,3:0:0:0:
181,223,71128,6,0,B|174:260|174:260|183:296,1,75.0000028610231,2|0,0:0|0:0,0:0:0:0:
474,293,71342,2,0,B|480:255|480:255|471:219,1,75.0000028610231,2|0,3:2|0:0,0:0:0:0:
322,36,71557,6,0,L|323:121,1,85.0000016212464,10|0,0:2|0:0,0:0:0:0:
319,328,71771,2,0,L|320:243,1,85.0000016212464,2|0,0:2|0:0,0:0:0:0:
157,95,71985,22,0,P|227:84|268:90,1,75.0000028610231,0|0,3:0|0:0,0:0:0:0:
421,91,72200,1,2,3:2:0:0:
421,91,72307,1,0,0:0:0:0:
292,202,72414,6,0,B|346:226|386:182|386:182|388:209|405:228,1,150.000005722046,10|0,0:2|0:0,0:0:0:0:
479,174,72735,1,0,3:0:0:0:
358,310,72842,6,0,B|320:322|284:308,1,75.0000028610231,2|0,0:0|0:0,0:0:0:0:
505,167,73057,2,0,B|517:204|503:240,1,75.0000028610231,2|0,3:2|0:0,0:0:0:0:
289,162,73271,22,0,P|330:155|372:163,1,85.0000016212464,10|0,0:0|0:0,0:0:0:0:
196,372,73485,2,0,P|188:330|195:288,1,85.0000016212464,2|0,0:0|0:0,0:0:0:0:
210,56,73700,38,0,B|230:146|175:104|202:201,1,150,0|0,3:0|0:0,0:0:0:0:
7,73,74128,22,0,B|75:36|75:36|142:90,1,150.000005722046,8|0,0:0|0:0,0:0:0:0:
67,146,74450,1,0,3:0:0:0:
218,119,74557,2,0,B|227:79|227:79|214:33,1,75.0000028610231,2|0,0:2|0:0,0:0:0:0:
167,259,74771,2,0,B|197:286|197:286|243:298,1,75.0000028610231,2|0,3:2|0:0,0:0:0:0:
67,146,74985,2,0,B|27:158|27:158|-5:192,1,75.0000028610231,10|0,0:2|0:0,0:0:0:0:
232,138,75200,1,2,0:0:0:0:
232,138,75307,1,0,0:0:0:0:
145,78,75414,6,0,L|141:4,1,75.0000028610231,2|2,3:2|0:2,0:0:0:0:
40,241,75628,2,0,L|45:331,1,75.0000028610231,2|0,3:2|0:0,0:0:0:0:
346,246,75842,2,0,B|295:221|239:236|239:236|251:255|250:278,1,150.000005722046,10|0,0:2|0:0,0:0:0:0:
152,292,76164,1,0,3:0:0:0:
238,147,76271,2,0,P|276:143|313:147,1,75.0000028610231,2|0,0:2|0:0,0:0:0:0:
157,309,76485,2,0,P|119:313|82:309,1,75.0000028610231,2|0,3:2|0:0,0:0:0:0:
37,184,76646,1,0,3:0:0:0:
37,184,76700,2,0,B|71:178|71:178|114:190,1,75.0000028610231,10|0,0:2|0:0,0:0:0:0:
312,291,76914,21,0,3:0:0:0:
312,291,77128,2,0,B|259:303|259:303|232:329|232:329|154:350,1,150.000005722046,4|0,3:0|0:0,0:0:0:0:
124,263,77450,1,0,0:0:0:0:
59,193,77557,2,0,B|16:253|16:253|57:342,1,150.000005722046,8|0,0:2|0:0,0:0:0:0:
152,165,77878,1,0,3:0:0:0:
214,240,77985,6,0,B|253:241|253:241|290:223,1,75.0000028610231,2|0,0:2|0:0,0:0:0:0:
170,38,78200,2,0,B|131:37|131:37|94:55,1,75.0000028610231,2|0,3:2|0:0,0:0:0:0:
329,88,78414,6,0,B|330:45|330:45|310:6,1,85.0000016212464,10|0,0:2|0:0,0:0:0:0:
78,195,78628,2,0,B|77:238|77:238|97:277,1,85.0000016212464,2|0,0:2|0:0,0:0:0:0:
382,241,78842,22,0,L|307:244,1,75.0000028610231,0|0,3:0|0:0,0:0:0:0:
210,268,79057,1,2,3:2:0:0:
210,268,79164,1,0,0:0:0:0:
285,366,79271,2,0,B|324:344|324:344|365:366|365:366|454:362,1,150.000005722046,10|0,0:2|0:0,0:0:0:0:
232,273,79592,1,0,3:0:0:0:
176,366,79700,2,0,P|129:364|83:331,1,75.0000028610231,2|0,0:2|0:0,0:0:0:0:
309,197,79914,2,0,P|330:238|325:295,1,75.0000028610231,2|0,3:2|0:0,0:0:0:0:
99,168,80128,6,0,P|124:128|178:103,1,85.0000016212464,10|0,0:0|0:0,0:0:0:0:
336,303,80342,2,0,P|288:301|240:267,1,85.0000016212464,2|0,0:0|0:0,0:0:0:0:
300,78,80557,22,0,B|387:66|350:121|450:119,1,150,0|0,3:0|0:0,0:0:0:0:
231,140,80985,38,0,B|173:90|173:90|225:22,1,150.000005722046,8|0,0:0|0:0,0:0:0:0:
300,78,81307,1,0,3:0:0:0:
171,200,81414,2,0,L|97:140,1,75.0000028610231,2|0,0:2|0:0,0:0:0:0:
341,250,81628,2,0,L|326:344,1,75.0000028610231,2|0,3:2|0:0,0:0:0:0:
300,78,81842,2,0,L|388:43,1,75.0000028610231,10|0,0:2|0:0,0:0:0:0:
275,173,82057,1,2,0:2:0:0:
275,173,82164,1,0,0:0:0:0:
420,180,82271,22,0,P|444:233|437:281,1,75.0000028610231,2|0,3:2|0:0,0:0:0:0:
353,101,82485,2,0,P|406:77|454:84,1,75.0000028610231,2|0,3:2|0:0,0:0:0:0:
275,173,82700,2,0,P|255:141|250:104,1,75.0000028610231,10|0,0:0|0:0,0:0:0:0:
345,257,82914,2,0,P|313:276|276:281,1,75.0000028610231,2|0,0:0|3:0,0:0:0:0:
40,81,83128,6,0,P|76:70|113:69,1,75.0000028610231,2|0,0:2|0:0,0:0:0:0:
145,255,83342,2,0,P|108:265|71:266,1,75.0000028610231,2|0,3:2|3:0,0:0:0:0:
57,175,83503,1,0,3:0:0:0:
57,175,83557,2,0,P|91:164|129:163,1,75.0000028610231,10|0,0:0|3:0,0:0:0:0:
161,344,83771,2,0,P|124:354|87:355,1,75.0000028610231,2|0,0:0|0:0,0:0:0:0:
220,206,83985,6,0,B|262:198|262:198|294:217|294:217|325:203|325:203|357:232|395:220,1,187.5,6|0,3:2|0:0,0:0:0:0:
383,140,84414,2,0,P|378:109|404:47,2,62.5,2|0|0,0:0|0:0|0:0,0:0:0:0:
480,112,84735,1,0,3:0:0:0:
281,115,84842,2,0,P|250:120|185:101,1,62.5,8|0,0:0|0:0,0:0:0:0:
335,249,85057,2,0,P|366:244|431:263,1,62.5
189,250,85271,2,0,L|204:399,1,125,2|0,0:0|0:0,0:0:0:0:
98,200,85592,1,0,3:0:0:0:
99,305,85700,38,0,L|105:374,1,62.5,0|0,3:0|0:0,0:0:0:0:
178,138,85914,2,0,L|172:75,1,62.5,0|0,3:0|0:0,0:0:0:0:
20,213,86128,2,0,B|65:208|65:208|99:221|99:221|142:216,1,125,2|0,0:0|0:0,0:0:0:0:
254,204,86450,1,0,3:0:0:0:
208,308,86557,2,0,L|142:339,1,62.5,8|0,0:0|0:0,0:0:0:0:
127,98,86771,2,0,L|189:111,1,62.5,0|0,3:0|0:0,0:0:0:0:
343,220,86985,22,0,B|334:189|345:166|345:166|335:144|335:144|346:121|346:121|352:105|344:54,1,150,2|0,0:0|0:0,0:0:0:0:
424,149,87414,37,4,3:2:0:0:
424,149,87521,1,0,0:0:0:0:
260,112,87628,2,0,P|253:158|262:181,1,62.5,2|0,0:0|0:0,0:0:0:0:
334,284,87842,2,0,P|267:278|221:316,1,125,2|0,0:0|0:0,0:0:0:0:
296,365,88164,1,0,3:0:0:0:
142,349,88271,2,0,L|80:359,1,62.5,8|0,0:0|0:0,0:0:0:0:
233,197,88485,2,0,L|305:187,1,62.5,2|0,0:0|0:0,0:0:0:0:
123,114,88700,2,0,L|0:131,1,125,2|0,0:0|0:0,0:0:0:0:
231,158,89021,1,0,3:0:0:0:
207,66,89128,38,0,L|219:5,1,62.5,0|0,3:0|0:0,0:0:0:0:
151,200,89342,2,0,L|163:261,1,62.5
74,129,89557,2,0,P|44:140|14:144,2,62.5,2|0|0,0:0|0:0|0:0,0:0:0:0:
169,163,89878,1,0,3:0:0:0:
183,64,89985,2,0,P|217:69|257:88,1,62.5,8|0,0:0|0:0,0:0:0:0:
385,165,90200,2,0,P|323:164|271:198,1,125,0|0,3:0|0:0,0:0:0:0:
115,285,90521,2,0,P|176:284|228:318,1,125,0|0,3:0|0:0,0:0:0:0:
385,258,90842,6,0,P|319:298|394:355,1,187.5,4|0,3:2|0:0,0:0:0:0:
476,281,91271,2,0,B|490:249|473:217|473:217|488:193|479:159,1,125,2|0,0:0|0:0,0:0:0:0:
385,258,91592,1,0,3:0:0:0:
331,160,91700,2,0,B|302:156|302:156|270:166,1,62.5,8|0,0:0|0:0,0:0:0:0:
437,65,91914,2,0,B|447:33|447:33|443:4,1,62.5
221,73,92128,2,0,B|308:51|308:51|345:64,1,125,2|0,0:0|0:0,0:0:0:0:
175,163,92450,1,0,3:0:0:0:
119,86,92557,38,0,L|136:26,1,62.5,0|0,3:0|0:0,0:0:0:0:
270,165,92771,2,0,L|287:224,1,62.5,0|0,3:0|0:0,0:0:0:0:
83,176,92985,2,0,L|48:296,1,125,2|0,0:0|0:0,0:0:0:0:
173,106,93307,1,0,3:0:0:0:
180,200,93414,2,0,L|182:286,1,62.5,8|0,0:0|0:0,0:0:0:0:
167,12,93628,1,0,3:0:0:0:
336,137,93842,22,0,B|387:82|387:82|318:35,1,150,2|0,0:0|0:0,0:0:0:0:
146,106,94271,21,6,3:2:0:0:
146,106,94378,2,0,B|193:63|193:63|265:111,1,125
201,191,94700,1,2,0:0:0:0:
203,209,94807,1,0,0:0:0:0:
205,227,94914,1,2,0:0:0:0:
207,245,95021,1,0,3:0:0:0:
105,158,95128,6,0,L|26:169,1,75.0000028610231,10|0,0:2|0:0,0:0:0:0:
297,303,95342,2,0,L|376:292,1,75.0000028610231,2|0,0:2|0:0,0:0:0:0:
285,14,95557,2,0,B|250:46|250:46|246:101|246:101|293:141,1,150.000005722046,2|0,0:0|0:0,0:0:0:0:
378,77,95878,1,0,3:0:0:0:
140,64,95985,21,4,3:2:0:0:
208,132,97057,37,0,0:0:0:0:
208,132,97271,2,2,L|197:92,7,37.5000014305115,10|2|2|2|2|2|2|2,0:0|0:0|0:0|0:0|0:0|0:0|0:0|0:0,0:0:0:0:
362,179,97700,6,0,B|257:175|315:240|175:242,1,170.000003242493,6|0,3:2|0:0,0:0:0:0:
355,283,98021,1,0,0:0:0:0:
179,327,98128,2,8,B|113:272|113:272|137:190,1,170.000003242493,10|0,0:2|0:0,0:0:0:0:
241,68,98450,2,0,P|157:96|89:26,1,170.000003242493,0|0,3:0|0:0,0:0:0:0:
326,26,98771,1,0,3:0:0:0:
274,150,98878,1,0,0:0:0:0:
392,93,98985,2,0,P|430:90|476:130,1,85.0000016212464,10|0,0:2|0:0,0:0:0:0:
292,235,99200,2,0,P|254:238|208:198,1,85.0000016212464,2|0,0:2|0:0,0:0:0:0:
405,194,99414,6,0,B|419:231|419:231|405:278,1,85.0000016212464,0|0,3:0|0:0,0:0:0:0:
291,131,99628,1,0,3:0:0:0:
376,74,99735,1,0,0:0:0:0:
292,235,99842,2,0,B|245:236|217:201|217:201|192:236|144:238,1,170.000003242493,10|0,0:0|0:0,0:0:0:0:
384,189,100164,2,0,B|408:229|392:270|392:270|434:275|460:314,1,170.000003242493,2|0,3:2|0:0,0:0:0:0:
291,131,100485,2,0,B|304:109|322:100|322:100|316:80|323:60,1,85.0000016212464,2|0,3:2|0:0,0:0:0:0:
159,44,100700,22,0,P|125:118|202:120,1,150,10|0,0:0|0:0,0:0:0:0:
238,245,101128,38,0,B|151:231|151:231|64:267,1,170.000003242493,2|0,3:2|0:0,0:0:0:0:
272,59,101450,1,0,0:0:0:0:
257,153,101557,2,0,B|341:169|341:169|431:131,1,170.000003242493,10|0,0:0|0:0,0:0:0:0:
183,93,101878,2,0,B|124:157|124:157|193:232,1,170.000003242493,2|0,3:2|0:0,0:0:0:0:
253,348,102200,2,0,L|169:331,1,85.0000016212464,2|0,3:2|0:0,0:0:0:0:
0,258,102414,6,0,B|49:231|49:231|90:273,1,112.500004291535,10|0,0:2|0:0,0:0:0:0:
230,259,102842,6,0,B|242:217|242:217|229:174,1,85.0000016212464,0|0,3:0|0:0,0:0:0:0:
98,15,103057,1,0,3:0:0:0:
26,84,103164,1,0,0:0:0:0:
175,79,103271,2,0,B|297:90|297:90|256:44,1,170.000003242493,10|0,0:2|0:0,0:0:0:0:
26,84,103592,2,0,B|14:206|14:206|60:165,1,170.000003242493,2|0,3:2|0:0,0:0:0:0:
207,356,103914,2,0,B|112:365,1,85.0000016212464,2|0,3:2|3:0,0:0:0:0:
53,298,104075,1,0,3:0:0:0:
53,298,104128,2,0,B|88:269|88:269|142:267,1,85.0000016212464,8|0,0:0|3:0,0:0:0:0:
290,159,104342,1,2,2:0:0:0:
185,168,104450,1,0,0:0:0:0:
344,253,104557,6,0,B|379:240|410:257|410:257|443:241|443:241|472:263|510:251,1,170.000003242493,6|0,3:2|0:0,0:0:0:0:
338,134,104878,1,0,0:0:0:0:
249,199,104985,2,2,B|190:136|190:136|246:73,1,170.000003242493,10|0,0:0|0:0,0:2:0:0:
427,69,105307,2,0,B|485:131|485:131|429:194,1,170.000003242493,2|0,3:2|0:0,0:0:0:0:
353,357,105628,1,0,3:0:0:0:
421,289,105735,1,0,0:0:0:0:
275,294,105842,2,0,P|225:295|179:272,1,85.0000016212464,10|0,0:0|0:0,0:0:0:0:
428,194,106057,2,0,P|478:193|524:216,1,85.0000016212464,2|0,0:0|0:0,0:0:0:0:
296,132,106271,6,0,L|292:39,1,85.0000016212464,0|0,3:0|0:0,0:0:0:0:
299,247,106485,1,0,3:0:0:0:
379,190,106592,1,0,0:0:0:0:
214,193,106700,2,0,B|112:170|162:248|42:239,1,170.000003242493,10|0,0:0|0:0,0:0:0:0:
281,116,107021,2,0,B|330:149|330:149|333:208|333:208|287:261,1,170.000003242493,2|0,3:2|0:0,0:0:0:0:
65,150,107342,2,0,B|47:109|47:109|69:50,1,85.0000016212464,2|0,3:2|0:0,0:0:0:0:
165,230,107557,6,0,B|161:260|171:286|171:286|151:320|151:320|163:349|156:386,1,150,10|0,0:2|0:0,0:0:0:0:
111,157,107985,6,0,B|152:137|174:99|174:99|190:139|233:167,1,170.000003242493,2|0,3:2|0:0,0:0:0:0:
78,251,108307,1,0,0:0:0:0:
249,252,108414,2,0,B|306:244|306:244|356:266|356:266|445:255,1,170.000003242493,10|0,0:0|0:0,0:0:0:0:
198,337,108735,2,0,B|141:329|141:329|91:351|91:351|2:340,1,170.000003242493,2|0,3:2|0:0,0:0:0:0:
226,162,109057,2,0,L|321:148,1,85.0000016212464,2|0,3:2|0:0,0:0:0:0:
75,132,109271,38,0,P|48:194|95:211,1,112.500004291535,10|0,0:2|0:0,0:0:0:0:
26,65,109700,22,0,P|52:52|118:63,1,85.0000016212464,0|0,3:0|0:0,0:0:0:0:
237,168,109914,2,0,P|211:181|145:170,1,85.0000016212464,0|0,3:0|0:0,0:0:0:0:
327,35,110128,2,0,B|285:140|362:103|323:229,1,170.000003242493,8|0,0:0|0:0,0:0:0:0:
405,85,110450,1,0,3:0:0:0:
237,168,110557,2,0,P|217:96|246:0,1,170.000003242493,10|0,0:0|0:0,0:0:0:0:
431,210,110878,2,0,P|451:282|422:378,1,170.000003242493,10|0,0:0|0:0,0:0:0:0:
258,286,111200,2,0,P|299:279|341:285,1,85.0000016212464,10|0,0:0|0:0,0:0:0:0:
170,347,111414,38,0,B|146:300|146:300|164:244,1,100,4|0,3:1|0:0,0:0:0:0:
163,122,111735,2,0,B|115:144|115:144|60:128,1,100,2|0,0:0|0:0,0:0:0:0:
264,47,112057,1,0,0:0:0:0:
264,47,112164,1,0,3:0:0:0:
270,172,112271,22,0,B|302:155|302:155|332:153|332:153|363:165,1,100,10|0,0:0|0:0,0:0:0:0:
201,268,112592,2,0,B|170:280|170:280|140:278|140:278|108:261,1,100,2|0,0:0|0:0,0:0:0:0:
300,326,112914,1,0,0:0:0:0:
300,326,113021,1,0,3:0:0:0:
186,169,113128,21,0,3:0:0:0:
186,169,113342,2,2,B|242:159|253:106|253:106|286:153|342:139,1,200,0|0,3:0|0:0,0:0:0:0:
174,87,113878,1,0,3:0:0:0:
275,220,113985,2,0,B|290:291,1,50,8|0,0:0|0:0,0:0:0:0:
327,57,114200,2,0,B|337:9,1,50,2|0,3:2|0:0,0:0:0:0:
195,29,114414,37,2,0:0:0:0:
172,33,114521,1,0,0:0:0:0:
149,37,114628,1,2,0:0:0:0:
126,41,114735,1,0,0:0:0:0:
280,95,114842,6,0,B|305:56|305:56|299:3,1,100,0|0,3:0|0:0,0:0:0:0:
210,180,115164,2,0,B|204:233|204:233|229:272,1,100,2|0,0:0|0:0,0:0:0:0:
136,111,115485,1,0,0:0:0:0:
136,111,115592,1,0,3:0:0:0:
303,190,115700,2,0,B|326:177|326:177|351:179|351:179|372:168|372:168|396:172,1,100,10|0,0:0|0:0,0:0:0:0:
281,103,116021,1,0,0:0:0:0:
250,260,116128,2,2,B|241:289|241:289|245:311|245:311|235:358,2,66.6666666666667
65,328,116557,22,0,B|127:328|101:290|165:291,1,100,0|0,3:0|0:0,0:0:0:0:
250,260,116878,1,2,0:0:0:0:
174,195,116985,2,0,P|169:164|174:144,1,50,2|0,3:2|0:0,0:0:0:0:
335,206,117200,1,2,0:0:0:0:
335,206,117307,1,0,3:0:0:0:
270,360,117414,2,0,P|241:362|221:357,1,50,8|0,0:0|0:0,0:0:0:0:
332,191,117628,2,0,P|363:186|443:234,1,100,2|0,3:2|0:0,0:0:0:0:
250,260,117950,2,0,P|227:216|230:166,1,100,2|0,3:2|0:0,0:0:0:0:
342,46,118271,22,0,B|300:53|280:95|280:95|193:71|219:25|257:0,1,225.000008583069,6|0,3:2|0:0,0:0:0:0:
361,135,119021,1,0,3:0:0:0:
201,153,119128,2,0,P|179:141|148:65,1,75.0000028610231,8|0,0:0|0:0,0:0:0:0:
285,178,119450,1,0,0:0:0:0:
285,178,119557,2,0,P|296:218|289:258,1,75.0000028610231,2|0,0:0|0:0,0:0:0:0:
206,354,119878,1,0,3:0:0:0:
365,365,119985,21,0,3:0:0:0:
365,365,120200,2,0,B|386:361|400:341|400:341|434:350|465:336|465:336|485:352|507:351,1,150.000005722046,0|0,3:0|0:0,0:0:0:0:
423,229,120735,1,0,3:0:0:0:
291,250,120842,2,0,P|293:215|309:186,1,37.5000014305115,8|0,0:0|0:0,0:0:0:0:
279,64,121057,6,0,B|325:54|374:86|387:131|387:131|409:118|435:125,1,187.500007152558,2|0,3:2|0:0,3:0:0:0:
286,174,121700,6,0,L|253:182,2,25,4|0|0,3:2|1:0|1:0,0:0:0:0:
329,270,121914,5,0,1:0:0:0:
291,283,122021,1,0,1:0:0:0:
252,293,122128,2,0,L|219:301,2,25,0|0|0,1:0|1:0|1:0,0:0:0:0:
161,227,122342,37,0,1:0:0:0:
111,237,122450,1,0,1:0:0:0:
62,246,122557,2,0,L|29:254,2,25,0|0|0,1:0|1:0|1:0,0:0:0:0:
178,112,122771,5,0,1:0:0:0:
119,126,122878,1,0,1:0:0:0:
60,139,122985,2,0,L|21:148,2,25,0|0|0,1:0|1:0|1:0,0:0:0:0:
174,330,123200,37,0,1:0:0:0:
105,344,123307,1,0,1:0:0:0:
36,357,123414,2,2,L|-3:362,7,25,2|2|2|2|2|2|2|2,1:2|1:2|1:2|1:2|1:2|1:2|1:2|1:2,1:2:0:0:
174,330,123842,2,2,L|197:361,7,25,2|2|2|2|2|2|2|2,1:2|1:2|1:2|1:2|1:2|1:2|1:2|1:2,1:2:0:0:
94,214,124271,2,2,L|109:177,7,25,2|2|2|2|2|2|2|2,1:2|1:2|1:2|1:2|1:2|1:2|1:2|1:2,1:2:0:0:
219,228,124700,5,0,1:0:0:0:
219,228,124807,1,0,1:0:0:0:
219,228,124914,2,0,L|251:149,1,50,0|0,1:0|0:0,0:0:0:0:
310,98,125128,22,0,B|290:93|290:93|268:104|268:104|248:94|222:101,1,89.9999972534181,2|0,3:2|0:0,0:0:0:0:
363,207,125557,6,0,B|416:152|416:152|381:58,1,150.000005722046,10|0,0:0|0:0,0:0:0:0:
297,305,125878,2,0,L|463:291,1,150.000005722046,2|0,3:2|0:0,0:0:0:0:
299,102,126200,2,0,L|165:93,1,75.0000028610231,2|0,3:2|0:0,0:0:0:0:
294,329,126414,2,0,L|428:320,1,75.0000028610231,10|0,0:0|0:0,0:0:0:0:
304,124,126628,2,0,L|170:115,1,75.0000028610231,2|0,0:0|0:0,0:0:0:0:
69,98,126842,6,0,P|58:133|70:169,1,75.0000028610231,0|0,3:0|0:0,0:0:0:0:
180,325,127057,1,0,3:0:0:0:
180,325,127164,1,0,0:0:0:0:
185,230,127271,2,0,B|105:222|132:280|41:269,1,150.000005722046,8|0,0:0|0:0,0:0:0:0:
267,165,127592,2,0,B|310:225|310:225|265:306,1,150.000005722046,2|0,3:2|0:0,0:0:0:0:
208,78,127914,2,0,B|246:58|246:58|290:68,1,85.0000016212464,2|0,3:2|0:0,0:0:0:0:
122,136,128128,2,0,B|102:98|102:98|112:54,1,85.0000016212464,10|0,0:2|0:0,0:0:0:0:
384,22,128342,2,0,B|404:60|404:60|394:104,1,85.0000016212464,2|0,0:2|0:0,0:0:0:0:
212,206,128557,22,0,P|262:156|321:209,1,150,2|0,3:2|0:0,0:0:0:0:
142,297,128985,38,0,B|22:303|22:303|61:255,1,150.000005722046,10|0,0:0|0:0,0:0:0:0:
212,206,129307,2,0,B|277:306|277:306|216:297,1,150.000005722046,2|0,3:2|0:0,0:0:0:0:
141,125,129628,2,0,L|138:25,1,75.0000028610231,2|0,3:2|0:0,0:0:0:0:
48,173,129842,2,0,L|51:273,1,75.0000028610231,10|0,0:0|0:0,0:0:0:0:
237,242,130057,2,0,L|234:167,1,75.0000028610231,2|0,0:0|0:0,0:0:0:0:
248,376,130271,21,2,3:2:0:0:
300,311,130378,1,2,0:0:0:0:
177,318,130485,2,0,P|146:308|97:270,1,75.0000028610231,0|0,3:0|0:0,0:0:0:0:
390,256,130700,2,0,P|400:285|398:348,1,75.0000028610231,8|0,0:0|0:0,0:0:0:0:
243,175,130914,1,0,0:0:0:0:
350,152,131021,2,0,P|429:150|477:203,1,150.000005722046,0|0,3:0|0:0,0:0:0:0:
243,175,131342,2,0,P|243:137|255:102,1,75.0000028610231,0|0,3:0|3:0,0:0:0:0:
351,45,131503,1,0,3:0:0:0:
351,44,131557,2,0,P|387:38|424:43,1,75.0000028610231,10|0,0:2|3:0,0:0:0:0:
283,263,131771,2,0,P|246:268|209:261,1,75.0000028610231,2|0,0:0|0:0,0:0:0:0:
75,106,131985,38,0,B|115:92|147:113|147:113|163:102|168:77,1,112.500004291535,2|0,3:2|0:0,0:0:0:0:
98,223,132414,22,0,B|68:285|68:285|109:359,1,150.000005722046,10|0,0:2|0:0,0:0:0:0:
321,253,132735,2,0,B|262:255|262:255|235:281|235:281|152:287,1,150.000005722046,2|0,3:2|0:0,0:0:0:0:
395,189,133057,2,0,P|417:243|410:274,1,75.0000028610231,2|0,3:2|0:0,0:0:0:0:
319,88,133271,2,0,P|373:66|404:73,1,75.0000028610231,10|0,0:0|0:0,0:0:0:0:
204,111,133485,2,0,P|208:52|227:30,1,75.0000028610231,2|0,0:0|0:0,0:0:0:0:
269,219,133700,6,0,L|276:310,1,75.0000028610231,0|0,3:0|0:0,0:0:0:0:
69,300,133914,1,0,3:0:0:0:
69,300,134021,1,0,0:0:0:0:
176,369,134128,2,0,L|167:193,1,150.000005722046,8|0,0:0|0:0,0:0:0:0:
97,56,134450,2,0,B|155:105|155:105|206:51,1,150.000005722046,2|0,3:2|0:0,0:0:0:0:
12,117,134771,2,0,L|84:176,1,85.0000016212464,2|0,3:2|0:0,0:0:0:0:
299,99,134985,2,0,L|243:162,1,85.0000016212464,10|0,0:2|0:0,0:0:0:0:
176,369,135200,2,0,L|173:280,1,85.0000016212464,2|0,0:0|0:0,0:0:0:0:
164,7,135414,6,0,B|175:48|175:48|161:82|161:82|173:115|173:115|160:148,1,150,2|0,3:2|0:0,0:0:0:0:
391,193,135842,6,0,B|273:203|273:203|313:240,1,150.000005722046,10|0,0:2|0:0,0:0:0:0:
107,266,136164,2,0,B|224:277|224:277|183:315,1,150.000005722046,2|0,3:2|0:0,0:0:0:0:
20,321,136485,2,0,L|9:241,1,75.0000028610231,2|0,3:2|0:0,0:0:0:0:
205,82,136700,2,0,B|223:113|223:113|215:161,1,75.0000028610231,10|0,0:0|0:0,0:0:0:0:
0,118,136914,2,2,L|73:127,1,75.0000028610231,0|0,0:0|0:0,0:0:0:0:
352,165,137128,5,6,3:2:0:0:
256,192,137235,12,8,138414,0:0:0:0:
309,340,138842,6,0,B|256:316|256:316|190:341,1,112.500004291535,6|0,3:2|0:0,0:0:0:0:
123,363,139271,2,0,L|130:289,1,75.0000028610231,2|0,0:2|0:0,0:0:0:0:
81,208,139592,1,0,0:0:0:0:
176,202,139700,2,0,L|233:195,1,37.5000014305115,2|0,0:0|0:0,0:0:0:0:
80,117,139914,2,0,L|23:124,1,37.5000014305115,2|0,0:0|0:0,0:0:0:0:
177,223,140128,2,0,L|291:209,1,112.500004291535,2|0,0:0|0:0,0:0:0:0:
344,147,140557,6,0,P|370:195|361:249,1,112.500004291535,2|0,0:2|0:0,0:0:0:0:
241,325,140985,2,0,B|268:333|296:321|296:321|314:343|346:343,1,112.500004291535,2|0,0:0|0:0,0:0:0:0:
442,310,141414,2,0,P|452:343|451:364,1,37.5000014305115,2|0,0:0|0:0,0:0:0:0:
361,249,141628,2,0,P|364:230|371:213,1,37.5000014305115,2|0,0:0|0:0,0:0:0:0:
451,161,141842,5,2,0:0:0:0:
364,119,141950,2,0,P|331:69|401:14,1,150.000005722046,6|0,3:2|0:0,0:0:0:0:
279,216,142271,2,0,P|274:278|290:307,1,75.0000028610231,2|0,3:2|0:0,0:0:0:0:
458,256,142485,2,0,P|396:251|367:267,1,75.0000028610231,2|0,3:2|0:0,0:0:0:0:
290,115,142700,38,0,B|205:105|235:160|151:157,1,150,2|0,0:0|0:0,0:0:0:0:
278,204,143128,2,0,P|281:229|273:257,1,50,2|0,0:0|0:0,0:0:0:0:
157,66,143342,2,0,P|151:41|154:17,1,50,2|0,0:0|0:0,0:0:0:0:
63,206,143557,2,0,P|21:170|75:104,1,150,2|0,0:2|0:0,0:0:0:0:
152,157,143985,6,0,L|281:168,1,100,2|0,1:2|0:0,0:0:0:0:
63,206,144307,1,0,0:0:0:0:
147,258,144414,2,0,L|218:264,2,50,2|0|0,1:2|1:0|0:0,0:0:0:0:
63,307,144735,1,0,1:0:0:0:
141,359,144842,6,0,L|206:362,1,62.5,2|0,1:2|0:0,0:0:0:0:
302,372,145057,2,0,L|367:375,1,62.5,2|0,1:2|0:0,0:0:0:0:
203,163,145271,22,0,L|344:178,1,112.500004291535,2|0,0:0|0:0,0:0:0:0:
120,211,145700,38,0,B|101:154|101:154|132:103,1,112.500004291535,6|0,3:2|0:0,0:0:0:0:
144,16,146128,2,0,L|38:25,1,75.0000028610231,2|0,0:0|0:0,0:0:0:0:
203,163,146450,1,0,3:0:0:0:
260,90,146557,22,0,B|299:75|299:75|343:89,1,85.0000016212464,10|0,0:2|0:0,0:0:0:0:
141,234,146771,2,0,B|104:251|104:251|60:237,1,85.0000016212464,2|0,0:2|0:0,0:0:0:0:
128,109,146985,5,2,0:2:0:0:
137,72,147092,1,0,0:0:0:0:
279,232,147200,37,2,0:2:0:0:
270,269,147307,1,0,3:0:0:0:
441,145,147414,22,0,P|494:180|507:211,1,75.0000028610231,0|0,3:0|0:0,0:0:0:0:
300,91,147628,2,0,P|303:27|324:0,1,75.0000028610231,0|0,3:0|0:0,0:0:0:0:
279,232,147842,6,0,L|281:335,1,75.0000028610231,2|0,0:0|0:0,0:0:0:0:
350,161,148164,1,0,3:0:0:0:
419,236,148271,6,0,B|460:244|460:244|501:224,1,85.0000016212464,10|0,0:2|0:0,0:0:0:0:
287,90,148485,2,0,B|246:82|246:82|205:102,1,85.0000016212464,2|0,3:2|0:0,0:0:0:0:
297,246,148700,5,2,0:2:0:0:
334,244,148807,1,0,0:0:0:0:
124,247,148914,37,2,0:2:0:0:
87,249,149021,1,0,0:0:0:0:
204,198,149128,38,0,P|216:265|194:312,1,112.500004291535,2|0,3:2|0:0,0:0:0:0:
16,288,149557,2,0,P|6:240|18:208,1,75.0000028610231,2|0,0:0|0:0,0:0:0:0:
155,42,149878,1,0,3:0:0:0:
79,120,149985,6,0,B|36:125|36:125|0:104,1,85.0000016212464,10|0,0:2|0:0,0:0:0:0:
211,248,150200,2,0,B|236:281|236:281|237:324,1,85.0000016212464,2|0,0:2|0:0,0:0:0:0:
255,79,150414,2,0,B|271:39|271:39|307:18,1,85.0000016212464,2|0,0:2|0:0,0:0:0:0:
183,155,150628,1,2,0:2:0:0:
183,155,150735,1,0,3:0:0:0:
328,165,150842,38,0,B|386:155|386:155|450:183,1,112.500004291535,2|0,3:2|0:0,0:0:0:0:
279,72,151271,2,0,B|240:77|240:77|206:63,1,75.0000028610231,2|0,3:2|0:0,0:0:0:0:
128,151,151592,1,0,3:0:0:0:
208,232,151700,2,0,L|204:291,1,37.5000014305115,8|0,0:0|0:0,0:0:0:0:
52,76,151914,2,0,L|62:-29,1,75.0000028610231,0|0,3:0|0:0,0:0:0:0:
128,151,152235,1,0,3:0:0:0:
42,217,152342,2,0,L|38:276,1,37.5000014305115,2|0,0:0|0:0,0:0:0:0:
210,73,152557,6,0,L|217:17,1,50,2|0,0:0|0:0,0:0:0:0:
210,73,152985,38,0,L|285:73,1,75.0000028610231,6|0,3:2|0:0,0:0:0:0:
246,218,153307,1,0,3:0:0:0:
118,106,153414,6,0,B|103:66|103:66|126:26,1,85.0000016212464,10|0,0:2|0:0,0:0:0:0:
387,29,153628,2,0,B|409:66|409:66|394:106,1,85.0000016212464,2|0,0:2|0:0,0:0:0:0:
250,64,153842,5,2,0:0:0:0:
251,26,153950,1,2,0:0:0:0:
207,224,154057,37,2,0:0:0:0:
206,262,154165,1,0,3:0:0:0:
100,124,154271,22,0,L|20:130,1,75.0000028610231,0|0,3:0|0:0,0:0:0:0:
205,301,154485,2,0,L|284:294,1,75.0000028610231,0|0,3:0|0:0,0:0:0:0:
447,108,154700,6,0,B|410:96|410:96|371:110,1,75.0000028610231,2|0,0:0|0:0,3:0:0:0:
198,151,155021,1,0,3:0:0:0:
289,41,155128,6,8,B|293:79|293:79|279:104|279:104|297:130|289:168,2,133.333333333333,10|10|10,0:0|0:0|0:0,0:0:0:0:
296,259,155557,38,0,B|327:259|349:239|349:239|373:238|398:259,1,112.500004291535,14|0,0:2|0:0,0:0:0:0:
191,379,155985,38,0,P|173:320|197:269,1,112.500004291535,6|0,3:2|0:0,0:0:0:0:
231,181,156414,2,0,P|185:192|146:173,1,75.0000028610231,2|0,0:0|0:0,0:0:0:0:
194,109,156735,1,0,3:0:0:0:
86,232,156842,22,0,B|70:189|70:189|85:153,1,85.0000016212464,10|0,0:2|0:0,0:0:0:0:
320,148,157057,2,0,B|335:183|335:183|319:226,1,85.0000016212464,2|0,0:2|0:0,0:0:0:0:
153,40,157271,2,0,B|188:24|188:24|231:40,1,85.0000016212464,2|0,0:2|0:0,0:0:0:0:
195,154,157485,1,2,0:0:0:0:
195,154,157592,1,0,3:0:0:0:
330,49,157700,22,0,L|433:57,1,75.0000028610231,6|0,3:2|0:0,0:0:0:0:
227,132,158021,6,0,L|118:139,1,94.9999974632264,2|0,0:2|0:0,0:0:0:0:
331,211,158342,37,2,0:0:0:0:
331,211,158450,2,0,L|451:223,1,115.000002193451,2|0,0:2|0:0,0:0:0:0:
149,230,158771,22,0,L|237:224,1,67.5000002574921,2|0,0:0|0:0,0:0:0:0:
408,132,158985,6,0,L|314:124,1,77.5000005912781,2|0,0:0|0:0,0:0:0:0:
113,48,159200,38,0,L|209:42,1,87.500000834465,2|0,0:0|0:0,0:0:0:0:
496,37,159414,5,6,3:2:0:0:
414,58,166271,6,0,P|426:102|412:162,1,100,2|0,1:2|0:0,0:0:0:0:
357,288,166592,1,0,0:0:0:0:
426,242,166700,2,0,P|468:240|507:262,1,50,0|0,1:0|0:0,0:0:0:0:
341,205,166914,2,0,P|299:207|260:185,1,50
202,150,167128,2,0,P|190:194|204:254,1,100,2|0,1:2|0:0,0:0:0:0:
312,107,167450,2,0,P|324:63|321:37,2,50,2|0|0,0:2|1:0|0:0,0:0:0:0:
225,53,167771,2,0,P|183:51|144:73,1,50,2|0,0:0|0:0,0:0:0:0:
101,127,167985,38,0,P|36:125|-5:104,1,100,0|0,1:0|0:0,0:0:0:0:
197,155,168307,2,0,P|227:212|228:235,2,50,2|0|0,0:0|1:0|0:0,0:0:0:0:
175,53,168628,2,0,P|209:-2|229:-17,1,50,2|0,0:0|0:0,0:0:0:0:
85,131,168842,6,0,L|17:122,1,50,2|0,1:2|0:0,0:0:0:0:
33,235,169057,2,0,L|83:229,1,50,2|0,0:0|0:0,0:0:0:0:
312,114,169271,38,0,L|263:121,1,50,2|0,1:2|0:0,0:0:0:0:
265,219,169486,2,0,L|314:225,1,50,2|0,0:0|0:0,0:0:0:0:
175,176,169700,38,0,L|172:211,2,25,0|0|0,3:0|1:0|1:0,0:0:0:0:
55,59,169914,5,0,3:0:0:0:
50,98,170021,1,0,1:0:0:0:
44,137,170128,2,0,L|41:172,2,25,0|0|0,3:0|1:0|1:0,0:0:0:0:
88,253,170342,37,0,3:0:0:0:
81,303,170450,1,0,1:0:0:0:
76,352,170557,2,0,L|73:387,2,25,0|0|0,3:0|1:0|1:0,0:0:0:0:
215,197,170771,5,0,3:0:0:0:
208,256,170878,1,0,1:0:0:0:
201,315,170985,2,0,L|198:350,2,25,0|0|0,3:0|1:0|1:0,0:0:0:0:
335,143,171200,37,0,3:0:0:0:
330,212,171307,1,0,1:0:0:0:
325,281,171414,2,2,L|322:316,15,25,2|2|2|2|2|2|2|2|2|2|2|2|2|2|2|2,1:2|1:2|1:2|1:2|1:2|1:2|1:2|1:2|1:2|1:2|1:2|1:2|1:2|1:2|1:2|1:2,1:2:0:0:
441,149,172271,38,0,P|442:213|380:196,1,150,10|0,0:0|0:0,0:0:0:0:
359,74,172700,2,0,L|352:117,3,33.3333333333333,2|0|0|0,0:0|0:0|0:0|0:0,0:0:0:0:
449,67,173021,1,0,0:0:0:0:
272,44,173128,22,0,B|235:38|208:22|208:22|175:34|138:35|138:35|179:73,1,187.5,6|0,3:2|0:0,0:0:0:0:
216,166,173557,2,0,L|210:229,2,62.5,2|0|0,0:0|0:0|0:0,0:0:0:0:
117,182,173878,1,0,3:0:0:0:
319,202,173985,2,0,L|401:191,1,62.5,10|0,0:0|0:0,0:0:0:0:
224,70,174200,2,0,L|142:81,1,62.5,2|0,0:0|0:0,0:0:0:0:
44,232,174414,2,0,B|9:177|9:177|45:128,1,125,2|0,0:0|0:0,0:0:0:0:
24,313,174735,1,0,3:0:0:0:
117,182,174842,6,0,P|198:186|214:196,1,62.5,0|0,3:0|0:0,0:0:0:0:
186,359,175057,2,0,P|155:365|124:362,1,62.5,0|0,3:0|0:0,0:0:0:0:
267,267,175271,38,0,B|344:258|306:305|395:306,1,125,2|0,0:0|0:0,0:0:0:0:
279,346,175592,1,0,3:0:0:0:
388,224,175700,2,0,L|394:139,1,62.5,8|0,0:0|0:0,0:0:0:0:
270,52,175914,2,0,L|266:115,1,62.5,0|0,3:0|3:0,3:0:0:0:
125,216,176128,22,0,L|138:59,1,150,2|0,0:0|0:0,0:0:0:0:
39,135,176557,37,6,3:2:0:0:
39,135,176664,1,0,0:0:0:0:
221,159,176771,2,0,L|319:147,1,62.5,2|0,0:0|0:0,0:0:0:0:
171,291,176985,2,0,P|101:299|55:258,1,125,2|0,0:0|0:0,0:0:0:0:
125,216,177307,1,0,3:0:0:0:
230,361,177414,2,0,P|277:362|314:346,1,62.5,8|0,0:0|0:0,0:0:0:0:
121,154,177628,2,0,P|120:201|136:238,1,62.5,2|0,0:0|0:0,0:0:0:0:
339,241,177842,2,0,B|277:228|277:228|222:255,1,125,2|0,0:0|0:0,0:0:0:0:
292,325,178164,1,0,3:0:0:0:
349,155,178271,38,0,L|364:75,1,62.5,0|0,3:0|0:0,0:0:0:0:
186,176,178485,2,0,L|158:100,1,62.5,2|0,0:0|0:0,0:0:0:0:
253,15,178700,2,0,L|260:84,2,62.5,0|0|0,3:0|0:0|0:0,0:0:0:0:
269,163,179021,1,0,3:0:0:0:
168,34,179128,2,0,L|80:24,1,62.5,10|0,0:2|0:0,0:0:0:0:
342,113,179342,2,0,L|476:95,1,125,2|0,3:2|0:0,0:0:0:0:
268,163,179664,2,0,B|229:114|229:114|280:52,1,125,2|0,3:2|0:0,0:0:0:0:
346,291,179985,6,0,P|239:261|213:348,1,187.5,6|0,3:2|0:0,0:0:0:0:
414,340,180414,2,0,P|422:274|410:250,2,62.5,2|0|0,0:0|0:0|0:0,0:0:0:0:
280,320,180735,1,0,3:0:0:0:
334,183,180842,2,0,P|258:176|223:188,1,62.5,8|0,0:0|0:0,0:0:0:0:
105,255,181057,2,0,P|136:254|166:245,1,62.5
371,85,181271,2,0,P|306:70|210:74,1,125,2|0,0:0|0:0,0:0:0:0:
173,140,181592,1,0,3:0:0:0:
71,111,181700,38,0,P|31:110|-6:102,1,62.5,0|0,3:0|0:0,0:0:0:0:
272,174,181914,2,0,P|312:175|349:183,1,62.5,0|0,3:0|0:0,0:0:0:0:
160,239,182128,2,0,B|166:272|166:272|155:299|155:299|165:329|165:329|153:374,1,125,2|0,0:0|0:0,0:0:0:0:
245,304,182450,1,0,3:0:0:0:
78,256,182557,2,0,L|76:193,1,62.5,8|0,0:0|0:0,0:0:0:0:
231,160,182771,2,0,L|232:97,1,62.5,0|0,3:0|0:0,0:0:0:0:
113,36,182985,22,0,B|55:30|77:51|5:42|5:42|34:55|45:78,1,150,2|0,0:0|0:0,0:0:0:0:
187,160,183414,38,0,B|152:171|125:155|125:155|79:182|79:182|50:163|12:173,1,187.5,2|0,3:2|0:0,0:0:0:0:
139,257,183842,2,0,B|144:288|144:288|125:349,2,62.5,2|0|0,0:0|0:0|0:0,0:0:0:0:
55,279,184164,1,0,3:0:0:0:
228,292,184271,2,0,B|259:287|259:287|320:306,1,62.5,10|0,0:0|0:0,0:0:0:0:
162,147,184485,2,0,B|131:152|131:152|70:133,1,62.5,2|0,0:0|0:0,0:0:0:0:
290,34,184700,2,0,B|305:94|305:94|274:152,1,125,2|0,0:0|0:0,0:0:0:0:
215,80,185021,1,0,3:0:0:0:
386,112,185128,37,6,3:2:0:0:
256,192,185235,12,0,186414,1:0:0:0:
419,219,186842,38,0,P|367:215|314:237,1,94.9999974632264,6|0,3:2|0:0,0:0:0:0:
255,292,187164,1,0,0:0:0:0:
175,341,187271,2,0,P|123:344|70:323,1,94.9999974632264,2|0,1:2|0:0,0:0:0:0:
226,104,187700,1,2,1:2:0:0:
147,211,187914,1,2,0:0:0:0:
274,174,188128,1,2,1:2:0:0:
147,131,188342,38,0,P|139:55|151:15,1,94.9999974632264,2|0,0:2|1:0,0:0:0:0:
414,42,188771,2,0,P|419:89|409:135,1,94.9999974632264,2|0,0:0|1:0,0:0:0:0:
357,216,189092,1,0,0:0:0:0:
453,226,189200,2,0,P|486:232|508:246,1,47.4999987316132,2|0,0:0|0:0,0:0:0:0:
398,303,189414,2,0,P|351:293|304:298,1,94.9999974632264,2|0,1:2|0:0,0:0:0:0:
76,257,189842,2,0,P|100:233|130:214,1,47.4999987316132,2|0,1:2|0:0,0:0:0:0:
184,172,190057,6,0,P|230:162|277:167,1,94.9999974632264,2|0,0:0|1:0,0:0:0:0:
103,276,190485,2,0,P|74:237|60:193,1,94.9999974632264,2|0,0:0|1:0,0:0:0:0:
250,205,190914,1,0,0:0:0:0:
256,252,191021,1,0,0:0:0:0:
244,298,191128,2,0,P|225:341|193:376,1,94.9999974632264,2|0,1:2|0:0,0:0:0:0:
355,224,191557,1,2,1:2:0:0:
355,224,191771,1,2,0:0:0:0:
355,224,191985,38,0,P|398:205|433:173,1,94.9999974632264,2|0,1:2|0:0,0:0:0:0:
215,104,192414,2,0,P|177:76|131:61,1,94.9999974632264,2|0,1:2|0:0,0:0:0:0:
188,290,192842,2,0,P|183:337|193:383,1,94.9999974632264,2|0,1:2|0:0,0:0:0:0:
240,213,193271,2,0,P|220:199|198:191,1,47.4999987316132,2|0,1:2|0:0,0:0:0:0:
281,297,193485,2,0,P|302:287|320:271,1,47.4999987316132,2|0,0:0|0:0,0:0:0:0:
115,233,193700,6,0,P|109:162|135:123,1,110.000003356934,2|0,3:2|0:0,0:0:0:0:
220,98,194021,1,0,0:0:0:0:
311,134,194128,2,0,P|333:183|323:236,1,110.000003356934,2|0,3:2|0:0,0:0:0:0:
256,312,194450,1,0,0:0:0:0:
166,353,194557,2,0,P|126:349|100:334,1,55.0000016784668,2|0,3:2|0:0,0:0:0:0:
146,213,194771,2,0,P|162:249|162:279,1,55.0000016784668,2|0,0:0|0:0,0:0:0:0:
22,303,194985,2,0,P|45:270|71:255,1,55.0000016784668,2|0,3:2|0:0,0:0:0:0:
141,124,195200,6,0,B|80:119|101:156|31:151,1,110.000003356934,2|0,0:0|3:0,0:0:0:0:
195,51,195521,1,0,0:0:0:0:
230,141,195628,2,0,P|240:195|228:266,1,110.000003356934,2|0,0:0|3:0,0:0:0:0:
288,60,196057,2,0,P|339:64|369:71,1,55.0000016784668,2|0,0:0|0:0,0:0:0:0:
150,85,196271,2,0,P|146:57|145:30,1,55.0000016784668,2|0,3:2|0:0,0:0:0:0:
307,200,196485,2,0,P|306:227|302:254,1,55.0000016784668,2|0,0:0|0:0,0:0:0:0:
168,213,196700,2,0,P|117:209|87:202,1,55.0000016784668,2|0,3:2|0:0,0:0:0:0:
230,141,196914,37,2,0:0:0:0:
230,141,197128,2,0,L|272:130,2,27.5000008392334,0|0|0,3:0|1:0|1:0,0:0:0:0:
139,279,197342,5,0,3:0:0:0:
197,262,197450,1,0,1:0:0:0:
254,244,197557,2,0,L|296:233,2,27.5000008392334,0|0|0,3:0|1:0|1:0,0:0:0:0:
130,382,197771,37,0,3:0:0:0:
205,367,197878,1,0,1:0:0:0:
279,348,197985,2,2,L|321:337,7,27.5000008392334,2|2|2|2|2|2|2|2,1:2|1:2|1:2|1:2|1:2|1:2|1:2|1:2,1:2:0:0:
398,294,198414,2,2,L|367:263,7,27.5000008392334,2|2|2|2|2|2|2|2,1:2|1:2|1:2|1:2|1:2|1:2|1:2|1:2,1:2:0:0:
289,220,198842,38,2,L|277:261,23,27.5000008392334,2|2|2|2|2|2|2|2|2|2|2|2|2|2|2|2|2|2|2|2|2|2|2|2,1:2|1:2|1:2|1:2|1:2|1:2|1:2|1:2|1:2|1:2|1:2|1:2|1:2|1:2|1:2|1:2|1:2|1:2|1:2|1:2|1:2|1:2|1:2|1:2,1:2:0:0:
384,216,200128,21,0,1:0:0:0:
384,216,200235,1,0,1:0:0:0:
384,216,200342,2,0,L|368:164,1,55.0000016784668,0|0,1:0|0:0,0:0:0:0:
241,100,200557,38,6,B|299:101|299:101|339:71|339:71|405:74,1,170.000003242493,6|0,3:2|0:0,3:2:0:0:
263,1,200878,1,0,0:0:0:0:
178,181,200985,2,0,B|56:175|56:175|99:212,1,170.000003242493,10|0,0:2|0:0,0:0:0:0:
265,255,201307,2,0,B|312:184|312:184|255:100,1,170.000003242493,2|0,3:2|0:0,0:0:0:0:
204,349,201628,1,0,3:0:0:0:
301,348,201735,1,0,0:0:0:0:
121,292,201842,2,0,L|25:310,1,85.0000016212464,10|0,0:0|0:0,0:0:0:0:
239,160,202057,2,0,L|335:178,1,85.0000016212464,2|0,0:2|0:0,0:0:0:0:
94,99,202271,6,0,B|81:141|81:141|101:176,1,85.0000016212464,0|0,3:2|0:0,0:0:0:0:
242,361,202485,2,0,B|262:325|262:325|249:283,1,85.0000016212464,0|0,3:0|0:0,0:0:0:0:
219,49,202700,2,0,L|182:229,1,170.000003242493,10|0,0:2|0:0,0:0:0:0:
45,310,203021,2,0,L|79:143,1,170.000003242493,2|0,3:2|0:0,0:0:0:0:
311,181,203342,2,0,L|293:273,1,85.0000016212464,2|0,3:2|0:0,0:0:0:0:
165,40,203557,22,0,P|225:59|185:109,1,150,10|0,0:2|0:0,0:0:0:0:
40,157,203985,38,0,B|137:155|87:213|206:210,1,170.000003242493,6|0,3:2|0:0,0:0:0:0:
50,251,204307,1,0,0:0:0:0:
273,165,204414,2,0,P|279:246|215:298,1,170.000003242493,10|0,0:2|0:0,0:0:0:0:
40,157,204735,2,0,P|34:76|98:24,1,170.000003242493,2|0,3:2|0:0,0:0:0:0:
115,233,205057,2,0,P|70:262|26:267,1,85.0000016212464,2|0,3:2|0:0,0:0:0:0:
205,132,205271,6,8,B|212:157|212:157|201:186|201:186|215:211|208:240,1,112.500004291535,10|0,0:2|0:0,0:0:0:0:
160,56,205700,6,0,B|199:38|199:38|238:51,1,85.0000016212464,2|0,3:2|0:0,0:0:0:0:
8,118,205914,1,2,3:2:0:0:
63,22,206021,1,0,0:0:0:0:
74,196,206128,2,0,B|66:222|76:250|76:250|64:278|64:278|76:307|76:307|63:328|68:360,1,170.000003242493,10|0,0:2|0:0,0:0:0:0:
227,171,206450,2,0,B|218:139|234:117|234:117|222:88|222:88|234:60|234:60|220:37|232:6,1,170.000003242493,2|0,3:2|0:0,0:0:0:0:
377,202,206771,2,0,B|386:236|386:236|382:251|382:251|383:300,1,85.0000016212464,2|0,3:2|3:0,0:0:0:0:
294,325,206932,1,0,3:0:0:0:
294,325,206985,2,0,L|182:314,1,85.0000016212464,10|0,0:2|0:0,0:0:0:0:
306,120,207200,1,2,0:2:0:0:
402,64,207307,1,0,0:0:0:0:
201,80,207414,6,0,B|182:142|182:142|204:210|204:210|231:172,1,170.000003242493,6|0,3:2|0:0,0:0:0:0:
306,120,207735,1,0,0:0:0:0:
101,75,207842,2,0,B|79:140|79:140|106:239,1,170.000003242493,10|0,0:2|0:0,0:0:0:0:
261,293,208164,2,0,B|225:267|183:283|183:283|159:326|109:324,1,170.000003242493,2|0,3:2|0:0,0:0:0:0:
346,334,208485,1,0,3:0:0:0:
269,384,208592,1,0,0:0:0:0:
336,240,208700,2,0,B|375:227|375:227|417:240,1,85.0000016212464,10|0,0:2|0:0,0:0:0:0:
178,193,208914,2,0,B|138:205|138:205|96:192,1,85.0000016212464,2|0,0:0|0:0,0:0:0:0:
273,39,209128,6,0,P|285:75|270:141,1,85.0000016212464,2|0,3:2|0:0,0:0:0:0:
48,108,209342,1,2,3:2:0:0:
117,30,209450,1,0,0:0:0:0:
178,193,209557,2,0,B|137:215|96:191|96:191|64:215|15:200,1,170.000003242493,10|0,0:2|0:0,0:0:0:0:
236,114,209878,2,0,B|272:139|273:184|273:184|312:201|324:251,1,170.000003242493,2|0,3:2|0:0,0:0:0:0:
144,107,210200,2,0,B|140:82|155:63|155:63|155:41|168:28,1,85.0000016212464,2|0,3:2|0:0,0:0:0:0:
360,122,210414,6,0,B|407:160|408:217|408:217|447:176,1,150,10|0,0:2|0:0,0:0:0:0:
231,175,210842,6,0,P|299:190|283:284,1,170.000003242493,2|0,3:2|0:0,0:0:0:0:
184,282,211164,1,0,0:0:0:0:
218,75,211271,2,0,P|277:69|375:128,1,170.000003242493,10|0,0:0|0:0,0:0:0:0:
248,378,211592,2,0,B|199:364|199:364|166:377|166:377|134:361|134:361|79:371,1,170.000003242493,2|0,3:2|0:0,0:0:0:0:
294,275,211914,2,0,L|378:278,1,85.0000016212464,2|0,3:2|0:0,0:0:0:0:
192,194,212128,38,0,B|181:220|153:237|153:237|174:255|186:279,1,112.500004291535,10|0,0:2|0:0,0:0:0:0:
218,75,212557,22,2,L|134:72,1,85.0000016212464,0|0,0:0|0:0,3:2:0:0:
348,25,212771,2,0,L|432:28,1,85.0000016212464,2|0,3:2|0:0,0:0:0:0:
192,194,212985,2,0,B|107:191|107:191|26:247,1,170.000003242493,8|0,0:0|0:0,0:0:0:0:
218,75,213307,1,0,3:0:0:0:
307,160,213414,2,0,B|302:192|320:212|320:212|300:267|300:267|315:287|316:324,1,170.000003242493,10|0,0:0|0:0,0:0:0:0:
218,75,213735,2,0,B|224:27|259:-1|259:-1|295:8|328:40,1,170.000003242493,10|0,2:0|2:0,2:0:0:0:
112,126,214057,2,0,L|107:41,1,85.0000016212464,10|0,0:0|0:0,0:0:0:0:
162,224,214271,6,0,B|118:244|118:244|39:225,1,100,6|0,3:2|0:0,0:0:0:0:
294,215,214592,2,0,B|333:243|333:243|356:321,1,100,2|0,0:0|0:0,0:0:0:0:
220,119,214914,1,2,0:0:0:0:
220,119,215021,1,0,3:0:0:0:
357,118,215128,2,0,B|397:126|397:126|422:117|422:117|456:124,1,100,10|0,0:0|0:0,0:0:0:0:
289,18,215450,2,0,B|249:26|249:26|224:17|224:17|190:24,1,100,2|0,0:0|0:0,0:0:0:0:
260,224,215771,1,2,0:0:0:0:
260,224,215878,1,0,3:0:0:0:
89,183,215985,21,0,3:0:0:0:
89,183,216200,2,0,B|72:208|75:235|75:235|90:249|94:273|94:273|88:297|71:311|71:311|86:337|83:369,1,200,2|0,3:2|0:0,0:0:0:0:
2,267,216735,1,0,3:0:0:0:
172,243,216842,2,0,B|180:268|180:268|173:293,1,50,10|0,0:0|0:0,0:0:0:0:
78,156,217057,2,0,B|70:131|70:131|77:106,1,50,2|0,3:2|0:0,0:0:0:0:
249,81,217271,37,2,0:0:0:0:
260,100,217378,1,0,0:0:0:0:
262,122,217485,1,2,0:0:0:0:
255,143,217592,1,0,0:0:0:0:
314,23,217700,38,0,B|358:40|358:40|428:19,1,100,2|0,3:2|0:0,0:0:0:0:
173,118,218021,2,0,B|129:135|129:135|59:114,1,100,2|0,0:2|0:0,0:0:0:0:
219,24,218342,1,2,0:0:0:0:
219,24,218450,1,0,3:0:0:0:
235,198,218557,22,0,B|235:225|218:245|218:245|237:259|236:289,1,100,10|0,0:0|0:0,0:0:0:0:
115,202,218878,1,0,0:0:0:0:
169,91,218985,2,2,B|189:87|189:87|201:80|212:84|212:84|246:78,2,66.6666666666667
108,297,219414,22,0,B|104:274|114:258|114:258|108:240|108:240|120:226|114:198,1,100,0|0,3:0|0:0,0:0:0:0:
38,145,219735,1,2,0:0:0:0:
258,217,219842,2,0,P|230:217|209:221,1,50,0|2,3:0|0:0,0:0:0:0:
204,27,220057,1,2,0:0:0:0:
204,27,220164,1,0,3:0:0:0:
52,120,220271,2,0,P|77:119|102:124,1,50,8|0,0:0|0:0,0:0:0:0:
296,116,220485,2,0,P|245:113|197:123,1,100,2|0,3:2|0:0,0:0:0:0:
5,214,220807,2,0,P|55:210|105:221,1,100,2|0,3:2|0:0,0:0:0:0:
266,235,221128,22,0,B|237:251|226:279|226:279|253:311|263:368|263:368|284:335|319:329,1,225.000008583069,6|0,3:2|0:0,0:0:0:0:
372,246,221878,1,0,3:0:0:0:
136,252,221985,2,0,B|117:248|105:254|105:254|92:248|92:248|32:251,1,75.0000028610231,10|0,0:0|0:0,0:0:0:0:
233,227,222307,1,0,0:0:0:0:
233,227,222414,2,0,B|244:263|244:263|234:331,1,75.0000028610231,2|0,0:0|0:0,0:0:0:0:
341,130,222735,1,0,3:0:0:0:
108,129,222842,21,0,3:0:0:0:
108,129,223057,2,0,B|121:64|94:85|109:21|109:21|124:47|154:54,1,150.000005722046,2|0,3:2|0:0,0:0:0:0:
19,101,223592,1,0,0:0:0:0:
173,199,223700,2,0,P|199:204|219:203,1,37.5000014305115,10|0,0:0|0:0,0:0:0:0:
346,57,223914,6,0,B|306:57|282:84|282:84|257:63|224:67|224:67|222:96|200:113,1,187.500007152558,2|0,3:2|0:0,0:0:0:0:
357,190,224557,6,0,L|351:151,2,25,6|0|0,1:2|1:0|1:0,0:0:0:0:
270,293,224771,5,0,1:0:0:0:
265,253,224878,1,0,1:0:0:0:
259,213,224985,2,0,L|253:174,2,25,0|0|0,1:0|1:0|1:0,1:0:0:0:
189,91,225200,37,0,1:0:0:0:
239,84,225307,1,0,1:0:0:0:
289,76,225414,2,0,L|328:70,2,25,0|0|0,1:0|1:0|1:0,1:0:0:0:
169,280,225628,5,0,1:0:0:0:
110,292,225735,1,0,1:0:0:0:
50,302,225842,2,0,L|11:308,2,25,0|0|0,1:0|1:0|1:0,1:0:0:0:
291,204,226057,5,0,1:0:0:0:
303,272,226164,1,0,1:0:0:0:
317,340,226271,2,0,L|323:379,2,25,8|0|0,1:2|1:0|1:0,1:0:0:0:
243,318,226485,1,0,3:0:0:0:
378,291,226592,2,0,L|417:297,2,25,8|0|0,1:2|1:0|1:0,1:0:0:0:
291,204,226807,1,0,3:0:0:0:
406,142,226914,2,0,L|391:105,2,25,8|0|0,1:2|1:0|1:0,1:0:0:0:
272,56,227128,1,0,3:0:0:0:
165,157,227235,2,0,L|162:181,2,25,8|0|0,1:2|1:0|1:0,1:0:0:0:
171,66,227450,1,0,3:0:0:0:
79,133,227557,6,0,L|74:182,1,50,0|0,0:0|0:0,1:0:0:0:
251,124,227771,2,0,L|255:74,1,50,0|0,1:0|0:0,0:0:0:0:
161,222,227985,6,0,B|150:385|150:385|212:317,1,225.000008583069,6|0,3:2|0:0,0:0:0:0:
241,130,228414,2,0,B|197:119|181:90|181:90|157:116|103:113,1,150.000005722046,10|0,0:2|0:0,0:0:0:0:
335,215,228735,2,0,L|320:49,1,150.000005722046,2|0,3:2|0:0,0:0:0:0:
435,252,229057,2,0,L|445:353,1,75.0000028610231,2|0,3:2|0:0,0:0:0:0:
247,273,229271,38,0,P|213:324|285:379,1,150,10|0,0:2|0:0,0:0:0:0:
269,174,229700,22,0,P|217:174|164:211,1,75.0000028610231,0|0,3:0|0:0,0:0:0:0:
329,90,229914,2,0,P|366:87|401:98,1,75.0000028610231,0|0,3:0|0:0,0:0:0:0:
111,193,230128,2,0,B|100:151|129:119|129:119|109:86|132:52,1,150.000005722046,10|0,0:2|0:0,0:0:0:0:
353,186,230450,2,0,B|371:219|358:254|358:254|385:285|373:338,1,150.000005722046,2|0,3:2|0:0,0:0:0:0:
165,334,230771,2,0,P|200:322|237:325,1,75.0000028610231,2|0,3:2|0:0,0:0:0:0:
47,269,230985,2,0,P|35:233|38:196,1,75.0000028610231,10|0,0:2|0:0,0:0:0:0:
208,191,231200,1,2,0:0:0:0:
132,224,231307,1,0,0:0:0:0:
279,253,231414,22,0,B|328:277|368:251|368:251|394:268|385:303,1,150,2|0,3:2|0:0,0:0:0:0:
212,323,231842,38,0,B|165:258|165:258|218:174,1,150.000005722046,10|0,0:2|0:0,0:0:0:0:
302,11,232164,2,0,L|286:160,1,150.000005722046,2|0,3:2|0:0,0:0:0:0:
159,132,232485,2,0,L|169:40,1,75.0000028610231,2|0,3:2|0:0,0:0:0:0:
428,71,232700,6,0,L|417:216,1,112.500004291535,10|0,0:0|0:0,0:0:0:0:
369,297,233128,6,0,B|403:317|403:317|472:301,1,75.0000028610231,0|0,3:0|0:0,0:0:0:0:
276,199,233342,2,0,B|241:190|241:190|207:210,1,75.0000028610231,2|0,3:2|0:0,0:0:0:0:
13,329,233557,2,0,B|63:321|63:321|102:346|102:346|203:332,1,150.000005722046,10|0,0:0|0:0,0:0:0:0:
97,115,233878,2,0,B|86:221|86:221|129:254,1,150.000005722046,2|0,3:2|0:0,0:0:0:0:
266,152,234200,2,0,L|192:159,1,75.0000028610231,2|0,3:0|3:0,0:0:0:0:
178,52,234360,1,0,3:0:0:0:
178,52,234414,2,0,L|252:45,1,75.0000028610231,10|0,0:0|3:0,0:0:0:0:
432,83,234628,5,0,3:0:0:0:
432,83,234842,2,0,P|468:141|445:201,1,75.0000028610231,6|0,3:2|0:0,0:0:0:0:
336,70,235057,2,0,P|368:9|431:0,1,75.0000028610231,2|0,0:0|0:0,0:0:0:0:
370,164,235271,2,0,B|280:197|308:128|205:172,1,150.000005722046,10|0,0:0|0:0,0:0:0:0:
115,257,235592,2,0,B|205:224|177:293|280:249,1,150.000005722046,2|0,3:2|0:0,0:0:0:0:
32,208,235914,2,0,P|18:242|22:280,1,75.0000028610231,2|0,3:2|0:0,0:0:0:0:
220,154,236128,22,0,L|208:-13,1,150,10|0,0:2|0:0,0:0:0:0:
312,166,236557,38,0,L|318:244,1,75.0000028610231,2|0,3:2|0:0,0:0:0:0:
129,121,236771,2,0,L|123:43,1,75.0000028610231,2|0,3:2|0:0,0:0:0:0:
89,276,236985,2,0,B|124:257|136:223|136:223|158:255|197:266,1,150.000005722046,10|0,0:2|0:0,0:0:0:0:
272,55,237307,2,0,L|432:67,1,150.000005722046,2|0,3:2|0:0,0:0:0:0:
248,148,237628,2,0,L|133:138,1,75.0000028610231,2|0,3:2|0:0,0:0:0:0:
390,226,237842,2,0,L|505:236,1,75.0000028610231,10|0,0:0|0:0,0:0:0:0:
354,68,238057,1,2,0:0:0:0:
325,151,238164,1,0,0:0:0:0:
435,33,238271,6,0,P|498:57|478:123,1,150,2|0,3:2|0:0,0:0:0:0:
263,83,238700,6,0,P|181:78|120:156,1,150.000005722046,10|0,0:0|0:0,0:0:0:0:
304,300,239021,2,0,P|349:231|312:139,1,150.000005722046,2|0,3:2|0:0,0:0:0:0:
114,270,239342,2,0,P|136:305|186:326,1,75.0000028610231,2|0,3:2|0:0,0:0:0:0:
209,143,239557,38,0,B|195:200|195:200|255:225,1,112.500004291535,10|0,0:0|0:0,0:0:0:0:
246,53,239985,22,0,B|206:41|206:41|162:58,1,75.0000028610231,2|0,3:2|0:0,0:0:0:0:
341,176,240200,2,0,B|379:187|379:187|425:169,1,75.0000028610231,2|0,3:2|0:0,0:0:0:0:
231,304,240414,2,0,B|163:282|163:282|65:321,1,150.000005722046,10|0,0:0|0:0,0:0:0:0:
285,116,240735,1,0,3:0:0:0:
222,197,240842,2,0,B|290:219|290:219|388:180,1,150.000005722046,10|0,0:0|0:0,0:0:0:0:
134,105,241164,2,0,L|126:270,1,150.000005722046,10|0,0:0|0:0,0:0:0:0:
30,96,241485,2,0,B|18:58|18:58|33:21,1,75.0000028610231,10|0,0:0|0:0,0:0:0:0:
242,107,241700,21,6,3:2:0:0:
242,107,241914,2,0,L|331:112,1,80,2|0,0:0|0:0,0:0:0:0:
151,81,242235,2,0,L|110:1,1,80,2|0,0:0|0:0,0:0:0:0:
170,176,242557,2,0,L|104:272,1,80,2|0,0:0|0:0,0:0:0:0:
70,139,242985,2,0,L|68:77,1,40,2|0,0:0|0:0,0:0:0:0:
231,275,243200,2,0,L|229:314,1,40,2|0,0:0|0:0,0:0:0:0:
170,176,243414,5,0,0:0:0:0:
170,176,243628,2,0,P|186:134|170:74,1,75.0000028610231,2|0,0:0|0:0,0:0:0:0:
111,41,243950,2,0,P|95:83|111:143,1,75.0000028610231,2|0,0:0|0:0,0:0:0:0:
61,206,244271,2,0,P|36:202|13:189,1,37.5000014305115,2|0,0:0|0:0,0:0:0:0:
143,279,244485,2,0,P|152:302|152:329,1,37.5000014305115,2|0,0:0|0:0,0:0:0:0:
170,176,244700,2,0,P|185:156|208:142,1,37.5000014305115,2|0,0:0|0:0,0:0:0:0:
255,252,244914,2,0,L|316:258,1,37.5000014305115,2|0,0:0|0:0,0:0:0:0:
405,269,245128,37,0,0:0:0:0:
405,269,245342,2,0,L|391:178,1,69.9999978637696,2|0,0:0|0:0,0:0:0:0:
384,118,245664,2,0,L|475:132,1,69.9999978637696,2|0,0:0|0:0,0:0:0:0:
311,165,245985,2,0,L|215:182,1,69.9999978637696,2|0,0:0|0:0,0:0:0:0:
102,127,246414,2,0,L|155:118,1,34.9999989318848,2|0,0:0|0:0,0:0:0:0:
161,266,246628,2,0,L|126:271,1,34.9999989318848,2|0,0:0|0:0,0:0:0:0:
132,197,246842,5,0,0:0:0:0:
132,197,247057,2,0,P|73:197|37:164,2,97.4999955368044,2|2|2,0:0|0:0|0:0,0:0:0:0:
307,153,247914,1,2,0:0:0:0:
307,153,248128,2,2,P|329:152|358:157,3,32.4999985122681
324,235,248557,37,0,0:0:0:0:
324,235,248771,2,0,P|332:297|326:336,2,89.9999972534181,2|2|2,0:0|0:0|0:0,0:0:0:0:
191,135,249842,1,2,0:0:0:0:
191,135,250057,1,2,0:0:0:0:
232,222,250271,37,0,0:0:0:0:
232,222,250485,2,0,L|137:233,2,89.9999972534181,2|2|2,0:0|0:0|0:0,0:0:0:0:
330,179,251342,1,2,0:0:0:0:
317,285,251557,2,0,L|309:355,1,59.9999981689454,2|2,0:0|0:0,0:0:0:0:
330,179,251985,6,0,L|319:111,3,37.5000014305115,0|0|0|0,3:0|3:0|3:0|3:0,3:0:0:0:
387,19,252414,2,0,L|322:75,3,50,0|0|0|0,3:0|3:0|3:0|3:0,3:0:0:0:
258,75,252842,37,0,3:0:0:0:
209,62,252950,1,0,3:0:0:0:
160,49,253057,1,0,3:0:0:0:
111,36,253164,1,0,3:0:0:0:
53,75,253271,5,0,3:0:0:0:
27,140,253378,1,0,3:0:0:0:
57,203,253485,1,0,3:0:0:0:
123,224,253592,1,0,3:0:0:0:
188,198,253700,5,0,3:0:0:0:
391,12,253914,6,0,B|437:73|437:73|393:133,1,150.000005722046,6|0,3:2|0:0,0:0:0:0:
120,12,254235,2,0,B|75:73|75:73|119:133,1,150.000005722046,6|0,3:2|0:0,0:0:0:0:
324,73,254557,22,0,B|286:58|286:58|256:73|256:73|226:58|226:58|187:73,1,150.000005722046,6|2,3:2|0:0,0:0:0:0:
