osu file format v14

[General]
AudioFilename: audio.mp3
AudioLeadIn: 0
PreviewTime: 214144
Countdown: 0
SampleSet: None
StackLeniency: 0.8
Mode: 0
LetterboxInBreaks: 0
WidescreenStoryboard: 0

[Editor]
DistanceSpacing: 0.8
BeatDivisor: 4
GridSize: 32
TimelineZoom: 1.6

[Metadata]
Title:FANTASTIC BABY
TitleUnicode:FANTASTIC BABY
Artist:Reol
ArtistUnicode:Reol
Creator:asdqazsa
Version:
Source:BIG BANG
Tags:reol,fantastic,baby,bigbang,big bang,big,bang
BeatmapID:1724389
BeatmapSetID:822754

[Difficulty]
HPDrainRate:5
CircleSize:5
OverallDifficulty:5
ApproachRate:7
SliderMultiplier:2.5
SliderTickRate:2

[Events]
//Background and Video events
//Break Periods
//Storyboard Layer 0 (Background)
//Storyboard Layer 1 (Fail)
//Storyboard Layer 2 (Pass)
//Storyboard Layer 3 (Foreground)
//Storyboard Sound Samples

[TimingPoints]
1837,461.538461538462,4,3,0,100,1,0
52593,-200,4,3,0,100,0,0
53401,-100,4,3,0,100,0,0
54991,-200,4,3,0,100,0,0
56260,-100,4,3,0,100,0,0
65029,-66.6666666666667,4,3,0,100,0,0
65491,-100,4,3,0,100,0,0
72414,-66.6666666666667,4,3,0,100,0,0
72876,-50,4,3,0,100,0,0
73337,-100,4,3,0,100,0,0
79337,-400,4,3,0,100,0,0
83030,-100,4,3,0,100,0,0
93876,-66.6666666666667,4,3,0,100,0,0
94799,-100,4,3,0,100,0,0
101491,-200,4,3,0,100,0,0
102183,-100,4,3,0,100,0,0
118107,-50,4,3,0,100,0,0
118568,-100,4,3,0,100,0,0
119491,-66.6666666666667,4,3,0,100,0,0
119953,-50,4,3,0,100,0,0
120414,-100,4,3,0,100,0,0
121337,-66.6666666666667,4,3,0,100,0,0
121799,-100,4,3,0,100,0,0
123151,-66.6666666666667,4,3,0,100,0,0
123555,-100,4,3,0,100,0,0
125491,-50,4,3,0,100,0,0
125953,-100,4,3,0,100,0,0
126876,-50,4,3,0,100,0,0
127337,-100,4,3,0,100,0,0
130568,-66.6666666666667,4,3,0,100,0,0
130939,-100,4,3,0,100,0,0
131953,-200,4,3,0,100,0,0
132645,-100,4,3,0,100,0,0
137491,-66.6666666666667,4,3,0,100,0,0
138414,-133.333333333333,4,3,0,100,0,0
139799,-66.6666666666667,4,3,0,100,0,0
143722,-200,4,3,0,100,0,0
146722,-100,4,3,0,100,0,0
150876,-66.6666666666667,4,3,0,100,0,0
151337,-100,4,3,0,100,0,0
155953,-200,4,3,0,100,0,0
156414,-100,4,3,0,100,0,0
173722,-66.6666666666667,4,3,0,100,0,0
174184,-100,4,3,0,100,0,0
179953,-66.6666666666667,4,3,0,100,0,0
182722,-100,4,3,0,100,0,0
188261,-200,4,3,0,100,0,0
189645,-100,4,3,0,100,0,0
200722,-66.6666666666667,4,3,0,100,0,0
201184,-100,4,3,0,100,0,0
202568,-66.6666666666667,4,3,0,100,0,0
203030,-100,4,3,0,100,0,0
206261,-133.333333333333,4,3,0,100,0,0
206722,-100,4,3,0,100,0,0
208107,-50,4,3,0,100,0,0
208568,-100,4,3,0,100,0,0
209953,-66.6666666666667,4,3,0,100,0,0
210415,-100,4,3,0,100,0,0
211799,-50,4,3,0,100,0,0
212261,-100,4,3,0,100,0,0
213184,-50,4,3,0,100,0,0
214107,-100,4,3,0,100,0,0
221492,-200,4,3,0,100,0,0
221953,-100,4,3,0,100,0,0
222415,-66.6666666666667,4,3,0,100,0,0
222876,-50,4,3,0,100,0,0
223338,-100,4,3,0,100,0,0
223799,-200,4,3,0,100,0,0
224261,-100,4,3,0,100,0,0
224722,-66.6666666666667,4,3,0,100,0,0
225184,-100,4,3,0,100,0,0

[Colours]
Combo1 : 255,255,255
Combo2 : 0,0,0
Combo3 : 72,0,62
Combo4 : 47,0,142
Combo5 : 0,125,219
Combo6 : 36,255,162
Combo7 : 149,255,108
Combo8 : 255,250,179

[HitObjects]
235,190,1837,6,4,P|272:176|238:192,1,125
352,128,2298,1,4,0:0:0:0:
352,256,2529,1,0,0:0:0:0:
167,245,2760,2,4,P|139:192|191:127,2,125
241,78,3683,6,4,L|375:78,1,125
386,155,4144,2,4,L|384:288,1,125
192,256,4606,1,4,0:0:0:0:
128,192,4837,1,0,0:0:0:0:
192,128,5067,1,4,0:0:0:0:
226,199,5529,6,4,P|263:181|225:194,1,125
189,109,5990,1,4,0:0:0:0:
189,109,6106,1,0,0:0:0:0:
189,109,6221,1,0,0:0:0:0:
114,198,6452,2,4,L|237:238,1,125
306,260,6913,1,4,0:0:0:0:
288,128,7375,2,4,P|352:128|385:191,2,125
192,128,8067,1,0,0:0:0:0:
192,224,8298,2,4,P|192:287|256:320,2,125
160,128,9221,5,4,0:0:0:0:
256,128,9452,1,0,0:0:0:0:
352,128,9683,2,4,P|384:192|320:256,1,125
224,256,10144,2,4,P|155:250|128:192,2,125
160,96,11067,5,4,0:0:0:0:
160,96,11183,1,0,0:0:0:0:
160,96,11298,1,0,0:0:0:0:
288,96,11529,1,4,0:0:0:0:
288,96,11644,2,0,L|313:163,1,62.5
341,217,11990,2,4,P|267:213|242:170,2,125
135,163,12913,6,4,L|258:121,1,125
335,112,13375,2,0,L|377:172,1,62.5
304,215,13606,2,8,L|204:255,1,62.5
88,191,13837,2,4,P|106:125|184:100,1,125
305,108,14298,1,4,0:0:0:0:
388,107,14760,6,4,P|462:192|384:288,1,250
256,288,15452,2,0,P|164:191|244:99,1,250
303,106,16144,1,4,0:0:0:0:
171,199,16606,5,4,0:0:0:0:
171,199,16837,1,4,0:0:0:0:
171,199,17067,2,4,P|187:271|276:298,1,125
283,240,17529,2,4,L|359:320,2,62.5
324,186,17990,2,4,L|368:123,2,62.5
277,96,18452,1,4,0:0:0:0:
277,96,18567,1,0,0:0:0:0:
277,96,18683,1,0,0:0:0:0:
154,126,18913,1,4,0:0:0:0:
154,126,19029,1,0,0:0:0:0:
154,126,19144,1,0,0:0:0:0:
136,220,19375,2,4,P|185:268|253:274,1,125
302,216,19837,6,4,L|341:164,2,62.5
237,272,20298,1,4,0:0:0:0:
237,272,20413,1,0,0:0:0:0:
237,272,20529,1,0,0:0:0:0:
147,206,20760,2,4,L|147:143,2,62.5
255,142,21221,1,4,0:0:0:0:
255,142,21452,1,0,0:0:0:0:
255,142,21683,1,4,0:0:0:0:
255,142,21913,1,0,0:0:0:0:
255,142,22144,2,4,P|311:198|292:243,1,125
217,263,22606,1,4,0:0:0:0:
137,247,22837,2,4,P|95:184|117:132,4,125
320,96,23990,5,4,0:0:0:0:
384,192,24221,1,0,0:0:0:0:
320,288,24452,1,4,0:0:0:0:
160,288,24683,1,0,0:0:0:0:
96,192,24913,1,4,0:0:0:0:
160,96,25144,1,0,0:0:0:0:
286,106,25375,2,4,P|361:134|370:174,1,125
300,235,25837,2,4,P|319:299|251:326,1,125
211,265,26298,2,4,P|144:242|108:199,1,125
185,132,26760,2,4,P|232:100|253:102,2,62.5
294,210,27221,2,4,L|340:86,1,125
374,265,27683,6,4,L|314:302,2,62.5
294,210,28144,2,4,L|342:83,1,125
188,237,28606,2,4,L|241:98,1,125
300,227,29067,5,4,0:0:0:0:
288,259,29183,5,0,0:0:0:0:
303,289,29298,5,0,0:0:0:0:
332,308,29414,5,0,0:0:0:0:
366,307,29529,5,4,0:0:0:0:
393,286,29644,5,0,0:0:0:0:
406,253,29760,5,0,0:0:0:0:
404,220,29875,5,0,0:0:0:0:
396,187,29990,5,4,0:0:0:0:
384,155,30106,5,0,0:0:0:0:
367,125,30221,5,0,0:0:0:0:
342,102,30337,5,0,0:0:0:0:
311,86,30452,5,4,0:0:0:0:
277,81,30567,5,0,0:0:0:0:
243,83,30683,5,0,0:0:0:0:
210,95,30798,5,0,0:0:0:0:
183,117,30914,5,4,0:0:0:0:
239,221,31375,2,0,L|367:193,1,125
166,249,31837,2,0,L|113:212,2,62.5
269,241,32298,2,0,L|381:170,1,125
362,78,32760,2,0,L|248:152,1,125
201,229,33221,2,0,L|96:140,1,125
294,237,33683,2,0,L|362:223,2,62.5
253,177,34144,2,0,L|148:92,1,125
52,144,34606,2,0,L|159:220,1,125
256,192,35067,5,0,0:0:0:0:
256,192,36914,5,4,0:0:0:0:
256,192,37029,1,0,0:0:0:0:
256,192,37144,1,0,0:0:0:0:
128,192,37375,1,4,0:0:0:0:
128,192,37490,1,0,0:0:0:0:
128,192,37606,1,0,0:0:0:0:
384,192,37837,1,4,0:0:0:0:
384,192,37952,1,0,0:0:0:0:
384,192,38067,1,0,0:0:0:0:
318,99,38298,2,6,P|244:70|182:80,3,125
139,192,39221,2,4,L|245:259,1,125
373,258,39683,1,4,0:0:0:0:
373,258,39914,2,4,L|423:135,1,125
420,142,40375,1,4,0:0:0:0:
315,110,40606,6,6,P|229:103|191:141,1,125
139,92,41067,2,6,P|99:158|116:209,1,125
48,233,41529,2,6,P|119:289|161:298,1,125
241,280,41990,2,2,L|306:224,2,62.5
279,152,42452,2,4,L|203:127,2,62.5
380,190,42914,1,4,0:0:0:0:
332,259,43144,2,2,L|257:278,1,62.5
323,232,43375,2,4,L|245:220,1,62.5
311,196,43606,2,2,L|257:165,1,62.5
348,148,43837,2,4,L|400:111,2,62.5
204,116,44298,6,4,P|152:172|157:244,1,125
241,183,44760,2,4,P|240:268|268:313,1,125
342,229,45221,1,4,0:0:0:0:
342,229,45337,1,0,0:0:0:0:
342,229,45452,1,0,0:0:0:0:
372,121,45683,2,6,P|309:96|247:97,3,125
146,147,46606,1,4,0:0:0:0:
146,147,46721,1,0,0:0:0:0:
146,147,46837,1,0,0:0:0:0:
141,254,47067,2,4,L|206:279,2,62.5
272,256,47529,2,4,L|370:164,1,125
96,64,47990,5,4,0:0:0:0:
96,64,48106,1,0,0:0:0:0:
96,64,48221,1,0,0:0:0:0:
256,64,48452,1,4,0:0:0:0:
261,68,48567,1,0,0:0:0:0:
261,68,48683,1,0,0:0:0:0:
416,64,48914,1,4,0:0:0:0:
416,64,49029,1,0,0:0:0:0:
416,64,49144,1,0,0:0:0:0:
416,192,49375,2,4,P|416:256|416:262,2,62.5
320,288,49837,2,4,P|256:288|224:224,1,125
256,192,50298,5,4,0:0:0:0:
256,160,50414,5,0,0:0:0:0:
256,128,50529,5,0,0:0:0:0:
256,96,50644,5,0,0:0:0:0:
224,96,50760,5,4,0:0:0:0:
192,96,50875,5,0,0:0:0:0:
160,96,50991,5,0,0:0:0:0:
160,128,51106,5,0,0:0:0:0:
160,160,51221,5,4,0:0:0:0:
160,192,51337,5,0,0:0:0:0:
128,192,51452,5,0,0:0:0:0:
333,210,51683,5,4,0:0:0:0:
397,196,51914,2,2,P|375:112|319:96,1,125
275,92,52375,1,4,0:0:0:0:
183,108,52606,2,2,P|141:185|168:234,1,125
225,266,53183,2,0,L|279:243,1,31.25
259,150,53529,2,6,L|319:128,2,62.5
389,149,53991,1,4,0:0:0:0:
389,149,54106,1,0,0:0:0:0:
389,149,54221,1,4,0:0:0:0:
362,255,54452,2,0,P|295:266|241:221,2,125
370,181,55029,2,2,L|381:123,1,31.25
278,137,55375,5,4,0:0:0:0:
125,93,55606,1,4,0:0:0:0:
114,238,55837,1,4,0:0:0:0:
261,252,56067,1,0,0:0:0:0:
356,171,56298,2,0,P|382:111|322:87,2,125
212,91,56991,1,4,0:0:0:0:
100,144,57221,1,0,0:0:0:0:
100,144,57452,2,6,P|124:207|170:244,1,125
244,255,57914,2,6,P|306:197|325:145,1,125
281,92,58375,2,6,P|217:77|135:86,1,125
212,166,58837,5,4,0:0:0:0:
212,166,58952,1,0,0:0:0:0:
212,166,59067,1,4,0:0:0:0:
289,162,59298,2,4,L|350:151,2,62.5
298,231,59760,1,0,0:0:0:0:
223,246,59991,2,6,L|84:282,2,125
365,214,60683,2,0,P|389:186|364:205,1,125
262,131,61144,2,0,L|196:135,1,62.5
269,193,61375,2,2,L|122:207,1,125
285,255,61837,1,4,0:0:0:0:
252,267,61952,1,0,0:0:0:0:
218,278,62067,1,0,0:0:0:0:
186,287,62183,1,0,0:0:0:0:
153,295,62298,1,4,0:0:0:0:
152,184,62529,2,0,P|113:164|154:176,1,125
246,229,62991,2,0,L|377:164,1,125
382,261,63452,2,0,P|451:208|448:165,1,125
308,93,63914,1,0,0:0:0:0:
147,114,64144,1,4,0:0:0:0:
153,236,64375,1,0,0:0:0:0:
256,288,64606,6,4,P|327:283|364:243,1,125
256,192,65067,2,4,P|366:157|408:95,1,187.500007152558
256,288,65529,2,6,P|162:260|133:117,1,250
309,133,66221,5,0,0:0:0:0:
309,133,66337,1,0,0:0:0:0:
309,133,66452,2,4,P|353:208|316:247,1,125
271,311,66914,1,4,0:0:0:0:
162,265,67144,2,0,L|112:199,1,62.5
135,142,67375,1,4,0:0:0:0:
135,142,67491,1,0,0:0:0:0:
135,142,67606,1,0,0:0:0:0:
222,133,67837,2,6,P|261:115|298:178,1,125
248,285,68298,2,2,P|309:261|336:207,1,125
256,208,68760,2,4,P|189:173|190:110,1,125
256,139,69221,2,6,P|341:121|346:65,1,125
163,230,69683,6,6,L|106:191,1,62.5
185,171,69914,2,0,L|239:137,1,62.5
352,64,70144,1,4,0:0:0:0:
384,96,70260,5,0,0:0:0:0:
398,131,70375,5,0,0:0:0:0:
405,165,70491,5,0,0:0:0:0:
401,199,70606,5,4,0:0:0:0:
384,224,70721,5,0,0:0:0:0:
352,256,70837,5,0,0:0:0:0:
192,256,71067,1,4,0:0:0:0:
160,224,71183,5,0,0:0:0:0:
144,193,71298,5,0,0:0:0:0:
138,157,71414,5,0,0:0:0:0:
143,123,71529,5,4,0:0:0:0:
160,96,71644,5,0,0:0:0:0:
192,64,71760,5,0,0:0:0:0:
258,193,71991,6,6,P|226:180|265:187,1,125
168,222,72452,6,4,P|176:121|256:79,1,187.500007152558
111,282,72914,6,6,P|90:156|147:40,1,250
192,128,73375,5,4,0:0:0:0:
192,256,73491,1,0,0:0:0:0:
320,256,73606,1,0,0:0:0:0:
384,64,73837,1,4,0:0:0:0:
128,64,74298,1,4,0:0:0:0:
128,288,74760,1,4,0:0:0:0:
270,197,75221,2,6,L|333:204,2,62.5
204,253,75683,2,6,P|135:231|127:180,1,125
203,190,76144,2,6,P|206:120|263:105,1,125
286,170,76606,2,6,P|358:139|406:149,1,125
256,192,77068,1,4,0:0:0:0:
160,192,77298,1,0,0:0:0:0:
172,157,77414,5,0,0:0:0:0:
195,131,77529,5,4,0:0:0:0:
223,112,77644,5,0,0:0:0:0:
255,102,77760,5,0,0:0:0:0:
288,106,77875,5,0,0:0:0:0:
316,122,77991,5,4,0:0:0:0:
340,150,78106,5,0,0:0:0:0:
341,187,78221,5,0,0:0:0:0:
318,219,78337,5,0,0:0:0:0:
283,233,78452,5,4,0:0:0:0:
251,221,78568,5,0,0:0:0:0:
240,192,78683,5,0,0:0:0:0:
248,160,78798,5,0,0:0:0:0:
282,152,78914,5,4,0:0:0:0:
171,192,79144,6,2,L|96:190,1,62.5
192,256,79375,2,4,P|256:256|261:257,2,62.5
256,324,81221,1,4,0:0:0:0:
123,191,81683,1,4,0:0:0:0:
256,59,82144,1,4,0:0:0:0:
388,192,82606,1,4,0:0:0:0:
320,192,83068,6,4,P|320:256|288:320,1,125
256,256,83529,2,4,P|192:256|128:224,1,125
192,192,83991,2,4,P|192:128|224:64,1,125
256,128,84452,2,4,P|320:128|384:160,1,125
288,192,84914,6,4,P|320:256|384:288,1,125
256,224,85375,2,4,P|192:256|160:320,1,125
224,192,85837,2,4,P|192:128|128:96,1,125
256,192,86298,5,4,0:0:0:0:
160,192,86529,2,2,L|96:192,2,62.5
256,192,86991,2,0,L|384:192,1,125
223,86,87452,2,2,P|119:156|153:261,1,250
191,180,88144,2,4,P|238:177|195:168,1,125
128,64,88606,5,4,0:0:0:0:
256,64,89068,1,4,0:0:0:0:
384,64,89529,2,2,L|384:128,2,62.5
384,192,89991,1,4,0:0:0:0:
256,192,90221,2,2,L|128:192,1,125
128,128,90683,1,0,0:0:0:0:
261,99,90914,1,4,0:0:0:0:
261,99,91029,1,0,0:0:0:0:
261,99,91144,1,0,0:0:0:0:
360,111,91375,2,2,P|372:199|333:222,1,125
263,246,91837,1,4,0:0:0:0:
155,193,92068,2,2,P|198:133|245:127,2,125
232,197,92760,5,4,0:0:0:0:
200,266,92991,2,2,P|279:245|305:210,2,125
232,197,93683,1,4,0:0:0:0:
291,118,93914,2,2,P|198:141|126:227,2,187.500007152558
232,197,94606,1,4,0:0:0:0:
327,230,94837,2,0,P|385:255|427:216,1,125
377,157,95298,2,2,P|313:115|248:108,1,125
176,137,95760,1,12,0:0:0:0:
256,192,95991,12,0,99625,0:0:0:0:
256,192,99683,12,0,101068,0:0:0:0:
256,192,101529,5,0,0:0:0:0:
134,137,102221,1,0,0:0:0:0:
134,137,102452,2,4,L|99:199,2,62.5
224,128,102914,1,4,0:0:0:0:
224,128,103029,1,0,0:0:0:0:
224,128,103145,1,0,0:0:0:0:
128,64,103375,5,4,0:0:0:0:
128,64,103491,1,0,0:0:0:0:
128,64,103606,1,0,0:0:0:0:
256,64,103837,2,4,L|256:128,2,62.5
384,64,104298,1,4,0:0:0:0:
384,64,104414,1,0,0:0:0:0:
384,64,104529,1,0,0:0:0:0:
384,192,104760,2,4,P|320:192|288:256,3,125
204,229,105683,2,4,P|176:165|118:150,2,125
103,88,106375,5,0,0:0:0:0:
213,79,106606,1,4,0:0:0:0:
285,146,106837,1,0,0:0:0:0:
203,159,107068,2,6,L|128:178,1,62.5
207,194,107298,2,0,L|148:232,1,62.5
212,232,107529,2,6,L|175:285,1,62.5
263,251,107760,2,0,P|326:270|351:224,2,125,0|2|0,0:0|0:0|0:0,0:0:0:0:
342,137,108452,6,6,P|296:84|226:78,3,125
192,192,109375,2,4,L|260:200,2,62.5
326,213,109837,1,4,0:0:0:0:
326,213,109952,1,0,0:0:0:0:
326,213,110068,1,0,0:0:0:0:
285,116,110298,2,4,L|203:106,2,62.5
96,288,110760,6,4,L|96:160,1,125
96,64,111221,1,4,0:0:0:0:
256,288,111452,6,2,L|256:160,1,125
256,64,111914,1,0,0:0:0:0:
403,94,112145,6,4,P|363:146|403:172,1,125
401,235,112606,2,6,P|431:292|378:314,1,125
258,310,113068,1,4,0:0:0:0:
125,282,113298,1,0,0:0:0:0:
123,153,113529,2,4,L|233:93,1,125
288,96,113991,2,6,L|416:96,2,125
380,236,114683,2,0,L|252:207,1,125
257,293,115145,1,0,0:0:0:0:
257,293,115260,1,0,0:0:0:0:
257,293,115376,1,4,0:0:0:0:
125,201,115606,1,0,0:0:0:0:
125,201,115837,2,6,P|159:119|191:126,2,125
238,195,116529,6,0,L|358:252,1,125
363,174,116991,2,2,L|307:138,2,62.5
208,124,117452,2,0,L|144:128,1,62.5
86,201,117683,1,4,0:0:0:0:
100,231,117798,1,0,0:0:0:0:
129,251,117914,1,0,0:0:0:0:
256,192,118145,6,4,B|269:161|269:161|257:200|257:200|294:167|294:167|273:210|273:210|320:173,1,218.75
374,229,118606,2,6,P|402:153|367:123,1,125
166,123,119068,2,6,P|127:174|162:222,1,125
256,288,119529,2,4,L|256:75,1,187.500007152558
256,192,119991,6,4,B|268:162|268:162|246:182|246:182|259:157|259:157|232:177|232:177|248:151|248:151|223:173|223:173|236:144,1,218.75
378,217,120452,1,4,0:0:0:0:
396,192,120568,1,0,0:0:0:0:
376,159,120683,1,0,0:0:0:0:
114,223,120914,2,6,P|74:176|111:131,1,125
256,96,121375,2,4,L|256:288,1,187.500007152558
256,192,121837,5,4,0:0:0:0:
256,192,121952,1,0,0:0:0:0:
256,192,122068,1,0,0:0:0:0:
352,179,122298,2,6,L|408:116,2,62.5
190,135,122760,2,6,P|151:156|195:149,1,125
256,288,123222,2,4,L|255:68,1,187.500007152558
386,101,123683,5,4,0:0:0:0:
392,133,123798,1,0,0:0:0:0:
375,163,123914,1,0,0:0:0:0:
341,180,124029,1,0,0:0:0:0:
316,189,124145,1,4,0:0:0:0:
289,208,124260,1,0,0:0:0:0:
276,237,124375,1,0,0:0:0:0:
199,236,124606,2,4,P|136:208|136:140,1,125
230,144,125068,2,6,L|297:112,2,62.5
256,192,125529,6,4,B|261:158|261:158|260:193|260:193|267:159|267:159|266:194|266:194|272:160|272:160|272:196|272:196|280:155,1,250
399,224,125991,1,4,0:0:0:0:
402,163,126106,2,2,L|373:97,1,62.5
145,101,126452,1,4,0:0:0:0:
128,133,126568,1,0,0:0:0:0:
121,172,126683,1,0,0:0:0:0:
256,192,126914,2,4,B|272:164|272:164|261:196|261:196|278:168|278:168|266:200|266:200|282:173|282:173|271:204|271:204|298:157,1,250
225,117,127375,6,4,L|144:99,2,62.5
255,182,127837,2,6,L|281:252,2,62.5
182,171,128298,1,4,0:0:0:0:
153,190,128414,1,0,0:0:0:0:
124,214,128529,1,0,0:0:0:0:
246,98,128760,2,4,P|296:97|257:118,1,125
416,192,129222,5,4,0:0:0:0:
256,288,129452,1,0,0:0:0:0:
96,192,129683,2,4,L|96:107,2,62.5
160,192,130145,2,6,L|228:193,2,62.5
246,261,130606,2,4,P|349:251|384:180,1,187.500007152558
326,127,131068,5,4,0:0:0:0:
307,119,131183,1,0,0:0:0:0:
279,118,131298,1,0,0:0:0:0:
251,122,131414,1,0,0:0:0:0:
219,135,131529,2,4,L|111:221,1,125
208,242,131991,2,12,P|261:284|319:259,1,125
256,192,132683,1,0,0:0:0:0:
199,157,132914,6,4,P|256:119|312:137,2,125
127,247,133606,1,0,0:0:0:0:
184,219,133837,2,6,L|309:227,2,125
333,155,134529,2,0,L|180:151,1,125
79,197,134991,5,2,0:0:0:0:
114,134,135222,2,6,P|181:88|242:91,1,125
335,109,135683,1,4,0:0:0:0:
335,109,135798,1,0,0:0:0:0:
335,109,135914,1,0,0:0:0:0:
343,198,136145,2,4,P|313:257|245:259,1,125
175,237,136606,6,6,P|171:163|123:136,2,125
309,166,137298,1,0,0:0:0:0:
348,236,137529,2,4,P|391:127|336:92,1,187.500007152558
274,236,137991,2,6,P|223:164|281:94,1,187.500007152558
318,182,138452,2,4,P|270:137|224:135,1,93.7500035762788
183,139,138914,2,4,P|205:190|259:190,1,93.7500035762788
330,213,139375,2,4,P|374:258|409:238,1,93.7500035762788
419,143,139837,2,6,P|346:84|281:168,1,187.500007152558
77,115,140298,6,4,L|76:305,1,187.500007152558
181,116,140760,5,4,0:0:0:0:
178,192,140991,5,0,0:0:0:0:
176,266,141222,5,4,0:0:0:0:
269,278,141452,6,0,L|293:91,1,187.500007152558
351,193,141914,1,0,0:0:0:0:
424,192,142145,2,4,L|201:195,1,187.500007152558
67,199,142606,1,4,0:0:0:0:
147,103,142837,1,0,0:0:0:0:
147,103,142952,1,0,0:0:0:0:
147,103,143068,1,4,0:0:0:0:
229,101,143299,2,0,L|331:102,2,93.7500035762788
141,117,143760,5,0,0:0:0:0:
100,173,143991,2,6,P|98:215|122:222,1,62.5
219,210,144452,1,4,0:0:0:0:
301,156,144683,2,2,B|345:162|332:165,1,31.25
381,200,144914,1,4,0:0:0:0:
318,286,145145,2,2,L|282:305,1,31.25
222,306,145375,1,4,0:0:0:0:
140,299,145490,2,2,L|120:269,1,31.25
98,203,145837,6,0,P|101:142|153:113,1,125
316,140,146760,2,6,L|198:220,1,125
212,210,147222,1,12,0:0:0:0:
168,96,147683,6,4,P|105:134|91:187,1,125
166,226,148145,2,4,P|221:180|281:159,1,125
366,182,148606,1,4,0:0:0:0:
366,182,148722,1,0,0:0:0:0:
366,182,148837,1,0,0:0:0:0:
311,240,149068,2,4,P|246:295|215:276,1,125
251,125,149529,6,4,P|185:109|137:140,3,125
126,218,150452,5,4,0:0:0:0:
257,237,150914,2,4,P|311:238|251:225,1,187.500007152558
126,184,151375,1,4,0:0:0:0:
135,104,151606,2,2,L|271:100,1,125
320,128,152068,1,0,0:0:0:0:
192,256,152299,1,4,0:0:0:0:
256,192,152529,1,0,0:0:0:0:
309,265,152760,2,6,P|377:207|365:159,1,125
384,106,153222,1,4,0:0:0:0:
100,70,153452,1,0,0:0:0:0:
120,136,153683,1,4,0:0:0:0:
146,196,153914,1,0,0:0:0:0:
177,254,154145,2,6,P|249:258|294:184,1,125
352,191,154606,1,4,0:0:0:0:
352,191,154722,1,0,0:0:0:0:
352,191,154837,1,0,0:0:0:0:
283,124,155068,6,4,L|320:66,2,62.5
199,148,155529,2,6,L|121:124,2,62.5
202,241,155991,2,4,P|259:258|290:238,1,93.75
299,305,156452,2,6,P|242:328|180:298,1,125
320,160,156914,6,4,L|365:113,2,62.5
251,170,157375,2,6,L|189:132,2,62.5
310,211,157837,1,4,0:0:0:0:
315,234,157952,1,0,0:0:0:0:
310,261,158068,1,0,0:0:0:0:
281,279,158183,1,0,0:0:0:0:
245,283,158299,2,4,P|174:244|165:193,1,125
342,110,158760,6,6,B|404:89|404:89|379:151,1,125
292,263,159222,2,4,B|257:321|257:321|224:259,1,125
148,160,159683,2,6,B|130:102|130:102|206:132,1,125
265,198,160145,2,4,P|280:153|257:193,1,125
326,100,160606,6,4,P|256:86|188:110,1,125
129,198,161068,1,4,0:0:0:0:
129,198,161183,1,0,0:0:0:0:
129,198,161299,1,0,0:0:0:0:
333,249,161529,1,4,0:0:0:0:
333,249,161645,1,0,0:0:0:0:
333,249,161760,1,0,0:0:0:0:
349,172,161991,2,4,P|291:133|214:129,1,125
199,124,162452,2,4,P|141:162|131:222,1,125
227,201,162914,1,4,0:0:0:0:
239,275,163145,2,0,P|321:252|337:207,1,125
282,159,163606,1,0,0:0:0:0:
369,126,163837,2,4,P|300:73|243:72,1,125
179,123,164299,1,4,0:0:0:0:
107,92,164529,2,0,P|79:161|112:206,1,125
124,282,164991,1,0,0:0:0:0:
209,171,165222,5,4,0:0:0:0:
262,268,165452,1,0,0:0:0:0:
329,211,165683,1,4,0:0:0:0:
394,270,165914,1,0,0:0:0:0:
394,270,166029,1,0,0:0:0:0:
394,270,166145,1,4,0:0:0:0:
387,196,166376,6,0,P|346:117|287:100,1,125
220,93,166837,2,0,P|150:115|118:162,1,125
191,201,167299,2,0,L|155:257,2,62.5
262,168,167760,2,0,L|329:138,1,62.5
319,142,167991,1,4,0:0:0:0:
377,194,168222,2,0,P|341:253|273:257,2,125
359,113,168914,1,4,0:0:0:0:
215,88,169145,2,0,P|142:113|101:159,1,125
256,192,169837,5,4,0:0:0:0:
256,192,170299,1,4,0:0:0:0:
256,192,170760,2,4,L|169:191,2,62.5
320,192,171222,1,0,0:0:0:0:
384,192,171452,2,0,P|407:112|381:84,1,125
289,88,171914,1,0,0:0:0:0:
196,117,172145,2,4,L|158:174,2,62.5
172,252,172606,5,4,0:0:0:0:
172,252,172837,1,0,0:0:0:0:
172,252,173068,1,4,0:0:0:0:
249,262,173299,2,0,P|305:205|300:160,1,125
363,116,173760,2,0,P|390:220|341:291,1,187.500007152558
232,103,174222,6,0,L|147:108,2,62.5
295,104,174683,1,0,0:0:0:0:
260,167,174914,2,4,L|219:216,2,62.5
295,104,175376,2,4,P|227:78|157:99,1,125
114,178,175837,1,4,0:0:0:0:
114,178,176068,1,0,0:0:0:0:
104,269,176299,6,4,L|240:271,1,125
188,202,176760,2,4,L|328:203,1,125
132,48,177222,2,4,L|271:50,1,125
119,307,177683,2,4,L|251:308,1,125
181,111,178145,2,4,L|306:113,1,125
189,238,178606,2,4,L|325:238,1,125
176,154,179068,6,4,P|130:171|176:172,1,125
253,157,179529,2,4,P|301:153|256:170,1,125
62,188,179991,6,4,L|198:45,1,187.500007152558
136,207,180452,2,4,L|277:335,1,187.500007152558
208,183,180914,2,4,L|343:45,1,187.500007152558
285,199,181376,2,4,L|433:328,1,187.500007152558
386,197,181837,2,4,B|204:52|125:207|127:270|239:323|321:212|221:180|178:212|195:256|210:225,1,375.000014305115
256,192,182760,5,4,0:0:0:0:
330,124,183452,1,0,0:0:0:0:
348,189,183683,2,4,L|375:257,2,62.5
216,118,184145,1,4,0:0:0:0:
216,118,184260,1,0,0:0:0:0:
216,118,184376,1,0,0:0:0:0:
166,187,184606,6,4,L|103:233,1,62.5
184,217,184837,2,0,L|141:278,1,62.5
202,251,185068,2,4,L|186:322,1,62.5
275,243,185298,2,10,L|326:192,4,62.5
361,98,185991,2,4,P|287:66|231:76,3,125
140,93,186914,1,4,0:0:0:0:
135,178,187145,2,0,L|169:303,1,125
246,294,187606,2,0,L|288:169,1,125
384,187,188068,5,0,0:0:0:0:
404,98,188299,2,4,L|331:78,1,62.5
252,97,188760,2,4,L|276:158,1,62.5
316,219,189222,2,4,L|256:250,1,62.5
165,223,189683,2,4,B|126:175|126:175|193:185,1,125
301,169,190145,2,4,P|290:122|306:167,1,125
392,132,190606,6,4,P|421:155|412:165,1,62.5
357,228,190837,1,0,0:0:0:0:
321,229,190953,1,0,0:0:0:0:
291,208,191068,1,4,0:0:0:0:
283,171,191183,1,0,0:0:0:0:
279,114,191299,2,0,L|209:116,3,62.5
140,127,191991,2,4,L|75:155,1,62.5
148,171,192222,2,0,L|81:230,1,62.5
165,214,192453,2,4,L|125:279,1,62.5
256,225,192683,2,0,L|319:223,4,62.5
192,64,193376,6,4,L|320:64,1,125
363,130,193837,1,4,0:0:0:0:
317,132,193953,1,0,0:0:0:0:
272,130,194068,1,0,0:0:0:0:
137,237,194299,1,4,0:0:0:0:
182,238,194414,1,0,0:0:0:0:
223,239,194529,1,0,0:0:0:0:
178,308,194760,2,4,L|313:306,1,125
364,248,195222,5,4,0:0:0:0:
397,166,195453,2,0,P|333:109|292:121,2,125
277,197,196145,2,4,P|189:209|163:179,2,125
230,125,196837,1,0,0:0:0:0:
100,207,197068,2,4,L|87:136,2,62.5
191,247,197529,1,4,0:0:0:0:
191,247,197645,1,0,0:0:0:0:
191,247,197760,1,0,0:0:0:0:
307,246,197991,1,4,0:0:0:0:
307,246,198106,2,0,L|325:173,2,62.5
256,256,198453,2,4,L|177:266,2,62.5
262,198,198798,2,0,L|191:172,3,62.5
256,96,199376,5,4,0:0:0:0:
256,96,199606,1,0,0:0:0:0:
64,192,199837,1,4,0:0:0:0:
448,192,200068,1,0,0:0:0:0:
256,256,200299,2,4,L|256:128,1,125
256,64,200760,2,4,L|256:256,1,187.500007152558
416,192,201222,6,4,L|283:191,1,125
231,174,201683,2,4,P|188:181|235:187,1,125
360,305,202145,1,4,0:0:0:0:
358,66,202376,1,0,0:0:0:0:
96,192,202606,2,4,L|285:190,1,187.500007152558
226,81,203068,6,4,P|151:109|138:159,1,125
251,162,203529,2,4,P|228:241|275:269,1,125
307,215,203991,2,4,P|371:264|417:243,1,125
361,134,204453,2,4,L|394:108,4,31.25
177,152,204914,6,4,L|114:117,2,62.5
255,203,205376,2,4,L|266:249,4,31.25
306,136,205837,2,4,L|324:117,8,15.625
97,170,206299,2,4,L|137:117,1,46.8750017881394
211,102,206529,2,0,L|236:160,1,46.8750017881394
163,263,206760,6,4,P|238:302|302:295,1,125
64,192,207222,1,4,0:0:0:0:
416,192,207453,1,0,0:0:0:0:
189,144,207683,2,4,P|238:101|289:140,1,125
256,192,208145,2,4,B|282:166|282:166|260:197|260:197|288:172|288:172|267:202|267:202|293:177|293:177|271:207|271:207|291:182,1,250
233,122,208606,6,4,L|192:191,1,62.5
212,239,208837,2,0,L|275:273,1,62.5
370,246,209068,2,0,P|396:173|361:128,1,125
171,132,209529,1,0,0:0:0:0:
171,132,209645,1,0,0:0:0:0:
171,132,209760,1,0,0:0:0:0:
182,225,209991,6,4,P|288:226|324:158,1,187.500007152558
305,103,210453,2,4,P|371:88|417:146,1,125
398,233,210914,2,4,L|371:296,2,62.5
272,306,211376,1,4,0:0:0:0:
71,192,211606,1,0,0:0:0:0:
256,96,211837,2,4,B|301:93|301:94|257:103|257:103|298:101|298:101|256:109|256:109|293:109|293:109|250:118|250:118|270:119,1,250
350,172,212299,5,4,0:0:0:0:
349,202,212414,1,0,0:0:0:0:
332,237,212530,1,0,0:0:0:0:
298,258,212645,1,0,0:0:0:0:
265,251,212760,2,0,P|203:251|262:257,1,187.5
265,251,213222,2,4,P|190:251|258:260,1,250
59,182,214145,6,4,L|166:99,1,125
144,208,214606,2,4,L|254:122,1,125
222,237,215068,2,4,L|333:153,1,125
421,174,215530,2,4,P|432:244|373:285,1,125
247,314,215991,1,4,0:0:0:0:
152,248,216453,6,4,L|66:127,1,125
219,202,216914,2,4,L|160:84,1,125
291,146,217376,2,4,L|232:30,1,125
362,224,217837,6,4,L|224:227,1,125
96,297,218299,1,4,0:0:0:0:
92,117,218530,1,0,0:0:0:0:
238,107,218760,2,4,L|252:177,2,62.5
369,98,219222,2,4,L|385:171,2,62.5
365,242,219683,6,4,L|245:292,1,125
111,303,220145,1,4,0:0:0:0:
111,303,220260,1,0,0:0:0:0:
111,303,220376,1,0,0:0:0:0:
99,117,220606,1,4,0:0:0:0:
99,117,220722,1,0,0:0:0:0:
99,117,220837,1,0,0:0:0:0:
255,157,221068,2,4,P|299:166|256:169,1,125
183,165,221530,6,4,P|202:189|180:214,1,62.5
253,136,221991,2,4,P|267:189|245:255,1,125
314,108,222453,2,4,P|335:191|288:313,1,187.500007152558
386,81,222914,2,4,P|409:192|372:326,1,250
384,192,223376,2,4,L|446:190,2,62.5
320,187,223837,6,4,P|296:193|320:196,1,62.5
288,182,224299,2,4,P|242:191|289:201,1,125
239,177,224760,2,4,P|171:194|240:205,1,187.500007152558
101,167,225222,2,4,P|148:109|216:96,1,125
170,182,225683,2,4,P|177:255|227:282,1,125
247,168,226145,2,4,P|298:124|362:108,1,125
268,241,226606,2,4,P|326:271|366:208,1,125
318,113,227068,1,4,0:0:0:0:
285,102,227183,5,0,0:0:0:0:
250,98,227299,5,0,0:0:0:0:
213,103,227414,5,0,0:0:0:0:
180,117,227530,5,4,0:0:0:0:
157,147,227645,5,0,0:0:0:0:
151,182,227760,5,0,0:0:0:0:
162,215,227876,5,0,0:0:0:0:
186,237,227991,5,4,0:0:0:0:
217,245,228106,5,0,0:0:0:0:
246,227,228222,5,0,0:0:0:0:
245,194,228337,5,0,0:0:0:0:
215,180,228453,5,4,0:0:0:0:
196,207,228568,5,0,0:0:0:0:
223,225,228683,5,0,0:0:0:0:
