osu file format v14

[General]
AudioFilename: 04 - drop pop candy.mp3
AudioLeadIn: 0
PreviewTime: 52361
Countdown: 0
SampleSet: None
StackLeniency: 0.7
Mode: 0
LetterboxInBreaks: 1
WidescreenStoryboard: 1

[Editor]
Bookmarks: 15438,22805,82361
DistanceSpacing: 0.8
BeatDivisor: 4
GridSize: 8
TimelineZoom: 2

[Metadata]
Title:Drop Pop Candy
TitleUnicode:Drop Pop Candy
Artist:Reol
ArtistUnicode:Reol
Creator:Nyantiaz
Version:Toy's Insane
Source:
Tags:Megurine Luka Kagamine Rin Giga-P key No title No title chaos248 toy [toy] signum _Meep_ -Kyu short version ver
BeatmapID:1494478
BeatmapSetID:433386

[Difficulty]
HPDrainRate:6
CircleSize:4
OverallDifficulty:7
ApproachRate:8
SliderMultiplier:1.4
SliderTickRate:1

[Events]
//Background and Video events
0,0,"kawaiipillow.jpg",0,0
//Break Periods
//Storyboard Layer 0 (Background)
//Storyboard Layer 1 (Fail)
//Storyboard Layer 2 (Pass)
//Storyboard Layer 3 (Foreground)
//Storyboard Sound Samples

[TimingPoints]
652,461.538461538462,4,2,1,40,1,0
7592,-200,4,2,1,70,0,0
8053,-133.333333333333,4,1,1,50,0,0
8053,-100,4,1,1,40,0,0
10575,-100,4,1,1,50,0,0
11053,-66.6666666666667,4,1,1,50,0,0
11284,-133.333333333333,4,1,1,50,0,0
11515,-50,4,1,1,50,0,0
11745,-100,4,1,1,50,0,0
12669,-200,4,1,1,50,0,0
12899,-100,4,1,1,50,0,0
15438,-100,4,2,1,50,0,0
15553,-100,4,1,1,50,0,0
45438,-133.333333333333,4,1,1,50,0,0
46361,-133.333333333333,4,1,1,50,0,0
47284,-133.333333333333,4,1,1,50,0,0
47745,-50,4,1,1,50,0,0
48207,-133.333333333333,4,1,1,50,0,0
49130,-133.333333333333,4,1,1,50,0,0
52361,-100,4,1,1,70,0,1
67130,-100,4,1,1,60,0,0

[Colours]
Combo1 : 255,132,132
Combo2 : 255,128,0
Combo3 : 155,255,55
Combo4 : 255,255,85

[HitObjects]
188,135,652,5,0,0:0:0:0:
188,135,882,1,0,0:0:0:0:
135,217,1113,2,0,P|198:233|208:216,1,70,2|2,0:0|0:0,0:0:0:0:
400,320,1575,1,0,0:0:0:0:
400,320,1805,1,0,0:0:0:0:
446,233,2036,2,0,P|381:222|352:232,1,70,0|0,0:0|0:0,0:0:0:0:
311,54,2498,5,0,0:0:0:0:
336,146,2728,1,0,0:0:0:0:
404,78,2959,1,0,0:0:0:0:
431,171,3190,2,0,P|400:220|320:240,1,140,0|0,0:0|0:0,0:0:0:0:
270,328,3882,1,0,0:0:0:0:
210,252,4113,1,0,0:0:0:0:
44,309,4344,5,0,0:0:0:0:
44,309,4575,1,0,0:0:0:0:
135,220,4805,1,2,0:0:0:0:
159,188,4920,1,2,0:0:0:0:
167,148,5037,1,2,0:0:0:0:
160,111,5152,1,2,0:0:0:0:
135,79,5267,1,2,0:0:0:0:
28,150,5498,1,0,0:0:0:0:
138,239,5728,2,0,L|131:205,1,35,0|0,0:0|0:0,0:0:0:0:
224,208,5959,2,0,L|224:248,1,35,0|0,0:0|0:0,0:0:0:0:
382,229,6190,5,0,0:0:0:0:
133,219,6421,1,0,0:0:0:0:
264,42,6652,1,8,0:0:0:0:
212,307,6882,1,8,0:0:0:0:
224,331,6998,1,8,0:0:0:0:
241,351,7113,2,0,P|260:368|280:368,1,35,8|8,0:0|0:0,0:0:0:0:
344,246,7344,2,0,P|330:231|312:224,1,35,8|8,0:0|0:0,0:0:0:0:
98,346,7575,2,0,P|88:336|72:312,1,35,8|0,0:0|0:0,0:0:0:0:
352,344,8036,6,0,P|320:336|304:328,1,35,4|0,0:0|0:0,0:0:0:0:
360,240,8498,2,0,P|399:199|400:184,1,52.5000020027161,8|0,0:0|0:0,0:0:0:0:
304,112,8959,2,0,P|264:105|232:112,1,52.5000020027161,0|0,0:0|0:0,0:0:0:0:
79,5,9421,1,8,0:0:0:0:
0,121,9652,1,0,0:0:0:0:
104,264,9882,6,0,L|112:192,1,52.5000020027161,0|0,0:0|0:0,0:0:0:0:
198,346,10344,1,8,0:0:0:0:
455,265,10575,2,0,P|384:234|328:264,1,140,0|0,0:0|0:0,0:0:0:0:
386,333,11267,1,8,0:0:0:0:
285,115,11498,1,0,0:0:0:0:
460,45,11728,6,0,B|472:112|472:112|440:184,1,140,0|0,0:0|0:0,0:0:0:0:
293,209,12190,1,8,0:0:0:0:
429,245,12421,1,0,0:0:0:0:
325,44,12652,2,0,B|272:40|272:40|288:48,1,70,0|0,0:0|0:0,0:0:0:0:
163,167,13113,1,8,0:0:0:0:
84,3,13344,1,0,0:0:0:0:
10,139,13575,5,0,0:0:0:0:
188,0,13805,1,8,0:0:0:0:
219,223,14035,1,8,0:0:0:0:
105,92,14267,1,8,0:0:0:0:
105,92,14382,1,8,0:0:0:0:
105,92,14498,1,8,0:0:0:0:
66,221,14728,1,0,0:0:0:0:
263,90,14959,1,8,0:0:0:0:
302,219,15190,1,0,0:0:0:0:
215,264,15421,6,0,P|251:303|272:312,1,70,0|0,0:0|0:0,0:0:0:0:
390,175,15882,2,0,P|364:144|336:128,1,70,8|0,0:0|0:0,0:0:0:0:
160,80,16344,2,0,P|146:134|169:169,1,70,0|0,0:0|0:0,0:0:0:0:
308,43,16805,1,8,0:0:0:0:
302,219,17036,1,0,0:0:0:0:
452,110,17267,6,0,B|411:112|411:112|368:136,1,70,0|0,0:0|0:0,0:0:0:0:
388,262,17728,1,8,0:0:0:0:
238,307,17959,1,0,0:0:0:0:
267,149,18190,1,0,0:0:0:0:
56,239,18421,2,0,P|60:179|80:144,1,70,0|8,0:0|0:0,0:0:0:0:
176,16,18882,2,0,P|177:55|168:88,1,70,0|0,0:0|0:0,0:0:0:0:
306,36,19344,5,0,0:0:0:0:
358,171,19575,1,8,0:0:0:0:
217,149,19805,1,0,0:0:0:0:
384,76,20036,2,0,P|419:94|440:120,1,70,0|0,0:0|0:0,0:0:0:0:
339,272,20498,1,8,0:0:0:0:
220,352,20728,1,0,0:0:0:0:
213,216,20959,5,0,0:0:0:0:
68,371,21190,2,0,P|71:318|88:272,1,70,0|8,0:0|0:0,0:0:0:0:
227,139,21652,2,0,P|224:192|200:232,1,70,0|0,0:0|0:0,0:0:0:0:
92,132,22113,1,0,0:0:0:0:
200,49,22344,2,0,P|251:42|296:64,1,70,8|0,0:0|0:0,0:0:0:0:
288,56,22690,1,0,0:0:0:0:
304,64,22805,5,0,0:0:0:0:
292,219,23036,1,0,0:0:0:0:
448,112,23267,2,0,B|464:149|464:149|472:192,1,70,8|0,0:0|0:0,0:0:0:0:
318,305,23728,1,0,0:0:0:0:
446,331,23959,1,0,0:0:0:0:
346,136,24190,1,8,0:0:0:0:
193,247,24421,6,0,P|134:249|104:224,1,70,0|0,0:0|0:0,0:0:0:0:
191,48,24882,1,0,0:0:0:0:
3,143,25113,2,0,B|-18:106|0:64,1,70,8|0,0:0|0:0,0:0:0:0:
160,154,25575,1,0,0:0:0:0:
316,51,25805,2,0,L|400:40,1,70,0|8,0:0|0:0,0:0:0:0:
483,193,26267,1,0,0:0:0:0:
483,193,26382,1,0,0:0:0:0:
483,193,26498,6,0,P|437:193|408:208,1,70,2|0,0:0|0:0,0:0:0:0:
266,304,26959,1,10,0:0:0:0:
313,116,27190,1,0,0:0:0:0:
63,167,27421,1,2,0:0:0:0:
71,189,27536,1,2,0:0:0:0:
80,208,27652,2,0,P|96:248|112:272,1,70,2|8,0:0|0:0,0:0:0:0:
274,25,28113,6,0,B|313:8|352:24,1,70,2|0,0:0|0:0,0:0:0:0:
243,160,28575,2,0,B|204:142|168:160,1,70,2|8,0:0|0:0,0:0:0:0:
332,338,29036,1,2,0:0:0:0:
421,192,29267,2,0,L|344:224,2,70,2|0|10,0:0|0:0|0:0,0:0:0:0:
344,104,29959,1,0,0:0:0:0:
253,88,30190,6,0,L|168:112,1,70,0|0,0:0|0:0,0:0:0:0:
8,100,30652,1,8,0:0:0:0:
71,265,30882,1,0,0:0:0:0:
253,88,31113,2,0,L|248:160,1,70,0|0,0:0|0:0,0:0:0:0:
152,32,31575,1,8,0:0:0:0:
368,192,31805,1,0,0:0:0:0:
235,321,32036,6,0,P|167:325|136:312,1,70,0|0,0:0|0:0,0:0:0:0:
54,214,32498,1,8,0:0:0:0:
264,64,32728,2,0,P|294:125|279:201,1,140,0|0,0:0|0:0,0:0:0:0:
134,341,33421,1,8,0:0:0:0:
178,143,33652,1,0,0:0:0:0:
336,333,33882,6,0,L|360:240,1,70,0|0,0:0|0:0,0:0:0:0:
246,93,34344,1,8,0:0:0:0:
368,64,34575,1,0,0:0:0:0:
268,233,34805,2,0,P|197:236|168:224,1,70,0|0,0:0|0:0,0:0:0:0:
151,51,35267,1,8,0:0:0:0:
58,163,35498,1,0,0:0:0:0:
326,84,35728,6,0,P|344:149|336:176,1,70,0|0,0:0|0:0,0:0:0:0:
285,323,36190,1,8,0:0:0:0:
151,51,36421,2,0,L|144:200,1,140,0|0,0:0|0:0,0:0:0:0:
187,332,37113,1,8,0:0:0:0:
271,169,37344,1,0,0:0:0:0:
410,350,37575,6,0,P|422:292|408:280,1,70,0|0,0:0|0:0,0:0:0:0:
282,102,38036,2,0,P|270:160|280:192,1,70,8|0,0:0|0:0,0:0:0:0:
436,141,38498,1,0,0:0:0:0:
275,305,38728,1,0,0:0:0:0:
79,161,38959,2,0,P|137:173|160:160,1,70,8|0,0:0|0:0,0:0:0:0:
353,66,39421,2,0,B|364:104|364:104|360:168,1,70,0|0,0:0|0:0,0:0:0:0:
136,43,39882,1,8,0:0:0:0:
149,316,40113,2,0,B|166:258|166:258|142:221|142:221|152:176,1,140,0|0,0:0|0:0,0:0:0:0:
47,297,40805,1,8,0:0:0:0:
269,173,41036,1,0,0:0:0:0:
97,88,41267,6,0,P|145:70|192:80,1,70,0|0,0:0|0:0,0:0:0:0:
267,258,41728,1,8,0:0:0:0:
342,98,41959,1,0,0:0:0:0:
442,319,42190,1,0,0:0:0:0:
267,258,42421,1,0,0:0:0:0:
267,258,42536,2,0,P|254:184|264:136,1,105,0|0,0:0|0:0,0:0:0:0:
39,240,43113,5,0,0:0:0:0:
97,111,43344,1,0,0:0:0:0:
170,289,43575,1,8,0:0:0:0:
224,72,43805,2,0,B|272:48|304:72|304:72|336:48|368:80,1,140,0|0,0:0|0:0,0:0:0:0:
247,196,44498,1,8,0:0:0:0:
361,264,44728,1,0,0:0:0:0:
143,351,44959,6,0,P|128:315|126:261,1,70,0|0,0:0|0:0,0:0:0:0:
136,64,45421,1,8,0:0:0:0:
64,176,45652,1,0,0:0:0:0:
304,72,45882,2,0,L|312:104|320:136,1,52.5000020027161,0|0,0:0|0:0,0:0:0:0:
292,327,46344,1,8,0:0:0:0:
403,251,46575,1,0,0:0:0:0:
128,168,46805,6,0,P|164:184|192:168,1,52.5000020027161,0|0,0:0|0:0,0:0:0:0:
410,151,47267,1,8,0:0:0:0:
300,77,47498,1,0,0:0:0:0:
331,314,47728,1,0,0:0:0:0:
237,248,47959,1,0,0:0:0:0:
486,92,48190,2,0,P|496:125|464:232,1,140,8|0,0:0|0:0,0:0:0:0:
331,314,48652,6,0,P|312:280|320:256,1,52.5000020027161,0|0,0:0|0:0,0:0:0:0:
318,42,49113,1,8,0:0:0:0:
411,134,49344,1,0,0:0:0:0:
237,248,49575,2,0,P|208:256|176:248,1,52.5000020027161,0|0,0:0|0:0,0:0:0:0:
26,134,50036,2,0,P|80:126|96:128,1,52.5000020027161,8|0,0:0|0:0,0:0:0:0:
393,224,50498,5,0,0:0:0:0:
371,217,50959,1,0,0:0:0:0:
348,209,51421,1,0,0:0:0:0:
325,201,51882,1,0,0:0:0:0:
118,28,52344,6,0,B|117:60|117:60|121:77|127:95|127:95|128:96,1,52.5000020027161,4|0,0:0|0:0,0:0:0:0:
249,296,52805,1,8,0:0:0:0:
114,255,53036,1,0,0:0:0:0:
337,65,53267,1,0,0:0:0:0:
355,81,53382,1,0,0:0:0:0:
371,100,53498,2,0,P|390:148|384:192,1,70,0|0,0:0|0:0,0:0:0:0:
201,64,53959,1,0,0:0:0:0:
31,203,54190,6,0,P|81:219|120:200,1,70,0|0,0:0|0:0,0:0:0:0:
354,291,54652,2,0,P|304:307|264:288,1,70,8|0,0:0|0:0,0:0:0:0:
80,128,55113,1,0,0:0:0:0:
267,25,55344,1,0,0:0:0:0:
112,16,55575,1,0,0:0:0:0:
224,192,55805,1,0,0:0:0:0:
360,56,56036,2,0,P|416:64|440:80,1,70,0|0,0:0|0:0,0:0:0:0:
376,288,56498,6,0,B|376:248|376:248|368:224|368:224|368:192,1,70,0|0,0:0|0:0,0:0:0:0:
260,69,56959,1,0,0:0:0:0:
143,225,57190,2,0,P|193:238|240:224,1,70,0|8,0:0|0:0,0:0:0:0:
64,96,57652,2,0,L|24:144,1,35,0|0,0:0|0:0,0:0:0:0:
42,123,57882,2,0,P|38:185|48:224,1,70,0|0,0:0|0:0,0:0:0:0:
197,311,58344,5,8,0:0:0:0:
405,165,58575,1,0,0:0:0:0:
382,175,58690,1,0,0:0:0:0:
359,184,58805,2,0,P|320:192|296:192,1,35,0|0,0:0|0:0,0:0:0:0:
123,74,59036,2,0,P|172:79|176:80,1,35,0|0,0:0|0:0,0:0:0:0:
357,45,59267,1,8,0:0:0:0:
160,200,59498,1,0,0:0:0:0:
416,298,59728,6,0,L|328:304,1,70,0|0,0:0|0:0,0:0:0:0:
76,256,60190,1,8,0:0:0:0:
230,152,60421,1,0,0:0:0:0:
74,31,60652,1,0,0:0:0:0:
65,54,60767,1,0,0:0:0:0:
60,78,60882,2,0,P|50:139|64:176,1,70,0|8,0:0|0:0,0:0:0:0:
207,276,61344,1,0,0:0:0:0:
386,77,61575,6,0,P|337:66|296:80,1,70,0|0,0:0|0:0,0:0:0:0:
449,237,62036,1,8,0:0:0:0:
321,317,62267,1,0,0:0:0:0:
441,345,62498,1,0,0:0:0:0:
316,148,62728,1,0,0:0:0:0:
145,304,62959,2,0,P|141:239|152:208,1,70,8|0,0:0|0:0,0:0:0:0:
112,40,63421,2,0,P|168:64|200:64,1,70,0|0,0:0|0:0,0:0:0:0:
300,247,63882,5,8,0:0:0:0:
468,154,64113,1,0,0:0:0:0:
303,64,64344,1,0,0:0:0:0:
82,190,64575,2,0,P|160:184|184:184,1,70,0|8,0:0|0:0,0:0:0:0:
416,65,65036,1,0,0:0:0:0:
421,87,65152,1,0,0:0:0:0:
428,110,65267,2,0,P|438:158|424:192,1,70,0|0,0:0|0:0,0:0:0:0:
237,82,65728,1,8,0:0:0:0:
78,237,65959,5,0,0:0:0:0:
102,240,66075,1,0,0:0:0:0:
126,241,66190,2,0,L|176:240,1,35,0|0,0:0|0:0,0:0:0:0:
328,345,66421,2,0,L|288:344,1,35,0|0,0:0|0:0,0:0:0:0:
439,217,66652,1,8,0:0:0:0:
430,193,66767,1,8,0:0:0:0:
424,168,66882,2,0,P|416:152|416:104,1,35,8|0,0:0|0:0,0:0:0:0:
237,82,67113,6,0,B|207:88|207:88|177:77|177:77|144:88,1,70,4|0,0:0|0:0,0:0:0:0:
175,239,67575,1,8,0:0:0:0:
338,153,67805,1,0,0:0:0:0:
422,321,68036,2,0,L|328:328,1,70,0|0,0:0|0:0,0:0:0:0:
176,232,68382,2,0,L|256:240,1,70,0|0,0:0|0:0,0:0:0:0:
430,199,68728,1,0,0:0:0:0:
309,47,68959,6,0,P|243:43|216:64,1,70,0|0,0:0|0:0,0:0:0:0:
49,170,69421,1,8,0:0:0:0:
169,318,69652,1,0,0:0:0:0:
272,138,69882,2,0,L|280:232,1,70,0|0,0:0|0:0,0:0:0:0:
389,341,70228,2,0,L|376:248,1,70,0|0,0:0|0:0,0:0:0:0:
387,126,70575,1,0,0:0:0:0:
176,225,70805,6,0,P|120:232|80:224,1,70,0|0,0:0|0:0,0:0:0:0:
125,89,71267,1,8,0:0:0:0:
314,148,71498,1,0,0:0:0:0:
141,326,71728,2,0,L|240:336,1,70,0|0,0:0|0:0,0:0:0:0:
407,254,72075,2,0,L|320:264,1,70,0|0,0:0|0:0,0:0:0:0:
176,225,72421,1,0,0:0:0:0:
221,33,72652,5,0,0:0:0:0:
342,98,72882,1,0,0:0:0:0:
85,174,73113,1,8,0:0:0:0:
251,331,73344,2,0,P|259:271|240:240,1,70,0|0,0:0|0:0,0:0:0:0:
396,335,73805,1,0,0:0:0:0:
213,151,74036,1,8,0:0:0:0:
147,284,74267,1,0,0:0:0:0:
72,68,74498,6,0,P|137:73|168:64,1,70,0|0,0:0|0:0,0:0:0:0:
321,178,74959,1,8,0:0:0:0:
442,61,75190,1,0,0:0:0:0:
512,296,75421,2,0,L|410:308,1,70,0|0,0:0|0:0,0:0:0:0:
224,320,75767,2,0,L|320:328,1,70,0|0,0:0|0:0,0:0:0:0:
124,243,76113,1,0,0:0:0:0:
265,41,76344,6,0,B|268:77|268:77|261:104|261:104|272:136,1,70,0|0,0:0|0:0,0:0:0:0:
268,326,76805,1,8,0:0:0:0:
385,265,77036,1,0,0:0:0:0:
107,204,77267,2,0,L|208:224,1,70,0|0,0:0|0:0,0:0:0:0:
367,124,77613,2,0,L|280:136,1,70,0|0,0:0|0:0,0:0:0:0:
439,202,77959,1,0,0:0:0:0:
287,42,78190,6,0,P|233:45|200:72,1,70,0|0,0:0|0:0,0:0:0:0:
107,204,78652,1,8,0:0:0:0:
25,109,78882,1,0,0:0:0:0:
88,304,79113,2,0,L|104:208,1,70,0|0,0:0|0:0,0:0:0:0:
197,72,79459,2,0,L|208:160,1,70,0|0,0:0|0:0,0:0:0:0:
312,7,79805,1,0,0:0:0:0:
471,187,80036,5,0,0:0:0:0:
213,172,80267,1,0,0:0:0:0:
303,311,80498,1,8,0:0:0:0:
428,56,80728,1,0,0:0:0:0:
143,74,80959,1,0,0:0:0:0:
363,159,81190,1,0,0:0:0:0:
138,256,81421,1,8,0:0:0:0:
303,311,81652,1,0,0:0:0:0:
256,192,81882,12,0,83728,0:0:0:0:
