osu file format v14

[General]
AudioFilename: 04 - drop pop candy.mp3
AudioLeadIn: 0
PreviewTime: 52361
Countdown: 0
SampleSet: Soft
StackLeniency: 0.7
Mode: 0
LetterboxInBreaks: 1
WidescreenStoryboard: 1

[Editor]
Bookmarks: 15438,82361
DistanceSpacing: 1.1
BeatDivisor: 4
GridSize: 8
TimelineZoom: 2.1

[Metadata]
Title:Drop Pop Candy
TitleUnicode:Drop Pop Candy
Artist:Reol
ArtistUnicode:Reol
Creator:Nyantiaz
Version:Signum's Normal
Source:
Tags:Megurine Luka Kagamine Rin Giga-P key No title No title chaos248 toy [toy] signum _Meep_ -Kyu short version ver
BeatmapID:1030874
BeatmapSetID:433386

[Difficulty]
HPDrainRate:4
CircleSize:3.5
OverallDifficulty:4
ApproachRate:5
SliderMultiplier:1.2
SliderTickRate:1

[Events]
//Background and Video events
0,0,"kawaiipillow.jpg",0,0
//Break Periods
//Storyboard Layer 0 (Background)
//Storyboard Layer 1 (Fail)
//Storyboard Layer 2 (Pass)
//Storyboard Layer 3 (Foreground)
//Storyboard Sound Samples

[TimingPoints]
652,461.538461538462,4,2,1,40,1,0
8053,-100,4,1,1,40,0,0
8053,-100,4,1,1,50,0,0
10575,-100,4,1,1,50,0,0
11053,-100,4,1,1,50,0,0
11284,-100,4,1,1,50,0,0
11515,-100,4,1,1,50,0,0
11745,-100,4,1,1,50,0,0
12669,-100,4,1,1,50,0,0
12899,-100,4,1,1,50,0,0
45438,-100,4,1,1,50,0,0
46361,-100,4,1,1,50,0,0
47284,-100,4,1,1,50,0,0
48207,-100,4,1,1,50,0,0
49130,-100,4,1,1,50,0,0
52361,-100,4,1,1,70,0,1
67130,-100,4,1,1,60,0,0

[Colours]
Combo1 : 255,132,132
Combo2 : 255,128,0
Combo3 : 155,255,55
Combo4 : 255,255,85

[HitObjects]
80,112,652,6,0,P|72:160|80:192,1,60,0|0,0:0|0:0,0:0:0:0:
104,224,1113,2,0,L|184:232,1,60,2|2,0:0|0:0,0:0:0:0:
223,201,1575,2,0,P|252:199|281:207,1,60,0|0,0:0|0:0,0:0:0:0:
347,198,2036,2,0,B|353:175|353:175|365:171|365:171|371:146,1,60,0|0,0:0|0:0,0:0:0:0:
411,95,2498,6,0,L|484:104,2,60,0|0|0,0:0|0:0|0:0,0:0:0:0:
350,67,3190,2,0,P|302:56|228:87,1,120,0|0,0:0|0:0,0:0:0:0:
192,127,3882,2,0,P|156:128|125:122,1,60,0|0,0:0|0:0,0:0:0:0:
77,160,4344,6,0,P|79:211|55:278,1,120,0|2,0:0|0:0,0:0:0:0:
175,332,5267,2,0,P|173:281|197:214,1,120,2|0,0:0|0:0,0:0:0:0:
242,169,5959,1,0,0:0:0:0:
305,149,6190,6,0,P|357:164|424:148,1,120,0|8,0:0|0:0,0:0:0:0:
483,130,6882,1,8,0:0:0:0:
483,130,7113,2,0,L|485:209,1,60,8|8,0:0|0:0,0:0:0:0:
446,244,7575,2,2,B|430:262|430:262|441:271|441:271|414:274|385:324,1,90,8|0,0:0|0:0,0:0:0:0:
370,315,8036,6,0,L|232:312,1,120,4|8,0:0|0:0,0:0:0:0:
165,210,8959,2,0,L|290:215,1,120,0|8,0:0|0:0,0:0:0:0:
368,112,9882,6,0,P|321:119|243:87,1,120,0|8,0:0|0:0,0:0:0:0:
193,68,10575,1,0,0:0:0:0:
140,107,10805,2,0,P|144:148|127:177,1,60,0|0,0:0|0:0,0:0:0:0:
176,218,11267,2,0,P|204:210|238:217,1,60,8|0,0:0|0:0,0:0:0:0:
298,199,11728,6,0,L|333:75,1,120,0|8,0:0|0:0,0:0:0:0:
420,180,12652,2,0,L|381:303,1,120,0|8,0:0|0:0,0:0:0:0:
252,323,13575,6,0,L|181:328,1,60,0|8,0:0|0:0,0:0:0:0:
130,302,14036,2,0,B|138:271|130:231,1,60,8|8,0:0|0:0,0:0:0:0:
177,193,14498,2,0,L|244:204,1,60,8|0,0:0|0:0,0:0:0:0:
289,164,14959,2,0,L|356:175,1,60,8|0,0:0|0:0,0:0:0:0:
413,188,15421,6,0,P|438:226|441:304,2,120,0|8|0,0:0|0:0|0:0,0:0:0:0:
310,104,16805,1,8,0:0:0:0:
245,87,17036,1,0,0:0:0:0:
182,108,17267,6,0,P|139:122|65:111,1,120,0|8,0:0|0:0,0:0:0:0:
166,197,18190,2,0,P|209:183|283:194,1,120,0|8,0:0|0:0,0:0:0:0:
357,301,19113,5,0,0:0:0:0:
226,319,19575,2,0,P|170:322|152:315,1,60,8|0,0:0|0:0,0:0:0:0:
106,294,20036,2,0,P|119:220|97:155,1,120,0|8,0:0|0:0,0:0:0:0:
214,98,20959,6,0,L|274:115,1,60,0|0,0:0|0:0,0:0:0:0:
387,178,21652,2,8,P|383:224|263:262,1,180,0|8,0:0|0:0,0:0:0:0:
209,248,22575,1,0,0:0:0:0:
147,270,22805,6,0,P|104:278|24:270,2,120,0|8|0,0:0|0:0|0:0,0:0:0:0:
253,192,24190,2,0,P|277:188|323:189,1,60,8|0,0:0|0:0,0:0:0:0:
377,202,24652,6,0,P|382:145|370:77,2,120,0|8|0,0:0|0:0|0:0,0:0:0:0:
276,286,26036,1,8,0:0:0:0:
145,267,26498,5,2,0:0:0:0:
58,167,26959,2,0,L|39:135,2,30,10|0|0,0:0|0:0|0:0,0:0:0:0:
112,204,27421,2,0,P|145:197|185:208,1,60,2|2,0:0|0:0,0:0:0:0:
230,229,27882,2,0,P|263:236|303:225,1,60,8|2,0:0|0:0,0:0:0:0:
350,207,28344,6,0,L|365:80,1,120,0|8,0:0|0:0,0:0:0:0:
436,198,29267,2,0,L|421:325,1,120,2|10,0:0|0:0,0:0:0:0:
289,311,30190,6,0,P|231:305|162:318,1,120,0|8,0:0|0:0,0:0:0:0:
77,221,31113,2,0,P|83:163|70:94,1,120,0|8,0:0|0:0,0:0:0:0:
194,52,32036,6,0,L|257:60,1,60,0|0,0:0|0:0,0:0:0:0:
314,84,32498,2,0,P|303:129|328:198,1,120,8|0,0:0|0:0,0:0:0:0:
372,244,33190,1,0,0:0:0:0:
403,302,33421,2,0,P|366:317|328:318,1,60,8|0,0:0|0:0,0:0:0:0:
283,299,33882,6,0,P|232:288|166:304,1,120,0|8,0:0|0:0,0:0:0:0:
73,210,34805,2,0,P|84:159|68:93,1,120,0|8,0:0|0:0,0:0:0:0:
192,48,35728,6,0,L|258:58,1,60,0|0,0:0|0:0,0:0:0:0:
312,83,36190,2,0,P|326:139|299:213,1,120,8|0,0:0|0:0,0:0:0:0:
256,237,36882,2,0,P|222:229|186:231,1,60,0|8,0:0|0:0,0:0:0:0:
132,242,37344,1,0,0:0:0:0:
71,269,37575,6,0,L|32:141,2,120,0|8|0,0:0|0:0|0:0,0:0:0:0:
183,338,38959,1,8,0:0:0:0:
295,269,39421,6,0,L|334:141,2,120,0|8|0,0:0|0:0|0:0,0:0:0:0:
183,338,40805,1,8,0:0:0:0:
90,244,41267,6,0,B|71:210|85:184|101:157|79:117,1,120,0|8,0:0|0:0,0:0:0:0:
194,54,42190,2,0,B|213:88|199:114|183:141|200:171,1,120,0|0,0:0|0:0,0:0:0:0:
298,258,43113,6,0,P|335:264|359:258,1,60,0|0,0:0|0:0,0:0:0:0:
410,220,43575,2,0,P|416:183|410:159,1,60,8|0,0:0|0:0,0:0:0:0:
360,119,44036,2,0,L|281:113,1,60,0|0,0:0|0:0,0:0:0:0:
255,65,44498,2,0,L|176:59,1,60,8|0,0:0|0:0,0:0:0:0:
134,86,44959,6,0,P|147:142|130:217,1,120,0|8,0:0|0:0,0:0:0:0:
251,268,45882,2,0,P|238:212|249:146,1,120,0|8,0:0|0:0,0:0:0:0:
352,70,46805,6,0,B|367:68|388:60|388:60|385:76|385:76|415:58|454:66,1,120,0|8,0:0|0:0,0:0:0:0:
441,196,47728,2,0,B|426:198|405:206|405:206|408:190|408:190|383:206|343:193,1,120,0|8,0:0|0:0,0:0:0:0:
259,303,48652,5,0,0:0:0:0:
136,254,49113,1,8,0:0:0:0:
63,143,49575,2,0,P|84:97|74:26,1,120,0|8,0:0|0:0,0:0:0:0:
187,99,50498,5,0,0:0:0:0:
255,211,50959,1,0,0:0:0:0:
324,98,51421,1,0,0:0:0:0:
455,103,51882,1,0,0:0:0:0:
456,184,52344,6,0,P|461:246|432:302,1,120,4|8,0:0|0:0,0:0:0:0:
313,266,53267,2,0,P|255:249|184:280,1,120,0|0,0:0|0:0,0:0:0:0:
90,192,54190,6,0,P|86:130|70:62,2,120,0|8|0,0:0|0:0|0:0,0:0:0:0:
190,277,55575,2,0,P|229:284|255:282,1,60,0|0,0:0|0:0,0:0:0:0:
311,261,56036,5,0,0:0:0:0:
411,175,56498,2,0,P|441:221|444:287,1,120,0|0,0:0|0:0,0:0:0:0:
395,328,57190,1,0,0:0:0:0:
334,354,57421,2,0,P|290:349|274:350,1,60,8|0,0:0|0:0,0:0:0:0:
212,327,57882,6,0,P|175:331|179:186,1,240,0|0,0:0|0:0,0:0:0:0:
235,195,59036,2,0,P|278:206|308:206,1,60,0|8,0:0|0:0,0:0:0:0:
398,126,59728,6,0,P|427:162|431:241,2,120,0|8|0,0:0|0:0|0:0,0:0:0:0:
280,65,61113,1,8,0:0:0:0:
159,120,61575,6,0,P|121:136|95:142,1,60,0|0,0:0|0:0,0:0:0:0:
54,185,62036,2,0,P|70:223|76:249,1,60,8|0,0:0|0:0,0:0:0:0:
62,306,62498,2,0,L|191:324,1,120,0|8,0:0|0:0,0:0:0:0:
246,311,63190,1,0,0:0:0:0:
310,326,63421,5,0,0:0:0:0:
409,239,63882,2,0,P|425:195|425:115,1,120,8|0,0:0|0:0,0:0:0:0:
377,77,64575,1,0,0:0:0:0:
314,98,64805,2,0,P|285:106|251:110,1,60,8|0,0:0|0:0,0:0:0:0:
192,88,65267,6,0,P|128:74|68:98,1,120,0|8,0:0|0:0,0:0:0:0:
138,208,66190,2,0,P|202:222|262:198,1,120,0|8,0:0|0:0,0:0:0:0:
308,170,66882,1,8,0:0:0:0:
370,192,67113,6,0,L|496:210,1,120,4|8,0:0|0:0,0:0:0:0:
380,284,68036,2,0,L|254:266,1,120,0|0,0:0|0:0,0:0:0:0:
148,198,68959,6,0,P|132:165|148:74,2,120,0|8|0,0:0|0:0|0:0,0:0:0:0:
255,275,70344,1,0,0:0:0:0:
364,198,70805,6,0,P|380:165|364:74,2,120,0|8|0,0:0|0:0|0:0,0:0:0:0:
255,275,72190,1,0,0:0:0:0:
130,319,72652,6,0,P|115:275|129:194,1,120,0|8,0:0|0:0,0:0:0:0:
239,137,73575,2,0,P|254:181|240:262,1,120,0|8,0:0|0:0,0:0:0:0:
355,323,74498,6,0,P|397:311|453:242,1,120,0|8,0:0|0:0,0:0:0:0:
447,124,75421,2,0,P|435:82|366:26,1,120,0|0,0:0|0:0,0:0:0:0:
252,64,76344,6,0,P|192:64|129:42,2,120,0|8|0,0:0|0:0|0:0,0:0:0:0:
331,169,77728,1,0,0:0:0:0:
252,275,78190,6,0,P|200:268|129:297,2,120,0|8|0,0:0|0:0|0:0,0:0:0:0:
331,170,79575,1,0,0:0:0:0:
253,63,80036,6,0,B|210:93|143:49|143:49|152:112|120:160|48:160|16:120|8:80|32:48,1,360,0|8,0:0|0:0,0:0:0:0:
256,192,81882,12,0,83728,0:0:0:0:
