osu file format v14

[General]
AudioFilename: 04 - drop pop candy.mp3
AudioLeadIn: 0
PreviewTime: 52361
Countdown: 0
SampleSet: None
StackLeniency: 0.7
Mode: 0
LetterboxInBreaks: 1
WidescreenStoryboard: 1

[Editor]
Bookmarks: 15438,82361
DistanceSpacing: 0.8
BeatDivisor: 4
GridSize: 4
TimelineZoom: 1.7

[Metadata]
Title:Drop Pop Candy
TitleUnicode:Drop Pop Candy
Artist:Reol
ArtistUnicode:Reol
Creator:Nyantiaz
Version:Meep's Light Insane
Source:
Tags:Megurine Luka Kagamine Rin Giga-P key No title No title chaos248 toy [toy] signum _Meep_ -Kyu short version ver
BeatmapID:1494477
BeatmapSetID:433386

[Difficulty]
HPDrainRate:6
CircleSize:4
OverallDifficulty:7
ApproachRate:8
SliderMultiplier:1.4
SliderTickRate:1

[Events]
//Background and Video events
0,0,"kawaiipillow.jpg",0,0
//Break Periods
2,15621,18825
2,23005,25748
//Storyboard Layer 0 (Background)
//Storyboard Layer 1 (Fail)
//Storyboard Layer 2 (Pass)
//Storyboard Layer 3 (Foreground)
//Storyboard Sound Samples

[TimingPoints]
652,461.538461538462,4,2,1,40,1,0
8053,-100,4,1,1,40,0,0
8053,-100,4,1,1,50,0,0
10575,-100,4,1,1,50,0,0
11053,-100,4,1,1,50,0,0
11284,-133.333333333333,4,1,1,50,0,0
11515,-100,4,1,1,50,0,0
11745,-100,4,1,1,50,0,0
12669,-100,4,1,1,50,0,0
12899,-100,4,1,1,50,0,0
44284,-50,4,1,1,50,0,0
45438,-50,4,1,1,50,0,0
45899,-50,4,1,1,50,0,0
46361,-50,4,1,1,50,0,0
46822,-50,4,1,1,50,0,0
47284,-50,4,1,1,50,0,0
47745,-50,4,1,1,50,0,0
48207,-50,4,1,1,50,0,0
48669,-50,4,1,1,50,0,0
49130,-50,4,1,1,50,0,0
49592,-50,4,1,1,50,0,0
52361,-100,4,1,1,70,0,1
67130,-100,4,1,1,60,0,0
82361,-100,4,2,1,60,0,0

[Colours]
Combo1 : 255,132,132
Combo2 : 255,128,0
Combo3 : 155,255,55
Combo4 : 255,255,85

[HitObjects]
152,112,652,5,0,0:0:0:0:
184,200,882,1,0,0:0:0:0:
392,160,1113,2,0,L|384:236,1,70,2|2,0:0|0:0,0:0:0:0:
224,288,1575,1,0,0:0:0:0:
184,200,1805,1,0,0:0:0:0:
312,112,2036,2,0,L|272:112,1,35,0|0,0:0|0:0,0:0:0:0:
356,192,2267,2,0,L|412:192,1,35,0|0,0:0|0:0,0:0:0:0:
204,88,2498,2,0,P|148:88|116:112,1,70,0|0,0:0|0:0,0:0:0:0:
376,64,2959,6,0,L|392:112,1,35,0|0,0:0|0:0,0:0:0:0:
136,92,3190,2,0,P|172:84|286:115,1,140,0|0,0:0|0:0,0:0:0:0:
384,136,3882,6,0,L|384:184,1,35,0|0,0:0|0:0,0:0:0:0:
192,208,4113,2,0,L|200:152,1,35,0|0,0:0|0:0,0:0:0:0:
376,248,4344,6,0,B|384:312|384:312|388:324,1,70,0|0,0:0|0:0,0:0:0:0:
192,208,4805,1,2,0:0:0:0:
200,220,4921,1,2,0:0:0:0:
212,232,5036,1,2,0:0:0:0:
224,240,5152,1,2,0:0:0:0:
236,244,5267,2,0,P|292:220|332:220,1,70,2|0,0:0|0:0,0:0:0:0:
80,216,5728,6,0,B|54:234|54:234|56:240,1,35,0|0,0:0|0:0,0:0:0:0:
147,331,5959,2,0,B|173:313|173:313|172:308,1,35,0|0,0:0|0:0,0:0:0:0:
224,192,6190,1,0,0:0:0:0:
224,192,6421,2,0,P|240:168|256:152,1,35,0|0,0:0|0:0,0:0:0:0:
272,144,6652,1,8,0:0:0:0:
352,64,6882,5,8,0:0:0:0:
384,80,6998,1,8,0:0:0:0:
416,96,7113,1,8,0:0:0:0:
360,208,7344,1,8,0:0:0:0:
246,241,7575,2,0,P|243:232|232:204,1,35,8|0,0:0|0:0,0:0:0:0:
328,288,7805,2,0,L|325:296|316:320,1,35,0|0,0:0|0:0,0:0:0:0:
176,328,8036,1,4,0:0:0:0:
176,328,8498,6,0,P|228:328|260:340,1,70,8|0,0:0|0:0,0:0:0:0:
416,128,8959,2,0,P|368:136|352:152,1,70,0|0,0:0|0:0,0:0:0:0:
160,168,9421,5,8,0:0:0:0:
224,244,9652,1,0,0:0:0:0:
317,271,9882,2,0,L|316:188,1,70,0|0,0:0|0:0,0:0:0:0:
392,312,10344,1,8,0:0:0:0:
224,244,10575,2,0,P|184:204|152:196,1,70,0|0,0:0|0:0,0:0:0:0:
288,160,10921,1,0,0:0:0:0:
288,160,11036,6,0,L|296:116,1,35,0|0,0:0|0:0,0:0:0:0:
377,154,11267,2,0,L|364:204,1,35,8|0,0:0|0:0,0:0:0:0:
420,256,11498,2,0,L|444:220,1,26.2500010013581,0|0,0:0|0:0,0:0:0:0:
252,292,11728,6,0,L|172:324,1,70,0|0,0:0|0:0,0:0:0:0:
216,192,12190,1,8,0:0:0:0:
320,128,12421,1,0,0:0:0:0:
394,278,12652,6,0,L|408:236,1,35,0|0,0:0|0:0,0:0:0:0:
444,156,12882,2,0,L|392:172,1,35,0|0,0:0|0:0,0:0:0:0:
316,152,13113,2,0,L|328:117,1,35,8|0,0:0|0:0,0:0:0:0:
231,205,13344,2,0,L|256:234,1,35,0|0,0:0|0:0,0:0:0:0:
304,292,13575,2,0,L|361:359,1,70,0|8,0:0|0:0,0:0:0:0:
376,248,14036,1,8,0:0:0:0:
288,276,14267,1,8,0:0:0:0:
296,284,14382,1,8,0:0:0:0:
304,292,14498,1,8,0:0:0:0:
216,192,14728,1,0,0:0:0:0:
312,296,14959,1,8,0:0:0:0:
168,136,15190,1,0,0:0:0:0:
96,200,15421,5,0,0:0:0:0:
112,168,19575,6,0,P|144:128|176:104,1,70,8|0,0:0|0:0,0:0:0:0:
270,169,20036,2,0,P|234:177|200:192,1,70,0|0,0:0|0:0,0:0:0:0:
256,256,20498,2,0,P|293:260|328:271,1,70,8|0,0:0|0:0,0:0:0:0:
384,320,20959,1,0,0:0:0:0:
248,176,21190,2,0,P|192:208|184:296,1,140,0|0,0:0|0:0,0:0:0:0:
344,208,21882,2,0,L|432:224,1,70,0|0,0:0|0:0,0:0:0:0:
244,144,22344,2,0,L|148:160,1,70,8|0,0:0|0:0,0:0:0:0:
80,264,22805,1,0,0:0:0:0:
392,280,26498,5,2,0:0:0:0:
168,104,26959,2,0,L|236:168,1,70,10|0,0:0|0:0,0:0:0:0:
340,232,27421,1,2,0:0:0:0:
354,245,27536,1,2,0:0:0:0:
370,261,27652,1,2,0:0:0:0:
424,320,28113,5,2,0:0:0:0:
408,304,28228,2,0,L|352:312,1,35,0|0,0:0|0:0,0:0:0:0:
352,216,28575,1,2,0:0:0:0:
280,272,28805,2,0,L|224:200,1,70,8|2,0:0|0:0,0:0:0:0:
216,328,29267,1,2,0:0:0:0:
120,208,29498,6,0,L|104:264,1,35,0|0,0:0|0:0,0:0:0:0:
128,200,29728,2,0,L|128:264,1,35,10|0,0:0|0:0,0:0:0:0:
132,189,29959,2,0,L|153:249,1,35,0|0,0:0|0:0,0:0:0:0:
232,176,30190,6,0,L|256:268,1,70,0|0,0:0|0:0,0:0:0:0:
392,304,30652,1,8,0:0:0:0:
440,160,30882,1,0,0:0:0:0:
296,88,31113,1,0,0:0:0:0:
376,272,31344,1,0,0:0:0:0:
424,128,31575,1,8,0:0:0:0:
280,56,31805,1,0,0:0:0:0:
432,216,32036,5,0,0:0:0:0:
240,240,32267,1,0,0:0:0:0:
312,72,32498,1,8,0:0:0:0:
464,232,32728,1,0,0:0:0:0:
292,240,32959,1,0,0:0:0:0:
292,240,33190,6,0,B|261:249|261:249|270:221,1,35,0|0,0:0|0:0,0:0:0:0:
195,199,33421,2,0,B|203:168|203:168|222:189,1,35,8|0,0:0|0:0,0:0:0:0:
280,136,33652,2,0,B|302:158|302:158|274:164,1,35,0|0,0:0|0:0,0:0:0:0:
360,104,33882,5,0,0:0:0:0:
368,272,34113,1,0,0:0:0:0:
232,200,34344,1,8,0:0:0:0:
384,240,34575,1,0,0:0:0:0:
224,192,34805,1,0,0:0:0:0:
416,224,35036,1,0,0:0:0:0:
216,184,35267,1,8,0:0:0:0:
448,208,35498,1,0,0:0:0:0:
272,232,35728,6,0,L|328:248,1,35,0|0,0:0|0:0,0:0:0:0:
424,304,35959,2,0,L|368:320,1,35,0|0,0:0|0:0,0:0:0:0:
488,352,36190,1,8,0:0:0:0:
308,320,36421,1,0,0:0:0:0:
128,128,36652,6,0,L|184:144,1,35,0|0,0:0|0:0,0:0:0:0:
211,77,36882,2,0,L|176:64,1,35,0|0,0:0|0:0,0:0:0:0:
113,19,37113,2,0,L|104:56,1,35,8|0,0:0|0:0,0:0:0:0:
230,188,37344,2,0,L|240:152,1,35,0|0,0:0|0:0,0:0:0:0:
360,192,37575,6,0,L|392:264,1,70,0|0,0:0|0:0,0:0:0:0:
408,320,38036,1,8,0:0:0:0:
320,304,38267,1,0,0:0:0:0:
232,280,38498,1,0,0:0:0:0:
376,256,38728,1,0,0:0:0:0:
288,240,38959,1,8,0:0:0:0:
200,216,39190,1,0,0:0:0:0:
168,152,39421,5,0,0:0:0:0:
256,176,39652,1,0,0:0:0:0:
344,192,39882,1,8,0:0:0:0:
432,216,40113,1,0,0:0:0:0:
232,120,40344,1,0,0:0:0:0:
232,120,40575,2,0,P|200:136|140:128,1,70,0|8,0:0|0:0,0:0:0:0:
308,170,41036,1,0,0:0:0:0:
376,152,41267,6,0,L|288:176,1,70,0|0,0:0|0:0,0:0:0:0:
152,64,41728,2,0,L|56:84,1,70,8|0,0:0|0:0,0:0:0:0:
88,200,42190,1,0,0:0:0:0:
312,112,42421,1,0,0:0:0:0:
304,128,42536,1,0,0:0:0:0:
296,144,42652,1,0,0:0:0:0:
224,168,42882,1,0,0:0:0:0:
376,224,43113,1,0,0:0:0:0:
304,128,43344,1,0,0:0:0:0:
312,320,43575,1,8,0:0:0:0:
132,272,43805,2,0,P|110:270|136:269,1,105,0|0,0:0|0:0,0:0:0:0:
132,272,44267,6,0,L|152:176,1,70,0|8,0:0|0:0,0:0:0:0:
227,208,44728,1,0,0:0:0:0:
216,224,44959,6,0,L|380:208,1,140,0|0,0:0|0:0,0:0:0:0:
340,296,45421,2,0,L|196:312,1,140,8|0,0:0|0:0,0:0:0:0:
224,168,45882,6,0,L|376:176,1,140,0|0,0:0|0:0,0:0:0:0:
288,279,46344,2,0,L|140:264,1,140,8|0,0:0|0:0,0:0:0:0:
256,120,46805,6,0,L|372:204,1,140,0|0,0:0|0:0,0:0:0:0:
252,240,47267,2,0,L|128:156,1,140,8|0,0:0|0:0,0:0:0:0:
312,96,47728,6,0,L|368:240,1,140,0|0,0:0|0:0,0:0:0:0:
247,206,48190,2,0,L|184:80,1,140,8|0,0:0|0:0,0:0:0:0:
176,240,48652,6,0,P|216:280|320:300,1,140,0|0,0:0|0:0,0:0:0:0:
392,136,49113,2,0,B|428:160|428:160|376:256,1,140,8|0,0:0|0:0,0:0:0:0:
120,192,49575,2,0,P|160:232|256:200,1,140,0|0,0:0|0:0,0:0:0:0:
352,128,50036,1,8,0:0:0:0:
416,232,50267,1,0,0:0:0:0:
28,132,50498,6,0,P|76:212|172:180,1,210,0|0,0:0|0:0,0:0:0:0:
188,166,50959,5,0,0:0:0:0:
200,176,51421,5,0,0:0:0:0:
216,192,51882,5,0,0:0:0:0:
328,112,52344,5,4,0:0:0:0:
296,288,52575,1,0,0:0:0:0:
256,156,52805,2,0,P|208:152|184:136,1,70,8|0,0:0|0:0,0:0:0:0:
240,68,53267,2,0,L|260:12,2,35,0|0|0,0:0|0:0|0:0,0:0:0:0:
168,248,53728,2,0,P|216:264|256:252,1,70,0|0,0:0|0:0,0:0:0:0:
216,184,54190,5,0,0:0:0:0:
352,184,54421,1,0,0:0:0:0:
136,180,54652,2,0,P|88:204|64:232,1,70,8|0,0:0|0:0,0:0:0:0:
232,160,55113,1,0,0:0:0:0:
248,152,55228,1,0,0:0:0:0:
264,160,55344,1,0,0:0:0:0:
352,72,55575,1,0,0:0:0:0:
264,256,55805,1,0,0:0:0:0:
360,168,56036,6,0,L|376:268,1,70,0|0,0:0|0:0,0:0:0:0:
356,88,56498,2,0,P|292:128|288:200,1,140,0|0,0:0|0:0,0:0:0:0:
320,272,57190,1,0,0:0:0:0:
232,256,57421,2,0,B|128:272|128:272|140:232,1,140,8|0,0:0|0:0,0:0:0:0:
184,152,58113,2,0,L|240:128,1,35,0|0,0:0|0:0,0:0:0:0:
248,120,58344,5,8,0:0:0:0:
376,88,58575,1,0,0:0:0:0:
288,208,58805,1,0,0:0:0:0:
288,24,59036,1,0,0:0:0:0:
376,216,59267,1,8,0:0:0:0:
312,72,59498,1,0,0:0:0:0:
304,200,59728,6,0,L|212:184,1,70,0|0,0:0|0:0,0:0:0:0:
204,128,60075,1,0,0:0:0:0:
200,112,60190,2,0,P|152:152|144:168,1,70,8|0,0:0|0:0,0:0:0:0:
152,272,60652,1,0,0:0:0:0:
158,257,60767,1,0,0:0:0:0:
165,242,60882,1,0,0:0:0:0:
224,160,61113,1,8,0:0:0:0:
272,224,61344,2,0,L|316:208,1,35,0|0,0:0|0:0,0:0:0:0:
336,200,61575,6,0,L|308:120,1,70,0|0,0:0|0:0,0:0:0:0:
304,48,62036,1,8,0:0:0:0:
320,160,62267,2,0,L|412:184,1,70,0|0,0:0|0:0,0:0:0:0:
304,56,62728,1,0,0:0:0:0:
232,120,62959,2,0,L|192:136,1,35,8|0,0:0|0:0,0:0:0:0:
88,176,63190,2,0,L|128:184,1,35,0|0,0:0|0:0,0:0:0:0:
264,240,63421,6,0,L|176:264,1,70,0|0,0:0|0:0,0:0:0:0:
304,128,63882,1,8,0:0:0:0:
360,232,64113,1,0,0:0:0:0:
224,224,64344,1,0,0:0:0:0:
376,152,64575,1,0,0:0:0:0:
295,286,64805,1,8,0:0:0:0:
121,240,65036,1,0,0:0:0:0:
136,248,65152,1,0,0:0:0:0:
152,256,65267,6,0,P|216:224|232:204,1,70,0|0,0:0|0:0,0:0:0:0:
296,144,65613,1,0,0:0:0:0:
296,144,65728,2,0,L|312:228,1,70,8|0,0:0|0:0,0:0:0:0:
384,176,66075,1,0,0:0:0:0:
384,176,66190,6,0,L|400:260,1,70,0|0,0:0|0:0,0:0:0:0:
400,260,66536,1,0,0:0:0:0:
404,276,66652,1,8,0:0:0:0:
408,292,66767,1,8,0:0:0:0:
412,304,66882,1,8,0:0:0:0:
196,248,67113,6,0,L|280:224,1,70,4|0,0:0|0:0,0:0:0:0:
268,228,67575,1,8,0:0:0:0:
284,224,67805,1,0,0:0:0:0:
320,212,68036,2,0,B|328:172|328:172|320:136,1,70,0|0,0:0|0:0,0:0:0:0:
344,52,68382,1,0,0:0:0:0:
344,52,68498,2,0,B|232:56|232:56|264:88,1,140,0|0,0:0|0:0,0:0:0:0:
280,232,69190,5,0,0:0:0:0:
344,176,69421,1,8,0:0:0:0:
368,256,69652,1,0,0:0:0:0:
304,312,69882,2,0,L|216:300,1,70,0|0,0:0|0:0,0:0:0:0:
120,232,70228,1,0,0:0:0:0:
112,224,70344,2,0,L|204:212,1,70,0|0,0:0|0:0,0:0:0:0:
312,176,70805,1,0,0:0:0:0:
365,342,71036,6,0,L|296:352,1,70,0|8,0:0|0:0,0:0:0:0:
424,256,71498,1,0,0:0:0:0:
344,144,71728,2,0,L|328:236,1,70,0|0,0:0|0:0,0:0:0:0:
264,280,72075,1,0,0:0:0:0:
264,280,72190,2,0,P|248:224|256:180,1,70,0|0,0:0|0:0,0:0:0:0:
128,72,72652,1,0,0:0:0:0:
181,239,72882,6,0,P|221:215|248:208,1,70,0|8,0:0|0:0,0:0:0:0:
368,256,73344,1,0,0:0:0:0:
336,256,73805,5,0,0:0:0:0:
139,208,74036,2,0,P|103:219|72:236,1,70,8|0,0:0|0:0,0:0:0:0:
248,288,74498,5,0,0:0:0:0:
232,104,74728,1,0,0:0:0:0:
232,192,74959,1,8,0:0:0:0:
312,144,75190,1,0,0:0:0:0:
336,288,75421,2,0,P|272:272|248:284,1,70,0|0,0:0|0:0,0:0:0:0:
188,280,75767,1,0,0:0:0:0:
200,280,75882,2,0,L|176:192,1,70,0|0,0:0|0:0,0:0:0:0:
288,112,76344,5,0,0:0:0:0:
272,216,76575,2,0,L|336:200,1,35,0|0,0:0|0:0,0:0:0:0:
272,216,76805,2,0,L|328:168,1,70,8|0,0:0|0:0,0:0:0:0:
344,264,77267,1,0,0:0:0:0:
264,296,77498,1,0,0:0:0:0:
424,224,77728,2,0,P|408:168|416:128,1,70,0|0,0:0|0:0,0:0:0:0:
368,80,78075,1,0,0:0:0:0:
368,80,78190,6,0,B|328:128|328:128|328:160,1,70,0|0,0:0|0:0,0:0:0:0:
260,172,78652,2,0,P|284:204|328:212,1,70,8|0,0:0|0:0,0:0:0:0:
400,304,79113,2,0,L|304:304,1,70,0|0,0:0|0:0,0:0:0:0:
248,272,79459,1,0,0:0:0:0:
248,272,79575,2,0,L|164:260,1,70,0|0,0:0|0:0,0:0:0:0:
224,104,80036,1,0,0:0:0:0:
320,184,80267,6,0,L|336:272,1,70,0|8,0:0|0:0,0:0:0:0:
392,128,80728,2,0,L|408:216,1,70,0|0,0:0|0:0,0:0:0:0:
160,256,81190,2,0,L|224:240,1,35,0|0,0:0|0:0,0:0:0:0:
264,208,81421,2,0,L|280:272,1,35,8|0,0:0|0:0,0:0:0:0:
256,128,81652,2,0,L|192:144,1,35,0|0,0:0|0:0,0:0:0:0:
152,176,81882,2,0,L|136:112,2,35,0|0|0,0:0|0:0|0:0,0:0:0:0:
400,104,82344,5,0,0:0:0:0:
216,288,82805,2,0,L|144:224,1,70,0|0,0:0|0:0,0:0:0:0:
304,280,83267,1,0,0:0:0:0:
208,128,83728,5,0,0:0:0:0:
336,120,84190,2,0,L|352:200,1,70,0|0,0:0|0:0,0:0:0:0:
316,280,84652,1,0,0:0:0:0:
352,192,84882,1,0,0:0:0:0:
212,252,85113,2,0,P|224:296|208:336,1,70,0|0,0:0|0:0,0:0:0:0:
160,152,85575,6,0,P|232:136|256:144,1,70,0|0,0:0|0:0,0:0:0:0:
368,192,86036,1,0,0:0:0:0:
136,128,86498,1,0,0:0:0:0:
144,224,86728,1,0,0:0:0:0:
128,88,86959,1,0,0:0:0:0:
88,288,87421,6,0,L|176:312,1,70,0|0,0:0|0:0,0:0:0:0:
216,176,87882,1,0,0:0:0:0:
248,256,88113,2,0,P|296:272|352:220,1,105,0|0,0:0|0:0,0:0:0:0:
424,196,88690,1,0,0:0:0:0:
424,196,88805,1,0,0:0:0:0:
336,112,89036,1,0,0:0:0:0:
152,160,89267,1,0,0:0:0:0:
152,160,89498,2,0,L|56:172,1,70,0|0,0:0|0:0,0:0:0:0:
248,320,90190,6,0,P|272:256|296:240,1,70,0|0,0:0|0:0,0:0:0:0:
336,152,90652,1,0,0:0:0:0:
336,312,90882,1,0,0:0:0:0:
256,280,91113,6,0,P|208:240|176:232,1,70,0|0,0:0|0:0,0:0:0:0:
232,120,91575,1,0,0:0:0:0:
136,152,91805,2,0,L|72:296,1,140,0|0,0:0|0:0,0:0:0:0:
68,296,92382,1,0,0:0:0:0:
60,312,92498,1,0,0:0:0:0:
24,184,92728,1,0,0:0:0:0:
136,232,92959,6,0,P|184:208|232:208,1,70,0|0,0:0|0:0,0:0:0:0:
288,144,93421,2,0,L|296:200,1,35,0|0,0:0|0:0,0:0:0:0:
296,208,93652,1,0,0:0:0:0:
204,120,93882,2,0,P|236:72|264:60,1,70,0|0,0:0|0:0,0:0:0:0:
128,152,94344,1,0,0:0:0:0:
152,232,94575,1,0,0:0:0:0:
184,312,94805,6,0,P|240:304|264:280,1,70,0|0,0:0|0:0,0:0:0:0:
304,200,95267,1,0,0:0:0:0:
304,200,95498,1,0,0:0:0:0:
360,272,95728,2,0,P|352:324|372:352,1,70,0|0,0:0|0:0,0:0:0:0:
464,244,96075,1,0,0:0:0:0:
480,232,96190,2,0,P|484:184|468:140,1,70,0|0,0:0|0:0,0:0:0:0:
