osu file format v14

[General]
AudioFilename: 04 - drop pop candy.mp3
AudioLeadIn: 0
PreviewTime: 52361
Countdown: 0
SampleSet: None
StackLeniency: 0.7
Mode: 0
LetterboxInBreaks: 1
WidescreenStoryboard: 1

[Editor]
DistanceSpacing: 0.8
BeatDivisor: 4
GridSize: 8
TimelineZoom: 2

[Metadata]
Title:Drop Pop Candy
TitleUnicode:Drop Pop Candy
Artist:Reol
ArtistUnicode:Reol
Creator:Nyantiaz
Version:Hyper
Source:
Tags:Megurine Luka Kagamine Rin Giga-P key No title No title omgneo toy signum _Meep_
BeatmapID:1494475
BeatmapSetID:433386

[Difficulty]
HPDrainRate:5
CircleSize:4
OverallDifficulty:7
ApproachRate:7
SliderMultiplier:1.40000000596046
SliderTickRate:1

[Events]
//Background and Video events
0,0,"kawaiipillow.jpg",0,0
//Break Periods
//Storyboard Layer 0 (Background)
//Storyboard Layer 1 (Fail)
//Storyboard Layer 2 (Pass)
//Storyboard Layer 3 (Foreground)
//Storyboard Sound Samples

[TimingPoints]
652,461.538461538462,4,2,1,40,1,0
8053,-100,4,1,1,40,0,0
11745,-100,4,1,1,50,0,0
52361,-100,4,1,1,70,0,1
67130,-100,4,1,1,60,0,0

[Colours]
Combo1 : 255,132,132
Combo2 : 255,128,0
Combo3 : 155,255,55
Combo4 : 255,255,85

[HitObjects]
16,304,652,6,0,P|64:328|88:360,1,70.0000002980232,0|0,0:0|0:0,0:0:0:0:
192,344,1113,1,2,0:0:0:0:
288,288,1344,1,2,0:0:0:0:
416,272,1575,6,0,P|432:232|416:176,2,70.0000002980232,0|0|0,0:0|0:0|0:0,0:0:0:0:
296,200,2267,1,0,0:0:0:0:
64,208,2498,2,0,P|120:184|128:152,1,70.0000002980232,0|0,0:0|0:0,0:0:0:0:
256,208,2959,1,0,0:0:0:0:
352,128,3190,2,0,P|400:104|456:24,1,140.000000596046,0|0,0:0|0:0,0:0:0:0:
512,128,3882,1,0,0:0:0:0:
512,128,4113,1,0,0:0:0:0:
456,248,4344,6,0,P|480:296|480:336,1,70.0000002980232,0|0,0:0|0:0,0:0:0:0:
352,304,4805,1,2,0:0:0:0:
352,304,5036,1,2,0:0:0:0:
232,280,5267,6,0,P|176:296|160:312,2,70.0000002980232,2|0|0,0:0|0:0|0:0,0:0:0:0:
344,224,5959,1,0,0:0:0:0:
448,168,6190,2,0,P|488:136|504:96,1,70.0000002980232,0|0,0:0|0:0,0:0:0:0:
440,40,6652,1,8,0:0:0:0:
288,88,6882,2,0,B|216:64|176:80|120:80,1,140.000000596046,8|8,0:0|0:0,0:0:0:0:
96,176,7575,2,0,L|80:224|72:248,1,70.0000002980232,8|0,0:0|0:0,0:0:0:0:
160,304,8036,5,4,0:0:0:0:
248,336,8267,1,0,0:0:0:0:
336,320,8498,2,0,P|384:304|408:272,1,70,8|0,0:0|0:0,0:0:0:0:
488,216,8959,1,0,0:0:0:0:
368,168,9190,2,0,L|344:128,2,35,0|0|8,0:0|0:0|0:0,0:0:0:0:
240,224,9652,1,0,0:0:0:0:
240,224,9882,6,0,P|176:224|144:232,1,70,0|0,0:0|0:0,0:0:0:0:
48,152,10344,1,8,0:0:0:0:
48,152,10575,2,0,P|80:104|176:80,1,140,0|0,0:0|0:0,0:0:0:0:
392,72,11267,5,8,0:0:0:0:
424,160,11498,1,0,0:0:0:0:
328,136,11728,2,0,P|312:184|288:200,2,70,0|0|8,0:0|0:0|0:0,0:0:0:0:
456,208,12652,6,0,P|488:232|512:272,1,70,0|0,0:0|0:0,0:0:0:0:
360,312,13113,1,8,0:0:0:0:
272,264,13344,1,0,0:0:0:0:
184,328,13575,2,0,P|128:328|88:344,1,70,0|8,0:0|0:0,0:0:0:0:
16,288,14036,5,8,0:0:0:0:
16,288,14267,2,0,P|40:240|128:192,1,140,8|0,0:0|0:0,0:0:0:0:
232,168,14959,1,8,0:0:0:0:
312,136,15190,1,0,0:0:0:0:
400,128,15421,6,0,P|424:168|424:224,1,70,0|0,0:0|0:0,0:0:0:0:
272,272,15882,1,8,0:0:0:0:
168,296,16113,1,0,0:0:0:0:
168,296,16344,2,0,P|104:256|64:192,1,140,0|8,0:0|0:0,0:0:0:0:
192,112,17036,6,0,P|224:80|328:64,2,140,0|0|0,0:0|0:0|0:0,0:0:0:0:
120,208,18190,1,0,0:0:0:0:
240,272,18421,1,0,0:0:0:0:
240,272,18537,1,0,0:0:0:0:
240,272,18652,1,8,0:0:0:0:
360,200,18882,1,0,0:0:0:0:
392,296,19113,6,0,P|328:288|304:264,1,70,0|0,0:0|0:0,0:0:0:0:
144,288,19575,1,8,0:0:0:0:
72,208,19805,1,0,0:0:0:0:
168,152,20036,2,0,P|224:128|256:128,1,70,0|0,0:0|0:0,0:0:0:0:
344,104,20498,5,8,0:0:0:0:
440,200,20728,1,0,0:0:0:0:
440,200,20959,2,0,P|408:232|360:240,1,70,0|0,0:0|0:0,0:0:0:0:
320,288,21421,1,8,0:0:0:0:
240,328,21652,1,0,0:0:0:0:
232,240,21882,1,0,0:0:0:0:
128,144,22113,1,0,0:0:0:0:
128,144,22228,1,0,0:0:0:0:
128,144,22344,1,8,0:0:0:0:
312,112,22575,1,0,0:0:0:0:
240,208,22805,5,0,0:0:0:0:
296,296,23036,1,0,0:0:0:0:
200,320,23267,1,8,0:0:0:0:
304,168,23498,1,0,0:0:0:0:
336,144,23728,2,0,P|344:64|304:0,1,140,0|8,0:0|0:0,0:0:0:0:
200,104,24421,2,0,L|64:160,2,140,0|0|0,0:0|0:0|0:0,0:0:0:0:
352,192,25575,6,0,L|384:224,2,35,0|0|0,0:0|0:0|0:0,0:0:0:0:
280,240,26036,1,8,0:0:0:0:
192,264,26266,1,0,0:0:0:0:
104,288,26498,6,0,P|48:304|40:336,1,70,2|0,0:0|0:0,0:0:0:0:
168,184,26959,1,10,0:0:0:0:
40,144,27190,1,0,0:0:0:0:
40,144,27421,2,0,P|80:104|120:96,1,70,2|2,0:0|0:0,0:0:0:0:
208,104,27882,1,8,0:0:0:0:
352,64,28113,1,2,0:0:0:0:
408,144,28344,6,0,P|440:200|432:232,1,70,0|2,0:0|0:0,0:0:0:0:
128,144,28805,2,0,P|88:184|88:216,1,70,8|2,0:0|0:0,0:0:0:0:
256,128,29267,1,2,0:0:0:0:
256,256,29498,1,0,0:0:0:0:
256,272,29613,1,0,0:0:0:0:
256,288,29728,1,10,0:0:0:0:
56,232,29959,5,0,0:0:0:0:
136,192,30190,2,0,P|184:184|224:200,1,70,0|0,0:0|0:0,0:0:0:0:
344,192,30652,2,0,P|408:192|440:176,1,70,8|0,0:0|0:0,0:0:0:0:
472,320,31113,1,0,0:0:0:0:
400,336,31344,1,0,0:0:0:0:
320,344,31575,2,0,P|280:368|224:376,1,70,8|0,0:0|0:0,0:0:0:0:
176,264,32036,2,0,P|144:240|104:232,2,70,0|0|8,0:0|0:0|0:0,0:0:0:0:
368,200,32728,2,0,P|408:152|432:56,1,140,0|0,0:0|0:0,0:0:0:0:
336,32,33421,5,8,0:0:0:0:
296,120,33652,1,0,0:0:0:0:
240,56,33882,2,0,P|184:88|168:120,1,70,0|0,0:0|0:0,0:0:0:0:
64,112,34344,2,0,P|16:136|-24:136,1,70,8|0,0:0|0:0,0:0:0:0:
24,256,34805,2,0,P|8:288|8:344,2,70,0|0|8,0:0|0:0|0:0,0:0:0:0:
152,288,35498,1,0,0:0:0:0:
184,192,35728,5,0,0:0:0:0:
328,192,35959,1,0,0:0:0:0:
184,192,36190,1,8,0:0:0:0:
328,192,36421,2,0,P|304:224|304:328,1,140,0|0,0:0|0:0,0:0:0:0:
400,344,37113,1,8,0:0:0:0:
504,360,37344,1,0,0:0:0:0:
224,296,37575,6,0,P|176:264|144:264,1,70,0|0,0:0|0:0,0:0:0:0:
56,216,38036,1,8,0:0:0:0:
56,216,38266,1,0,0:0:0:0:
56,216,38498,2,0,P|104:184|136:184,1,70,0|0,0:0|0:0,0:0:0:0:
232,136,38959,1,8,0:0:0:0:
320,152,39189,1,0,0:0:0:0:
400,192,39421,2,0,P|400:240|384:280,2,70,0|0|0,0:0|0:0|0:0,0:0:0:0:
288,232,40113,1,0,0:0:0:0:
200,216,40344,2,0,P|144:216|112:224,1,70,0|0,0:0|0:0,0:0:0:0:
168,312,40805,5,8,0:0:0:0:
88,312,41036,1,0,0:0:0:0:
48,224,41267,2,0,P|88:216|136:240,2,70,0|0|8,0:0|0:0|0:0,0:0:0:0:
184,160,42190,1,0,0:0:0:0:
112,88,42421,2,0,L|80:72,2,35,0|0|8,0:0|0:0|0:0,0:0:0:0:
216,48,42882,1,0,0:0:0:0:
312,88,43113,2,0,P|360:64|400:64,1,70,0|0,0:0|0:0,0:0:0:0:
288,176,43575,1,8,0:0:0:0:
288,176,43805,2,0,P|296:216|280:312,1,140,0|0,0:0|0:0,0:0:0:0:
160,280,44498,6,0,P|112:264|80:264,2,70,8|0|0,0:0|0:0|0:0,0:0:0:0:
296,312,45190,5,0,0:0:0:0:
296,312,45421,2,0,P|344:280|360:240,2,70,8|0|0,0:0|0:0|0:0,0:0:0:0:
160,192,46113,5,0,0:0:0:0:
160,192,46344,2,0,P|136:136|136:104,2,70,8|0|0,0:0|0:0|0:0,0:0:0:0:
288,216,47036,5,0,0:0:0:0:
288,216,47267,2,0,P|336:200|384:208,1,70,8|0,0:0|0:0,0:0:0:0:
408,264,47728,1,0,0:0:0:0:
344,328,47959,1,0,0:0:0:0:
256,104,48190,5,8,0:0:0:0:
88,176,48421,1,0,0:0:0:0:
88,176,48652,6,0,P|128:208|144:240,1,70,0|0,0:0|0:0,0:0:0:0:
272,264,49113,1,8,0:0:0:0:
272,264,49344,2,0,P|304:224|336:224,2,70,0|0|0,0:0|0:0|0:0,0:0:0:0:
160,328,50036,1,8,0:0:0:0:
160,328,50267,1,0,0:0:0:0:
120,224,50498,5,0,0:0:0:0:
184,168,50959,1,0,0:0:0:0:
264,152,51421,2,0,P|304:120|400:96,1,140,0|0,0:0|0:0,0:0:0:0:
464,200,52113,5,0,0:0:0:0:
464,208,52228,1,0,0:0:0:0:
464,216,52344,2,0,P|440:248|384:272,1,70,4|0,0:0|0:0,0:0:0:0:
296,240,52805,1,8,0:0:0:0:
176,208,53036,1,0,0:0:0:0:
176,208,53267,2,0,P|144:240|144:272,2,70,0|0|0,0:0|0:0|0:0,0:0:0:0:
304,200,53959,5,0,0:0:0:0:
264,304,54190,2,0,P|304:320|344:328,1,70,0|0,0:0|0:0,0:0:0:0:
440,240,54652,2,0,P|480:208|528:192,2,70,8|0|0,0:0|0:0|0:0,0:0:0:0:
304,168,55344,1,0,0:0:0:0:
256,64,55575,1,0,0:0:0:0:
200,168,55805,1,0,0:0:0:0:
200,168,56036,2,0,P|144:176|112:200,2,70,0|0|0,0:0|0:0|0:0,0:0:0:0:
296,256,56728,1,0,0:0:0:0:
296,256,56959,2,0,P|344:272|368:296,1,70,0|0,0:0|0:0,0:0:0:0:
488,272,57421,2,0,P|496:232|488:192,1,70,8|0,0:0|0:0,0:0:0:0:
384,128,57882,5,0,0:0:0:0:
288,72,58113,1,0,0:0:0:0:
192,120,58344,1,8,0:0:0:0:
104,72,58575,1,0,0:0:0:0:
104,72,58690,1,0,0:0:0:0:
104,72,58805,2,0,P|72:120|72:160,2,70,0|0|8,0:0|0:0|0:0,0:0:0:0:
216,160,59728,5,0,0:0:0:0:
288,224,59959,1,0,0:0:0:0:
216,288,60190,1,8,0:0:0:0:
144,224,60421,1,0,0:0:0:0:
224,192,60652,2,0,P|256:176|288:208,2,70,0|0|0,0:0|0:0|0:0,0:0:0:0:
256,104,61344,1,0,0:0:0:0:
128,192,61575,5,0,0:0:0:0:
176,256,61806,1,0,0:0:0:0:
256,288,62036,1,8,0:0:0:0:
256,288,62266,1,0,0:0:0:0:
96,192,62498,6,0,L|136:256,1,70,0|0,0:0|0:0,0:0:0:0:
200,280,62959,2,0,B|240:312|240:312|264:312,2,70,8|0|0,0:0|0:0|0:0,0:0:0:0:
384,240,63882,1,8,0:0:0:0:
448,104,64113,1,0,0:0:0:0:
448,104,64228,1,0,0:0:0:0:
448,104,64344,2,0,P|384:128|368:152,1,70,0|0,0:0|0:0,0:0:0:0:
264,152,64805,1,8,0:0:0:0:
264,152,65036,1,0,0:0:0:0:
160,88,65267,6,0,P|128:120|120:152,1,70,0|0,0:0|0:0,0:0:0:0:
344,88,65728,2,0,P|376:120|384:160,1,70,8|0,0:0|0:0,0:0:0:0:
256,248,66190,2,0,L|256:336,2,70,0|0|8,0:0|0:0|0:0,0:0:0:0:
256,160,66882,1,8,0:0:0:0:
48,144,67113,5,4,0:0:0:0:
160,200,67344,1,0,0:0:0:0:
272,224,67575,2,0,P|312:248|352:256,1,70,8|0,0:0|0:0,0:0:0:0:
448,176,68036,2,0,P|480:144|488:72,2,105,0|0|0,0:0|0:0|0:0,0:0:0:0:
408,240,68959,5,0,0:0:0:0:
344,296,69190,1,0,0:0:0:0:
344,296,69421,2,0,P|296:328|272:336,1,70,8|0,0:0|0:0,0:0:0:0:
120,272,69882,2,0,P|80:240|0:240,2,105,0|0|0,0:0|0:0|0:0,0:0:0:0:
256,200,71036,6,0,L|256:120,1,70,0|8,0:0|0:0,0:0:0:0:
168,72,71498,1,0,0:0:0:0:
336,72,71728,1,0,0:0:0:0:
392,208,72075,1,0,0:0:0:0:
112,200,72421,1,0,0:0:0:0:
152,304,72882,5,0,0:0:0:0:
152,304,73113,2,0,P|192:320|232:320,1,70,8|0,0:0|0:0,0:0:0:0:
352,256,73805,1,0,0:0:0:0:
432,192,74036,2,0,P|464:152|464:104,1,70,8|0,0:0|0:0,0:0:0:0:
376,32,74498,5,0,0:0:0:0:
376,32,74728,2,0,P|320:40|280:56,1,70,0|8,0:0|0:0,0:0:0:0:
192,136,75190,1,0,0:0:0:0:
112,136,75421,2,0,L|0:136,2,105,0|0|0,0:0|0:0|0:0,0:0:0:0:
296,176,76344,6,0,P|312:216|304:256,1,70,0|0,0:0|0:0,0:0:0:0:
176,328,76805,1,8,0:0:0:0:
136,304,77036,1,0,0:0:0:0:
104,280,77267,2,0,P|56:256|-8:256,2,105,0|0|0,0:0|0:0|0:0,0:0:0:0:
320,272,78190,5,0,0:0:0:0:
416,192,78421,1,0,0:0:0:0:
424,184,78536,1,0,0:0:0:0:
432,176,78652,2,0,P|464:128|456:88,1,70,8|0,0:0|0:0,0:0:0:0:
320,96,79113,2,0,P|256:80|216:80,2,105,0|0|0,0:0|0:0|0:0,0:0:0:0:
184,160,80036,5,0,0:0:0:0:
216,240,80267,1,0,0:0:0:0:
296,240,80498,1,8,0:0:0:0:
328,160,80728,1,0,0:0:0:0:
256,56,80959,6,0,L|256:152,2,70,0|0|8,0:0|0:0|0:0,0:0:0:0:
256,192,81652,1,0,0:0:0:0:
256,192,81882,12,0,83728,0:0:0:0:
