osu file format v14

[General]
AudioFilename: audio.mp3
AudioLeadIn: 0
PreviewTime: 54317
Countdown: 1
SampleSet: Soft
StackLeniency: 0.5
Mode: 0
LetterboxInBreaks: 0
WidescreenStoryboard: 1

[Editor]
Bookmarks: 8966,24435,39435,71310,86310,108810,131310,161310,176310
DistanceSpacing: 1.3
BeatDivisor: 8
GridSize: 4
TimelineZoom: 1

[Metadata]
Title:ChiruChiru
TitleUnicode:ちるちる
Artist:Reol
ArtistUnicode:Reol
Creator:TenkaiPalm
Version:Hard
Source:
Tags:
BeatmapID:1049941
BeatmapSetID:492896

[Difficulty]
HPDrainRate:6
CircleSize:3.8
OverallDifficulty:5
ApproachRate:7.7
SliderMultiplier:1.6
SliderTickRate:2

[Events]
//Background and Video events
0,0,"1.jpg",0,0
//Break Periods
2,131075,145515
//Storyboard Layer 0 (Background)
//Storyboard Layer 1 (Fail)
//Storyboard Layer 2 (Pass)
//Storyboard Layer 3 (Foreground)
//Storyboard Layer 4 (Overlay)
//Storyboard Sound Samples

[TimingPoints]
60,468.75,4,1,0,100,1,0
997,-100,4,2,0,75,0,0
7442,-100,4,2,0,40,0,0
8966,-100,4,2,0,75,0,0
12481,-100,4,2,0,75,0,0
12716,-100,4,2,0,75,0,0
37325,-117.647058823529,4,2,0,75,0,0
39435,-100,4,2,1,70,0,0
46935,-83.3333333333333,4,2,1,75,0,0
53966,-100,4,2,1,75,0,0
54435,-83.3333333333333,4,2,1,75,0,1
69435,-100,4,2,0,65,0,0
86310,-100,4,2,0,75,0,0
99200,-117.647058823529,4,2,0,75,0,0
101310,-100,4,2,1,70,0,0
116310,-83.3333333333333,4,2,1,75,0,1
131310,-100,4,2,0,70,0,0
146075,-90.9090909090909,4,2,0,65,0,0
159435,-100,4,2,0,70,0,0
161310,-90.9090909090909,4,2,1,75,0,0
168810,-83.3333333333333,4,2,1,70,0,0
174435,-83.3333333333333,4,2,1,56,0,0
176310,-80,4,2,1,75,0,1
191310,-100,4,2,0,65,0,0

[Colours]
Combo1 : 244,154,53
Combo2 : 91,237,253
Combo3 : 196,119,247
Combo4 : 118,227,113

[HitObjects]
240,160,1231,6,0,L|268:140,4,20
156,220,1700,1,0,0:0:0:0:
148,116,1935,1,0,0:0:0:0:
336,204,2403,1,0,0:0:0:0:
160,316,2872,1,0,0:0:0:0:
224,232,3106,6,0,L|236:336,1,80
152,244,3575,2,0,L|140:140,1,80
132,24,4278,1,2,0:0:0:0:
342,131,4747,1,0,0:0:0:0:
252,192,4981,6,0,L|245:111,1,80
240,8,5450,1,0,0:0:0:0:
336,52,5685,2,0,L|342:131,1,80
246,87,6153,2,0,L|239:7,1,80
256,216,6856,1,0,0:0:0:0:
239,7,7325,1,0,0:0:0:0:
256,192,7442,12,0,8966,0:0:0:0:
300,184,9435,6,0,L|404:148,1,80
476,124,9903,1,8,0:0:0:0:
396,56,10138,1,0,0:0:0:0:
375,157,10372,2,0,L|352:264,1,80
336,336,10841,1,8,0:0:0:0:
264,260,11075,1,0,0:0:0:0:
176,312,11310,6,0,P|164:262|176:216,1,80
257,182,11778,2,0,P|268:231|257:278,1,80,8|0,0:0|0:0,0:0:0:0:
169,234,12247,1,0,0:0:0:0:
168,132,12481,2,2,L|227:98,2,40,2|2|10,0:0|0:0|0:0,0:0:0:0:
76,184,12950,1,0,0:0:0:0:
76,80,13185,6,0,L|4:115,1,80
76,184,13653,2,0,L|147:148,1,80,8|0,0:0|0:0,0:0:0:0:
232,208,14122,2,0,L|161:244,1,80
68,288,14591,1,8,0:0:0:0:
76,184,14825,1,0,0:0:0:0:
160,244,15060,6,0,L|236:300,1,80
308,356,15528,1,8,0:0:0:0:
324,252,15763,1,0,0:0:0:0:
340,148,15997,1,0,0:0:0:0:
244,184,16231,1,2,0:0:0:0:
244,184,16349,1,2,0:0:0:0:
244,184,16466,1,2,0:0:0:0:
256,80,16700,1,0,0:0:0:0:
340,148,16935,6,0,L|324:252,1,80
232,264,17403,2,0,L|248:160,1,80,8|0,0:0|0:0,0:0:0:0:
256,80,17872,1,0,0:0:0:0:
160,124,18106,1,0,0:0:0:0:
144,228,18341,1,8,0:0:0:0:
244,184,18575,1,0,0:0:0:0:
228,288,18810,2,0,P|205:314|156:328,2,80,0|0|8,0:0|0:0|0:0,0:0:0:0:
244,184,19513,2,0,L|253:97,1,80
66,163,19981,2,0,L|57:76,1,80
244,184,20450,5,0,0:0:0:0:
156,240,20685,2,0,P|144:196|148:152,1,80
244,184,21153,2,0,P|256:228|252:272,1,80,8|0,0:0|0:0,0:0:0:0:
156,240,21622,1,0,0:0:0:0:
84,204,21856,6,0,P|82:243|94:282,2,80,0|8|0,0:0|0:0|0:0,0:0:0:0:
80,108,22560,1,0,0:0:0:0:
179,132,22794,2,0,P|180:92|169:54,1,80,0|8,0:0|0:0,0:0:0:0:
84,204,23263,1,0,0:0:0:0:
183,234,23497,1,0,0:0:0:0:
104,304,23731,1,0,0:0:0:0:
204,336,23966,1,8,0:0:0:0:
104,304,24200,1,0,0:0:0:0:
143,150,24435,6,0,L|84:204,1,80
52,105,24903,2,0,L|112:52,1,80,8|0,0:0|0:0,0:0:0:0:
202,96,25372,2,0,L|143:150,1,80
112,52,25841,1,8,0:0:0:0:
202,96,26075,1,0,0:0:0:0:
296,144,26310,6,0,P|304:88|292:52,1,80
202,96,26778,2,0,P|194:152|206:188,1,80,8|0,0:0|0:0,0:0:0:0:
248,272,27247,1,0,0:0:0:0:
324,204,27481,1,2,0:0:0:0:
324,204,27599,1,2,0:0:0:0:
324,204,27716,1,10,0:0:0:0:
368,296,27950,1,0,0:0:0:0:
428,208,28185,6,0,L|476:304,1,80
496,180,28653,2,0,P|456:140|404:140,1,80,8|0,0:0|0:0,0:0:0:0:
356,204,29122,2,0,P|318:190|294:159,1,80
384,104,29591,1,8,0:0:0:0:
292,52,29825,1,0,0:0:0:0:
208,112,30060,6,0,P|192:72|192:32,1,80
124,116,30528,2,0,P|138:152|165:182,1,80,8|0,0:0|0:0,0:0:0:0:
256,232,30997,1,0,0:0:0:0:
268,128,31231,1,2,0:0:0:0:
268,128,31349,1,2,0:0:0:0:
268,128,31466,1,10,0:0:0:0:
256,232,31700,1,0,0:0:0:0:
352,191,31935,6,0,P|359:248|344:283,1,80
256,232,32403,2,0,P|250:276|259:310,1,80,8|0,0:0|0:0,0:0:0:0:
352,268,32872,1,0,0:0:0:0:
362,371,33106,1,0,0:0:0:0:
444,307,33341,2,0,P|453:268|446:229,1,80,8|0,0:0|0:0,0:0:0:0:
361,168,33810,6,0,L|271:196,2,80,0|0|8,0:0|0:0|0:0,0:0:0:0:
461,141,34513,1,0,0:0:0:0:
378,78,34747,1,0,0:0:0:0:
378,78,34981,2,0,L|301:101,1,80,0|8,0:0|0:0,0:0:0:0:
201,131,35450,1,0,0:0:0:0:
290,180,35685,6,0,L|302:96,1,80
400,71,36153,1,8,0:0:0:0:
310,17,36388,1,0,0:0:0:0:
214,58,36622,1,0,0:0:0:0:
202,161,36856,6,8,L|190:240,1,80,0|8,0:0|0:0,0:0:0:0:
280,247,37325,2,0,L|291:170,1,68.0000012969971
302,91,37794,1,0,0:0:0:0:
391,152,38028,1,8,0:0:0:0:
401,43,38263,1,0,0:0:0:0:
488,118,38497,2,0,P|487:190|441:243,1,136.000002593994
208,254,39435,5,8,0:0:0:0:
339,56,40606,2,8,L|373:155,1,80,8|0,0:0|0:0,0:0:0:0:
398,228,41075,1,8,0:0:0:0:
99,124,41778,1,2,0:0:0:0:
398,228,42481,1,8,0:0:0:0:
364,131,42716,2,8,L|335:44,1,80,8|0,0:0|0:0,0:0:0:0:
236,118,43185,5,8,0:0:0:0:
313,344,43653,1,8,0:0:0:0:
313,52,44356,5,8,0:0:0:0:
112,132,44824,1,8,0:0:0:0:
335,220,45294,1,8,0:0:0:0:
188,29,45763,1,8,0:0:0:0:
167,147,45997,1,2,0:0:0:0:
160,186,46114,1,2,0:0:0:0:
153,225,46231,1,2,0:0:0:0:
137,303,46466,2,8,P|176:308|214:279,1,80
273,215,46935,5,0,0:0:0:0:
416,188,47169,2,0,P|423:234|402:277,1,95.9999970703126,0|8,0:0|0:0,0:0:0:0:
336,148,47638,2,0,P|372:110|438:105,1,95.9999970703126
496,217,48106,1,0,0:0:0:0:
392,318,48341,1,8,0:0:0:0:
364,226,48575,2,0,B|302:247|295:316|295:316|276:290|240:271,1,191.999994140625
156,228,49278,5,8,0:0:0:0:
275,139,49513,1,0,0:0:0:0:
240,271,49747,1,0,0:0:0:0:
185,147,49981,1,0,0:0:0:0:
309,218,50216,1,8,0:0:0:0:
156,228,50450,1,0,0:0:0:0:
275,139,50685,6,0,L|352:81,1,95.9999970703126
453,9,51153,2,0,P|468:88|457:116,1,95.9999970703126,8|0,0:0|0:0,0:0:0:0:
386,198,51622,2,0,L|309:256,1,95.9999970703126
275,139,52091,1,8,0:0:0:0:
379,70,52325,1,0,0:0:0:0:
260,220,52560,5,2,0:0:0:0:
259,35,52794,1,2,0:0:0:0:
205,157,53028,1,2,0:0:0:0:
346,125,53263,1,2,0:0:0:0:
207,85,53497,2,0,P|134:146|175:222,1,191.999994140625,0|4,0:0|0:0,0:0:0:0:
417,179,54435,5,4,0:0:0:0:
282,228,54669,1,0,0:0:0:0:
310,87,54903,1,8,0:0:0:0:
417,179,55138,1,2,0:0:0:0:
372,196,55255,1,2,0:0:0:0:
327,214,55372,1,2,0:0:0:0:
192,264,55606,1,0,0:0:0:0:
220,122,55841,1,8,0:0:0:0:
327,214,56075,6,0,L|306:307,1,95.9999970703126
198,215,56544,2,0,L|220:115,1,95.9999970703126,0|8,0:0|0:0,0:0:0:0:
360,92,57013,2,0,P|421:130|440:184,2,95.9999970703126
218,121,57716,2,0,L|238:214,1,95.9999970703126,8|0,0:0|0:0,0:0:0:0:
269,355,58185,6,0,P|330:318|340:261,1,95.9999970703126,4|0,0:0|0:0,0:0:0:0:
367,157,58653,1,8,0:0:0:0:
218,121,58888,1,2,0:0:0:0:
227,163,59005,1,2,0:0:0:0:
238,214,59122,1,2,0:0:0:0:
269,355,59356,1,0,0:0:0:0:
376,258,59591,1,8,0:0:0:0:
238,215,59825,6,0,L|261:318,1,95.9999970703126
325,180,60294,2,0,L|302:77,1,95.9999970703126,0|8,0:0|0:0,0:0:0:0:
165,44,60763,2,0,L|188:147,1,95.9999970703126
218,277,61231,2,0,L|241:380,2,95.9999970703126,0|8|0,0:0|0:0|0:0,0:0:0:0:
185,137,61935,6,0,L|286:92,1,95.9999970703126
412,140,62403,2,0,L|324:179,1,95.9999970703126,8|0,0:0|0:0,0:0:0:0:
191,235,62872,1,0,0:0:0:0:
279,121,63106,1,0,0:0:0:0:
339,251,63341,1,8,0:0:0:0:
191,235,63575,6,0,B|201:198|234:179|234:179|199:153|192:90|236:62,1,191.999994140625
308,183,64278,1,8,0:0:0:0:
225,301,64513,1,2,0:0:0:0:
135,186,64747,1,2,0:0:0:0:
139,332,64981,1,2,0:0:0:0:
221,211,65216,1,10,0:0:0:0:
83,259,65450,1,2,0:0:0:0:
225,301,65685,6,0,P|292:265|308:227,1,95.9999970703126
226,126,66153,2,0,P|256:89|301:75,1,95.9999970703126,8|0,0:0|0:0,0:0:0:0:
238,205,66622,2,0,P|184:194|146:132,1,95.9999970703126
81,42,67091,1,8,0:0:0:0:
39,179,67325,6,2,P|56:223|95:249,1,95.9999970703126
236,276,67794,2,2,L|183:187,1,95.9999970703126,2|10,0:0|0:0,0:0:0:0:
118,66,68263,1,2,0:0:0:0:
39,179,68497,2,2,P|51:269|144:291,1,191.999994140625,2|10,0:0|0:0,0:0:0:0:
256,192,69435,12,0,70841,0:0:0:0:
353,101,71310,6,0,L|321:213,1,80
231,206,71778,2,0,L|252:129,1,80,8|0,0:0|0:0,0:0:0:0:
149,150,72247,2,0,L|128:227,1,80
101,328,72716,1,8,0:0:0:0:
200,297,72950,1,0,0:0:0:0:
127,227,73185,6,0,L|55:154,1,80
169,137,73653,2,0,L|225:193,1,80,8|0,0:0|0:0,0:0:0:0:
323,159,74122,2,0,L|251:86,1,80
194,26,74591,1,8,0:0:0:0:
95,59,74825,1,0,0:0:0:0:
95,163,75060,6,0,L|184:132,1,80
266,102,75528,2,0,L|235:191,1,80,8|0,0:0|0:0,0:0:0:0:
335,137,75997,2,0,L|424:106,1,80
510,80,76466,1,8,0:0:0:0:
491,182,76700,1,0,0:0:0:0:
389,156,76935,6,0,P|385:195|399:232,1,80
491,182,77403,2,0,P|494:142|480:105,1,80,8|0,0:0|0:0,0:0:0:0:
382,69,77872,2,0,P|339:80|313:105,1,80
249,185,78341,1,8,0:0:0:0:
212,87,78575,1,0,0:0:0:0:
142,164,78810,6,0,L|168:239,1,80
275,260,79278,2,0,L|248:184,1,80,8|0,0:0|0:0,0:0:0:0:
212,87,79747,2,0,P|170:61|107:66,1,80
51,111,80216,1,8,0:0:0:0:
82,210,80450,2,0,L|109:286,2,80
51,111,81153,1,8,0:0:0:0:
151,137,81388,2,0,P|190:130|222:107,1,80
264,202,81856,2,0,P|297:180|317:146,1,80,0|8,0:0|0:0,0:0:0:0:
222,106,82325,1,0,0:0:0:0:
191,205,82560,6,0,P|210:250|254:273,1,80
328,312,83028,1,8,0:0:0:0:
339,208,83263,2,0,L|347:124,1,80
356,25,83731,1,0,0:0:0:0:
258,62,83966,1,8,0:0:0:0:
161,101,84200,2,0,L|153:180,1,80
145,284,84669,5,0,0:0:0:0:
242,248,84903,2,0,L|234:327,1,80,8|0,0:0|0:0,0:0:0:0:
145,284,85372,2,0,L|152:204,1,80
162,100,85841,1,8,0:0:0:0:
249,155,86075,1,0,0:0:0:0:
152,204,86310,6,0,P|102:183|77:155,1,80
19,84,86778,2,0,P|2:136|10:174,1,80,8|0,0:0|0:0,0:0:0:0:
70,241,87247,2,0,P|87:189|79:151,1,80
19,84,87716,1,8,0:0:0:0:
121,69,87950,1,0,0:0:0:0:
214,114,88185,6,0,L|205:25,1,80
295,87,88653,2,0,L|302:166,1,80,8|0,0:0|0:0,0:0:0:0:
313,270,89122,1,0,0:0:0:0:
216,232,89356,1,2,0:0:0:0:
220,271,89474,1,2,0:0:0:0:
224,310,89591,1,2,0:0:0:0:
126,275,89825,1,0,0:0:0:0:
149,173,90060,6,0,L|220:112,1,80
106,105,90528,2,0,L|35:166,1,80,8|0,0:0|0:0,0:0:0:0:
108,240,90997,2,0,P|180:248|205:226,1,80
270,190,91466,1,8,0:0:0:0:
278,293,91700,1,0,0:0:0:0:
182,246,91935,6,0,P|164:196|170:163,1,80
270,190,92403,2,0,P|271:150|255:114,1,80,8|0,0:0|0:0,0:0:0:0:
178,43,92872,1,0,0:0:0:0:
92,102,93106,1,2,0:0:0:0:
92,102,93224,1,2,0:0:0:0:
92,102,93341,1,10,0:0:0:0:
167,170,93575,1,0,0:0:0:0:
121,263,93810,6,0,L|55:202,1,80
65,312,94278,2,0,P|100:339|166:326,1,80,8|0,0:0|0:0,0:0:0:0:
199,259,94747,2,0,P|238:263|268:288,1,80
336,367,95216,1,8,0:0:0:0:
371,269,95450,1,0,0:0:0:0:
474,273,95685,6,0,P|469:233|449:200,1,80
371,269,96153,2,0,P|350:235|345:195,1,80,8|0,0:0|0:0,0:0:0:0:
364,93,96622,1,0,0:0:0:0:
285,24,96856,2,0,P|264:57|259:97,1,80,0|8,0:0|0:0,0:0:0:0:
275,200,97325,1,0,0:0:0:0:
372,163,97560,6,0,L|454:127,2,80,0|0|8,0:0|0:0|0:0,0:0:0:0:
275,200,98263,1,0,0:0:0:0:
351,268,98497,1,0,0:0:0:0:
250,295,98731,2,0,L|184:235,1,80,0|8,0:0|0:0,0:0:0:0:
106,267,99200,2,0,L|216:369,1,136.000002593994
294,357,99903,2,0,P|328:323|333:280,2,68.0000012969971,8|0|0,0:0|0:0|0:0,0:0:0:0:
257,276,100606,2,0,P|270:245|296:223,1,68.0000012969971,8|0,0:0|0:0,0:0:0:0:
445,244,101310,5,8,0:0:0:0:
359,56,101778,2,0,L|348:154,1,80,0|2,0:0|0:0,0:0:0:0:
347,175,102130,1,2,0:0:0:0:
344,214,102247,1,2,0:0:0:0:
334,317,102481,2,0,P|290:300|265:278,1,80,8|0,0:0|0:0,0:0:0:0:
204,194,102950,2,0,P|164:251|183:341,1,160,8|0,0:0|0:0,0:0:0:0:
265,278,103653,1,2,0:0:0:0:
279,174,103888,2,0,P|249:129|195:117,2,80,0|0|8,0:0|0:0|0:0,0:0:0:0:
265,278,104591,2,0,L|241:374,1,80,8|0,0:0|0:0,0:0:0:0:
162,292,105060,6,0,L|186:196,1,80,8|0,0:0|0:0,0:0:0:0:
78,228,105528,2,0,L|117:66,1,160,8|0,0:0|0:0,0:0:0:0:
206,122,106231,1,8,0:0:0:0:
6,181,106700,1,8,0:0:0:0:
195,267,107169,1,8,0:0:0:0:
115,72,107638,2,0,L|78:228,1,160,8|0,0:0|0:0,0:0:0:0:
165,284,108341,2,0,L|202:128,1,160,8|0,0:0|0:0,0:0:0:0:
87,302,109278,6,0,P|118:347|170:361,1,80,8|0,0:0|0:0,0:0:0:0:
239,327,109747,2,0,L|258:245,1,80
279,147,110216,1,8,0:0:0:0:
193,205,110450,2,0,P|231:241|283:247,1,80
279,147,110919,5,0,0:0:0:0:
144,48,111153,1,8,0:0:0:0:
194,205,111387,1,0,0:0:0:0:
246,50,111621,1,0,0:0:0:0:
123,145,111856,1,0,0:0:0:0:
279,147,112090,1,8,0:0:0:0:
144,48,112325,1,0,0:0:0:0:
123,145,112560,6,0,L|191:195,1,80,0|0,0:0|0:0,0:2:0:0:
279,147,113028,2,0,L|211:97,1,80,8|0,0:0|0:0,0:2:0:0:
312,65,113497,2,0,L|380:115,2,80,0|0|8,0:0|0:0|0:2,0:2:0:0:
227,4,114200,1,0,0:0:0:0:
114,46,114435,6,0,L|182:96,1,80,8|0,0:0|0:0,0:2:0:0:
202,210,114903,2,0,L|137:162,1,80,8|0,0:0|0:0,0:2:0:0:
256,145,115372,2,0,P|284:235|248:282,1,160,8|4,0:0|0:0,0:0:0:0:
99,34,116310,6,0,L|71:150,1,95.9999970703126,4|0,0:0|0:0,0:0:0:0:
42,266,116778,1,8,0:0:0:0:
176,213,117013,1,0,0:0:0:0:
163,259,117130,1,0,0:0:0:0:
153,305,117247,1,0,0:0:0:0:
59,196,117481,1,0,0:0:0:0:
194,146,117716,1,8,0:0:0:0:
99,34,117950,6,0,L|71:150,1,95.9999970703126
171,239,118419,2,0,L|199:123,1,95.9999970703126,0|8,0:0|0:0,0:0:0:0:
226,5,118888,1,0,0:0:0:0:
331,103,119122,2,0,P|363:61|367:7,2,95.9999970703126,0|0|8,0:0|0:0|0:0,0:0:0:0:
193,145,119825,1,0,0:0:0:0:
306,234,120060,6,0,L|412:203,1,95.9999970703126
358,346,120528,1,8,0:0:0:0:
224,290,120763,1,2,0:0:0:0:
213,239,120880,1,2,0:0:0:0:
204,197,120997,1,2,0:0:0:0:
312,96,121231,1,8,0:0:0:0:
174,56,121466,1,0,0:0:0:0:
204,197,121700,6,0,L|297:225,1,95.9999970703126
403,124,122169,2,0,L|311:95,1,95.9999970703126,0|8,0:0|0:0,0:0:0:0:
401,208,122638,2,0,P|481:162|470:71,1,191.999994140625
350,151,123341,2,0,P|325:198|338:249,1,95.9999970703126,8|0,0:0|0:0,0:0:0:0:
424,349,123810,6,0,L|332:320,1,95.9999970703126,4|0,0:0|0:0,0:0:0:0:
191,275,124278,1,8,0:0:0:0:
331,238,124513,2,0,L|432:213,2,95.9999970703126
191,275,125216,1,8,0:0:0:0:
53,317,125450,2,0,P|62:211|132:144,1,191.999994140625
191,275,126153,5,8,0:0:0:0:
201,120,126388,1,0,0:0:0:0:
284,252,126622,1,0,0:0:0:0:
139,194,126856,1,0,0:0:0:0:
290,156,127091,1,8,0:0:0:0:
191,275,127325,1,0,0:0:0:0:
151,136,127560,6,0,L|224:46,1,95.9999970703126
350,81,128028,1,8,0:0:0:0:
259,193,128263,1,2,0:0:0:0:
229,231,128380,1,2,0:0:0:0:
199,268,128497,1,2,0:0:0:0:
151,136,128731,1,0,0:0:0:0:
60,248,128966,1,8,0:0:0:0:
17,110,129200,6,2,L|84:23,1,95.9999970703126
118,171,129669,2,2,L|59:247,1,95.9999970703126,2|10,0:0|0:0,0:0:0:0:
17,110,130138,1,2,0:0:0:0:
156,74,130372,2,2,P|216:138|184:251,1,191.999994140625,2|14,0:0|0:0,0:0:0:0:
413,157,146310,6,0,L|387:273,1,88.000002685547
300,180,146778,2,0,L|274:64,1,88.000002685547,8|0,0:0|0:0,0:0:0:0:
180,152,147247,2,0,L|154:268,1,88.000002685547
136,352,147716,1,8,0:0:0:0:
244,316,147950,1,0,0:0:0:0:
160,236,148185,6,0,L|72:264,1,88.000002685547
160,344,148653,2,0,L|243:317,1,88.000002685547,8|0,0:0|0:0,0:0:0:0:
356,284,149122,1,0,0:0:0:0:
272,208,149356,1,0,0:0:0:0:
380,176,149591,1,8,0:0:0:0:
356,284,149825,1,0,0:0:0:0:
272,208,150060,6,0,L|295:119,1,88.000002685547
216,40,150528,2,0,L|192:128,1,88.000002685547,8|0,0:0|0:0,0:0:0:0:
164,236,150997,2,0,P|196:292|256:304,1,88.000002685547
272,208,151466,1,8,0:0:0:0:
193,124,151700,1,0,0:0:0:0:
164,236,151935,5,0,0:0:0:0:
84,156,152169,1,0,0:0:0:0:
192,124,152403,1,8,0:0:0:0:
164,236,152638,1,0,0:0:0:0:
272,208,152872,2,0,L|360:184,2,88.000002685547,0|0|8,0:0|0:0|0:0,0:0:0:0:
164,236,153575,1,0,0:0:0:0:
84,156,153810,6,0,L|108:56,1,88.000002685547
184,152,154278,2,0,L|163:237,1,88.000002685547,8|0,0:0|0:0,0:0:0:0:
48,228,154747,2,0,P|4:180|12:136,1,88.000002685547
92,88,155216,1,8,0:0:0:0:
184,152,155450,1,0,0:0:0:0:
280,92,155685,6,0,L|207:41,1,88.000002685547
184,152,156153,2,0,L|256:202,1,88.000002685547,8|0,0:0|0:0,0:0:0:0:
356,260,156622,1,0,0:0:0:0:
352,144,156856,1,0,0:0:0:0:
256,202,157091,1,8,0:0:0:0:
156,260,157325,1,0,0:0:0:0:
156,144,157560,6,0,L|256:86,1,88.000002685547
331,156,158028,2,0,L|254:200,1,88.000002685547,8|0,0:0|0:0,0:0:0:0:
156,258,158497,1,0,0:0:0:0:
156,144,158731,1,0,0:0:0:0:
254,199,158966,1,8,0:0:0:0:
257,84,159200,1,0,0:0:0:0:
156,144,159435,1,0,0:0:0:0:
254,199,159669,6,2,L|318:151,1,80
403,91,160138,1,2,0:0:0:0:
393,194,160372,2,2,P|468:172|505:104,1,160
288,29,161310,5,8,0:0:0:0:
354,247,161778,2,0,L|253:216,1,88.000002685547,8|2,0:0|0:0,0:0:0:0:
227,207,162130,1,2,0:0:0:0:
185,192,162247,1,2,0:0:0:0:
283,104,162481,2,0,L|367:129,1,88.000002685547,8|0,0:0|0:0,0:0:0:0:
493,169,162950,5,8,0:0:0:0:
228,170,163419,2,0,P|197:121|203:68,1,88.000002685547,0|2,0:0|0:0,0:0:0:0:
306,20,163888,2,0,L|390:45,2,88.000002685547,0|0|8,0:0|0:0|0:0,0:0:0:0:
337,148,164591,2,0,L|421:173,1,88.000002685547,8|0,0:0|0:0,0:0:0:0:
458,316,165060,5,8,0:0:0:0:
207,234,165528,1,8,0:0:0:0:
294,141,165763,5,2,0:0:0:0:
304,183,165880,1,2,0:0:0:0:
316,224,165997,1,2,0:0:0:0:
354,349,166231,1,8,0:0:0:0:
281,100,166700,1,8,0:0:0:0:
131,311,167169,1,8,0:0:0:0:
373,205,167638,1,8,0:0:0:0:
131,99,168106,1,8,0:0:0:0:
189,217,168341,2,8,L|246:323,1,88.000002685547
322,177,168810,6,0,L|265:71,1,88.000002685547
124,94,169278,2,0,L|173:184,1,95.9999970703126,8|0,0:0|0:0,0:0:0:0:
212,264,169747,2,0,P|140:271|101:244,2,95.9999970703126,0|0|8,0:0|0:0|0:0,0:0:0:0:
272,345,170450,2,0,P|310:261|263:182,1,191.999994140625
120,263,171153,5,8,0:0:0:0:
263,182,171388,1,0,0:0:0:0:
100,162,171622,1,0,0:0:0:0:
223,277,171856,1,0,0:0:0:0:
189,112,172091,1,8,0:0:0:0:
120,263,172325,1,0,0:0:0:0:
263,182,172560,6,0,L|310:75,1,95.9999970703126
374,218,173028,2,0,L|335:305,1,95.9999970703126,8|0,0:0|0:0,0:0:0:0:
206,240,173497,2,0,P|183:172|194:140,2,95.9999970703126,0|0|8,0:0|0:0|0:0,0:0:0:0:
334,305,174200,5,0,0:0:0:0:
256,67,174669,1,0,0:0:0:0:
150,293,175138,1,0,0:0:0:0:
273,218,175372,2,0,L|376:150,1,95.9999970703126,0|2,0:0|0:0,0:0:0:0:
394,139,175724,1,2,0:0:0:0:
435,114,175841,1,2,0:0:0:0:
307,46,176075,1,0,0:0:0:0:
273,218,176310,6,0,L|245:334,1,95.9999970703126,4|0,0:0|0:0,0:0:0:0:
162,179,176778,1,8,0:0:0:0:
296,126,177013,1,2,0:0:0:0:
283,172,177130,1,2,0:0:0:0:
273,218,177247,1,2,0:0:0:0:
179,109,177481,1,0,0:0:0:0:
314,59,177716,1,8,0:0:0:0:
220,175,177950,6,0,P|160:183|125:164,1,100
266,109,178419,2,0,P|299:173|287:213,1,100,0|8,0:0|0:0,0:0:0:0:
185,300,178888,2,0,L|81:308,2,100
334,286,179591,2,0,P|369:251|376:203,1,100,8|0,0:0|0:0,0:0:0:0:
321,62,180060,6,0,L|296:164,1,100,4|0,0:0|0:0,0:0:0:0:
264,305,180528,1,8,0:0:0:0:
163,192,180763,1,2,0:0:0:0:
151,240,180880,1,2,0:0:0:0:
141,289,180997,1,2,0:0:0:0:
280,233,181231,1,0,0:0:0:0:
187,114,181466,1,8,0:0:0:0:
55,54,181700,6,0,P|69:111|115:134,1,100
404,190,182169,2,0,P|390:133|344:110,1,100,0|8,0:0|0:0,0:0:0:0:
193,259,182638,2,0,P|284:268|330:184,1,200
185,183,183341,2,0,P|137:206|118:258,1,100,8|0,0:0|0:0,0:0:0:0:
237,339,183810,6,0,L|260:241,1,100,4|0,0:0|0:0,0:0:0:0:
291,95,184278,1,8,0:0:0:0:
163,123,184513,2,0,L|65:146,1,100
318,192,184981,1,0,0:0:0:0:
291,95,185216,1,8,0:0:0:0:
228,231,185450,2,0,P|155:158|151:48,1,200
291,95,186153,1,8,0:0:0:0:
228,231,186388,5,2,0:0:0:0:
145,65,186622,1,2,0:0:0:0:
318,192,186856,1,2,0:0:0:0:
151,158,187091,1,8,0:0:0:0:
291,95,187325,1,2,0:0:0:0:
302,240,187560,6,0,L|184:259,1,100
329,150,188028,2,0,P|374:179|394:231,1,100,8|0,0:0|0:0,0:0:0:0:
215,112,188497,2,0,P|222:56|266:22,1,100
365,7,188966,1,8,0:0:0:0:
329,150,189200,6,0,L|316:261,1,100
204,211,189669,2,0,L|215:111,1,100,0|8,0:0|0:0,0:0:0:0:
329,150,190138,1,0,0:0:0:0:
187,304,190372,2,0,B|112:245|112:245|124:135,1,200,0|8,0:0|0:0,0:0:0:0:
344,240,191310,6,0,L|333:342,1,80,4|0,0:0|0:0,0:0:0:0:
230,245,191778,2,0,L|238:165,1,80,8|0,0:0|0:0,0:0:0:0:
252,37,192247,1,0,0:0:0:0:
353,113,192481,1,0,0:0:0:0:
238,165,192716,1,8,0:0:0:0:
146,67,192950,2,0,L|137:146,1,80
229,244,193419,2,0,L|237:164,1,80,0|8,0:0|0:0,0:0:0:0:
252,37,193888,1,0,0:0:0:0:
343,192,194122,2,0,L|352:113,2,80
