osu file format v14

[General]
AudioFilename: audio.mp3
AudioLeadIn: 0
PreviewTime: 416
Countdown: 1
SampleSet: Normal
StackLeniency: 1
Mode: 1
LetterboxInBreaks: 0
WidescreenStoryboard: 1

[Editor]
DistanceSpacing: 1.1
BeatDivisor: 4
GridSize: 4
TimelineZoom: 2.799999

[Metadata]
Title:ChiruChiru
TitleUnicode:ChiruChiru
Artist:Reol
ArtistUnicode:Reol
Creator:Ioneth-chan
Version:Oni
Source:
Tags:chiruchiru reol
BeatmapID:1316461
BeatmapSetID:482954

[Difficulty]
HPDrainRate:5
CircleSize:4
OverallDifficulty:5
ApproachRate:6
SliderMultiplier:1.5
SliderTickRate:1

[Events]
//Background and Video events
0,0,"ocean.jpg",0,0
//Break Periods
2,39405,45890
2,65421,68390
//Storyboard Layer 0 (Background)
//Storyboard Layer 1 (Fail)
//Storyboard Layer 2 (Pass)
//Storyboard Layer 3 (Foreground)
//Storyboard Sound Samples

[TimingPoints]
65,468.75,4,1,0,75,1,0
9440,-100,4,1,0,75,0,0
54440,-100,4,1,0,75,0,1
69440,-100,4,1,0,25,0,0
86315,-100,4,1,0,75,0,0
116315,-100,4,1,0,75,0,1
131315,-100,4,1,0,75,0,0
176315,-100,4,1,0,75,0,1
191315,-100,4,1,0,75,0,0

[Colours]
Combo1 : 255,255,128
Combo2 : 61,125,222
Combo3 : 255,128,255
Combo4 : 182,109,209

[HitObjects]
256,192,1236,5,8,1:0:0:0:
256,192,1354,1,8,1:0:0:0:
256,192,1471,1,8,1:0:0:0:
256,192,1705,1,0,1:0:0:0:
256,192,1940,1,4,3:0:0:0:
256,192,2408,1,8,0:0:0:0:
256,192,2877,1,8,0:0:0:0:
256,192,3111,1,0,0:0:0:0:
256,192,3346,1,8,0:0:0:0:
256,192,3580,1,0,0:0:0:0:
256,192,4283,5,8,0:0:0:0:
256,192,4400,1,8,0:0:0:0:
256,192,4518,1,8,0:0:0:0:
256,192,4986,1,0,0:0:0:0:
256,192,5221,1,0,0:0:0:0:
256,192,5455,5,8,0:0:0:0:
256,192,5572,1,8,0:0:0:0:
256,192,5690,1,0,0:0:0:0:
256,192,5924,1,0,0:0:0:0:
256,192,6158,1,8,0:0:0:0:
256,192,6627,1,8,0:0:0:0:
256,192,6861,1,0,0:0:0:0:
256,192,7096,1,8,0:0:0:0:
256,192,7330,1,0,0:0:0:0:
168,280,7565,2,0,P|352:204|324:296,1,450
256,192,9205,5,0,0:0:0:0:
256,192,9440,1,0,0:0:0:0:
256,192,9674,1,0,0:0:0:0:
256,192,9908,1,8,0:0:0:0:
256,192,10143,1,0,0:0:0:0:
256,192,10377,1,0,0:0:0:0:
256,192,10611,1,8,0:0:0:0:
256,192,10846,1,8,0:0:0:0:
256,192,11080,1,0,0:0:0:0:
256,192,11315,5,0,0:0:0:0:
256,192,11432,1,0,0:0:0:0:
256,192,11549,1,8,0:0:0:0:
256,192,11666,1,8,0:0:0:0:
256,192,11783,1,0,0:0:0:0:
256,192,11900,1,0,0:0:0:0:
256,192,12018,1,8,0:0:0:0:
256,192,12135,1,8,0:0:0:0:
256,192,12252,1,0,0:0:0:0:
256,192,12369,1,0,0:0:0:0:
256,192,12486,1,8,0:0:0:0:
256,192,12603,1,8,0:0:0:0:
256,192,12720,1,8,0:0:0:0:
256,192,12955,1,8,0:0:0:0:
256,192,13072,1,8,0:0:0:0:
256,192,13190,5,0,0:0:0:0:
256,192,13424,1,0,0:0:0:0:
256,192,13541,1,0,0:0:0:0:
256,192,13658,1,8,0:0:0:0:
256,192,13893,1,0,0:0:0:0:
256,192,14127,1,0,0:0:0:0:
256,192,14361,1,8,0:0:0:0:
256,192,14596,1,8,0:0:0:0:
256,192,14830,1,0,0:0:0:0:
256,192,15065,5,0,0:0:0:0:
256,192,15182,1,0,0:0:0:0:
256,192,15299,1,8,0:0:0:0:
256,192,15416,1,0,0:0:0:0:
256,192,15533,1,0,0:0:0:0:
256,192,15650,1,0,0:0:0:0:
256,192,15768,1,8,0:0:0:0:
256,192,15885,1,8,0:0:0:0:
256,192,16002,1,0,0:0:0:0:
256,192,16119,1,0,0:0:0:0:
256,192,16236,1,8,0:0:0:0:
256,192,16353,1,8,0:0:0:0:
256,192,16470,1,0,0:0:0:0:
256,192,16705,1,8,0:0:0:0:
256,192,16940,5,0,0:0:0:0:
256,192,17174,1,0,0:0:0:0:
256,192,17408,1,8,0:0:0:0:
256,192,17643,1,0,0:0:0:0:
256,192,17877,1,0,0:0:0:0:
256,192,18111,1,8,0:0:0:0:
256,192,18346,1,8,0:0:0:0:
256,192,18580,1,0,0:0:0:0:
256,192,18815,5,8,0:0:0:0:
256,192,18932,1,8,0:0:0:0:
256,192,19049,1,0,0:0:0:0:
256,192,19166,1,0,0:0:0:0:
256,192,19283,1,8,0:0:0:0:
256,192,19400,1,8,0:0:0:0:
256,192,19518,1,0,0:0:0:0:
256,192,19635,1,0,0:0:0:0:
256,192,19752,1,0,0:0:0:0:
256,192,19869,1,0,0:0:0:0:
256,192,19986,1,8,0:0:0:0:
256,192,20103,1,8,0:0:0:0:
256,192,20220,1,8,0:0:0:0:
256,192,20455,1,8,0:0:0:0:
256,192,20572,1,8,0:0:0:0:
256,192,20690,5,0,0:0:0:0:
256,192,20924,1,0,0:0:0:0:
256,192,21158,1,8,0:0:0:0:
256,192,21393,1,8,0:0:0:0:
256,192,21510,1,0,0:0:0:0:
256,192,21627,1,0,0:0:0:0:
256,192,21744,1,0,0:0:0:0:
256,192,21861,1,8,0:0:0:0:
256,192,22096,1,8,0:0:0:0:
256,192,22330,1,0,0:0:0:0:
256,192,22565,1,0,0:0:0:0:
256,192,22799,1,0,0:0:0:0:
256,192,23033,1,8,0:0:0:0:
256,192,23268,1,0,0:0:0:0:
256,192,23385,1,0,0:0:0:0:
256,192,23502,1,8,0:0:0:0:
256,192,23736,1,8,0:0:0:0:
256,192,23854,1,8,0:0:0:0:
256,192,23971,1,0,0:0:0:0:
256,192,24088,1,0,0:0:0:0:
256,192,24205,1,8,0:0:0:0:
252,192,24322,1,8,0:0:0:0:
256,192,24440,5,0,0:0:0:0:
256,192,24674,1,0,0:0:0:0:
256,192,24908,1,8,0:0:0:0:
256,192,25143,1,0,0:0:0:0:
256,192,25377,1,0,0:0:0:0:
256,192,25611,1,8,0:0:0:0:
256,192,25846,1,8,0:0:0:0:
256,192,26080,1,0,0:0:0:0:
256,192,26315,5,8,0:0:0:0:
256,192,26432,1,0,0:0:0:0:
256,192,26549,1,0,0:0:0:0:
256,192,26666,1,8,0:0:0:0:
256,192,26783,1,0,0:0:0:0:
256,192,26900,1,0,0:0:0:0:
256,192,27018,1,8,0:0:0:0:
256,192,27135,1,0,0:0:0:0:
256,192,27252,1,0,0:0:0:0:
256,192,27369,1,8,0:0:0:0:
256,192,27486,1,0,0:0:0:0:
256,192,27603,1,0,0:0:0:0:
256,192,27720,1,8,0:0:0:0:
256,192,27955,1,8,0:0:0:0:
256,192,28072,1,8,0:0:0:0:
256,192,28190,5,0,0:0:0:0:
256,192,28424,1,0,0:0:0:0:
256,192,28658,1,8,0:0:0:0:
256,192,28893,1,0,0:0:0:0:
256,192,29127,1,0,0:0:0:0:
256,192,29361,1,8,0:0:0:0:
256,192,29596,1,8,0:0:0:0:
256,192,29830,1,0,0:0:0:0:
256,192,30065,5,0,0:0:0:0:
256,192,30182,1,0,0:0:0:0:
256,192,30299,1,0,0:0:0:0:
256,192,30416,1,8,0:0:0:0:
256,192,30533,1,0,0:0:0:0:
256,192,30650,1,0,0:0:0:0:
256,192,30768,1,8,0:0:0:0:
256,192,30885,1,0,0:0:0:0:
256,192,31002,1,0,0:0:0:0:
256,192,31119,1,0,0:0:0:0:
256,192,31236,1,8,0:0:0:0:
256,192,31354,1,8,0:0:0:0:
256,192,31471,1,0,0:0:0:0:
256,192,31588,1,0,0:0:0:0:
256,192,31705,1,8,0:0:0:0:
252,192,31822,1,0,0:0:0:0:
256,192,31940,5,0,0:0:0:0:
256,192,32174,1,0,0:0:0:0:
256,192,32408,1,8,0:0:0:0:
256,192,32643,1,0,0:0:0:0:
256,192,32877,1,0,0:0:0:0:
256,192,33111,1,8,0:0:0:0:
256,192,33346,1,8,0:0:0:0:
256,192,33580,1,0,0:0:0:0:
256,192,33815,5,8,0:0:0:0:
256,192,33932,1,0,0:0:0:0:
256,192,34049,1,0,0:0:0:0:
256,192,34166,1,0,0:0:0:0:
256,192,34283,1,8,0:0:0:0:
256,192,34400,1,0,0:0:0:0:
256,192,34518,1,0,0:0:0:0:
256,192,34635,1,0,0:0:0:0:
256,192,34752,1,8,0:0:0:0:
256,192,34869,1,0,0:0:0:0:
256,192,34986,1,0,0:0:0:0:
256,192,35103,1,8,0:0:0:0:
256,192,35220,1,8,0:0:0:0:
256,192,35455,1,8,0:0:0:0:
256,192,35572,1,8,0:0:0:0:
256,192,35690,5,0,0:0:0:0:
256,192,35924,1,0,0:0:0:0:
256,192,36158,1,8,0:0:0:0:
256,192,36393,1,0,0:0:0:0:
256,192,36510,1,8,0:0:0:0:
256,192,36627,1,0,0:0:0:0:
256,192,36744,1,8,0:0:0:0:
256,192,36861,1,0,0:0:0:0:
256,192,37096,1,8,0:0:0:0:
256,192,37330,1,0,0:0:0:0:
256,192,37565,1,0,0:0:0:0:
256,192,37799,1,0,0:0:0:0:
256,192,38033,1,8,0:0:0:0:
256,192,38268,1,0,0:0:0:0:
256,192,38385,1,0,0:0:0:0:
256,192,38502,1,8,0:0:0:0:
256,192,38736,1,8,0:0:0:0:
256,192,38854,1,8,0:0:0:0:
256,192,38971,1,0,0:0:0:0:
256,192,39205,1,8,0:0:0:0:
256,192,46940,5,4,0:0:0:0:
256,192,47408,1,12,0:0:0:0:
256,192,47877,1,4,0:0:0:0:
256,192,48346,1,12,0:0:0:0:
256,192,48815,5,4,0:0:0:0:
256,192,49049,1,0,0:0:0:0:
256,192,49283,1,12,0:0:0:0:
256,192,49518,1,0,0:0:0:0:
256,192,49752,1,4,0:0:0:0:
256,192,49986,1,0,0:0:0:0:
256,192,50221,1,12,0:0:0:0:
256,192,50455,1,0,0:0:0:0:
256,192,50690,5,0,0:0:0:0:
256,192,50807,1,0,0:0:0:0:
256,192,50924,1,0,0:0:0:0:
256,192,51041,1,0,0:0:0:0:
256,192,51158,1,8,0:0:0:0:
256,192,51275,1,0,0:0:0:0:
256,192,51393,1,0,0:0:0:0:
256,192,51510,1,0,0:0:0:0:
256,192,51627,1,0,0:0:0:0:
256,192,51744,1,0,0:0:0:0:
256,192,51861,1,0,0:0:0:0:
256,192,51979,1,0,0:0:0:0:
256,192,52096,1,8,0:0:0:0:
256,192,52213,1,0,0:0:0:0:
256,192,52330,1,0,0:0:0:0:
256,192,52447,1,0,0:0:0:0:
256,192,52565,5,4,0:0:0:0:
256,192,52799,1,8,0:0:0:0:
256,192,53033,1,4,0:0:0:0:
256,192,53268,1,8,0:0:0:0:
256,192,53502,1,0,0:0:0:0:
256,192,53619,1,0,0:0:0:0:
256,192,53736,1,0,0:0:0:0:
256,192,53971,1,12,0:0:0:0:
256,192,54440,5,0,0:0:0:0:
256,192,54674,1,0,0:0:0:0:
256,192,54908,1,8,0:0:0:0:
256,192,55143,1,8,0:0:0:0:
256,192,55260,1,8,0:0:0:0:
256,192,55377,1,0,0:0:0:0:
256,192,55494,1,8,0:0:0:0:
256,192,55611,1,0,0:0:0:0:
256,192,55846,1,8,0:0:0:0:
256,192,56080,5,0,0:0:0:0:
256,192,56315,1,4,0:0:0:0:
256,192,56549,1,0,0:0:0:0:
256,192,56783,1,12,0:0:0:0:
256,192,57018,1,0,0:0:0:0:
256,192,57252,1,4,0:0:0:0:
256,192,57486,1,0,0:0:0:0:
256,192,57721,1,12,0:0:0:0:
256,192,57955,1,8,0:0:0:0:
256,192,58072,1,8,0:0:0:0:
256,192,58190,5,0,0:0:0:0:
256,192,58424,1,0,0:0:0:0:
256,192,58658,1,8,0:0:0:0:
256,192,58893,1,8,0:0:0:0:
256,192,59010,1,0,0:0:0:0:
256,192,59127,1,8,0:0:0:0:
256,192,59244,1,0,0:0:0:0:
256,192,59361,1,8,0:0:0:0:
256,192,59596,1,8,0:0:0:0:
256,192,59830,5,0,0:0:0:0:
256,192,59947,1,0,0:0:0:0:
256,192,60065,1,8,0:0:0:0:
256,192,60182,1,8,0:0:0:0:
256,192,60299,1,0,0:0:0:0:
256,192,60416,1,8,0:0:0:0:
256,192,60533,1,8,0:0:0:0:
256,192,60650,1,0,0:0:0:0:
256,192,60768,1,8,0:0:0:0:
256,192,60885,1,8,0:0:0:0:
256,192,61002,1,0,0:0:0:0:
256,192,61119,1,0,0:0:0:0:
256,192,61236,1,8,0:0:0:0:
256,192,61353,1,8,0:0:0:0:
256,192,61471,1,0,0:0:0:0:
256,192,61705,1,8,0:0:0:0:
256,192,61940,5,0,0:0:0:0:
256,192,62174,1,0,0:0:0:0:
256,192,62291,1,0,0:0:0:0:
256,192,62408,1,8,0:0:0:0:
256,192,62643,1,0,0:0:0:0:
256,192,62877,1,0,0:0:0:0:
256,192,62994,1,0,0:0:0:0:
256,192,63111,1,0,0:0:0:0:
256,192,63346,1,8,0:0:0:0:
256,192,63580,1,0,0:0:0:0:
256,192,63815,1,0,0:0:0:0:
256,192,63932,1,0,0:0:0:0:
256,192,64049,1,8,0:0:0:0:
256,192,64166,1,0,0:0:0:0:
256,192,64283,1,0,0:0:0:0:
256,192,64400,1,8,0:0:0:0:
256,192,64518,1,0,0:0:0:0:
256,192,64635,1,0,0:0:0:0:
256,192,64752,1,8,0:0:0:0:
256,192,64869,1,0,0:0:0:0:
256,192,64986,1,0,0:0:0:0:
256,192,65221,1,8,0:0:0:0:
156,260,69440,6,0,P|320:114|358:270,1,450
