osu file format v14

[General]
AudioFilename: audio.mp3
AudioLeadIn: 0
PreviewTime: 416
Countdown: 1
SampleSet: Normal
StackLeniency: 0.7
Mode: 0
LetterboxInBreaks: 0
WidescreenStoryboard: 1

[Editor]
DistanceSpacing: 1.3
BeatDivisor: 4
GridSize: 4
TimelineZoom: 1.2

[Metadata]
Title:ChiruChiru
TitleUnicode:ChiruChiru
Artist:Reol
ArtistUnicode:Reol
Creator:Ioneth-chan
Version:Hard
Source:
Tags:chiruchiru reol
BeatmapID:1068554
BeatmapSetID:482954

[Difficulty]
HPDrainRate:6
CircleSize:3.5
OverallDifficulty:6
ApproachRate:7
SliderMultiplier:1.6
SliderTickRate:1

[Events]
//Background and Video events
0,0,"ocean.jpg",0,0
//Break Periods
2,39640,46040
//Storyboard Layer 0 (Background)
//Storyboard Layer 1 (Fail)
//Storyboard Layer 2 (Pass)
//Storyboard Layer 3 (Foreground)
//Storyboard Sound Samples

[TimingPoints]
65,468.75,4,1,0,75,1,0
1940,-133.333333333333,4,1,0,75,0,0
9440,-100,4,1,0,75,0,0
54440,-100,4,1,0,75,0,1
69440,-100,4,1,0,25,0,0
86315,-100,4,1,0,75,0,0
116315,-100,4,1,0,75,0,1
131315,-100,4,1,0,75,0,0
176315,-100,4,1,0,75,0,1
191315,-100,4,1,0,75,0,0

[Colours]
Combo1 : 255,255,128
Combo2 : 61,125,222
Combo3 : 255,128,255
Combo4 : 182,109,209

[HitObjects]
107,103,1236,6,0,L|129:103,4,20,0|0|0|0|0,1:0|1:0|1:0|1:0|1:0,1:0:0:0:
172,216,1705,1,0,1:0:0:0:
240,148,1940,2,0,P|264:120|352:140,1,120.000004577637,8|0,1:0|1:0,1:0:0:0:
336,320,2877,1,0,1:0:0:0:
400,248,3111,2,0,P|440:288|405:359,1,120.000004577637,8|0,1:3|1:3,1:3:0:0:
148,268,4283,6,0,L|148:196,2,40.000001525879,0|0|0,2:0|2:0|2:0,2:0:0:0:
184,112,4986,5,8,1:0:0:0:
256,176,5221,1,8,1:0:0:0:
332,120,5455,1,0,0:0:0:0:
420,156,5690,6,0,P|428:180|416:216,1,60.0000022888184,8|0,1:0|1:0,1:0:0:0:
332,256,6158,1,8,1:0:0:0:
144,292,6627,1,0,1:0:0:0:
128,196,6861,2,0,P|129:163|155:120,1,60.0000022888185,8|0,1:0|1:0,1:0:0:0:
140,138,7330,1,12,1:0:0:0:
256,192,7565,12,4,8971,1:0:0:0:
168,152,9205,5,0,1:0:0:0:
248,60,9440,2,0,L|332:60,1,80,8|0,2:1|2:1,2:1:0:0:
416,140,9908,1,8,1:1:0:0:
316,204,10143,1,0,1:0:0:0:
420,264,10377,1,0,1:0:0:0:
328,304,10611,2,0,P|284:318|188:248,1,160,8|0,1:0|2:0,2:0:0:0:
256,212,11315,6,0,L|336:212,1,80,8|8,1:0|2:0,1:0:0:0:
336,128,11783,2,0,L|238:128,1,80,8|8,1:0|2:0,1:0:0:0:
256,256,12252,2,0,L|347:255,1,80,8|8,1:0|2:0,1:0:0:0:
256,135,12721,1,4,1:0:0:0:
256,256,12955,1,0,0:0:0:0:
372,232,13190,6,0,L|352:140,1,80,8|0,2:1|2:1,2:1:0:0:
320,40,13658,1,8,1:0:0:0:
200,44,13893,1,0,1:0:0:0:
156,153,14127,2,0,L|140:232,2,80,8|0|0,2:1|2:1|2:1,2:1:0:0:
276,160,14830,1,8,1:0:0:0:
192,244,15065,6,0,L|94:244,1,80
164,136,15533,1,0,0:0:0:0:
280,168,15768,1,0,0:0:0:0:
224,44,16002,1,0,0:0:0:0:
280,168,16236,1,0,0:0:0:0:
164,136,16471,2,0,P|152:168|164:225,1,80,4|0,2:1|2:1,2:1:0:0:
272,244,16940,5,0,1:0:0:0:
294,117,17174,1,8,1:0:0:0:
272,244,17409,2,0,P|314:266|372:249,1,80,0|8,2:1|2:1,2:1:0:0:
228,244,17877,1,0,1:0:0:0:
206,117,18111,1,8,1:0:0:0:
228,244,18346,2,0,P|186:266|128:249,1,80,0|8,2:1|2:1,2:1:0:0:
240,180,18815,5,0,1:0:0:0:
356,208,19049,2,0,L|356:108,1,80,8|0,1:0|1:0,1:0:0:0:
236,124,19518,1,8,0:0:0:0:
236,244,19752,1,0,0:0:0:0:
356,208,19986,2,0,L|356:103,1,80,0|4,1:0|1:0,1:0:0:0:
236,124,20455,1,0,0:0:0:0:
168,224,20690,5,8,1:0:0:0:
64,164,20924,1,0,1:0:0:0:
168,224,21158,1,8,1:0:0:0:
272,284,21393,2,0,P|248:346|138:341,1,160,0|8,1:0|1:0,1:0:0:0:
140,240,22096,1,0,1:1:0:0:
144,120,22330,1,8,1:1:0:0:
384,112,22799,5,8,1:0:0:0:
296,196,23033,1,0,1:0:0:0:
220,104,23268,1,8,1:0:0:0:
296,196,23502,2,0,L|396:198,1,80
376,76,23971,2,0,L|268:76,1,80,4|0,1:0|1:0,1:0:0:0:
296,196,24440,6,0,P|353:192|399:215,1,80,8|0,2:1|2:1,2:1:0:0:
372,312,24908,2,0,P|313:318|266:294,1,80,8|0,2:1|2:1,2:1:0:0:
296,196,25377,2,0,P|353:192|399:215,2,80,0|8|0,2:1|2:1|2:1,2:1:0:0:
224,100,26080,1,8,1:0:0:0:
216,220,26315,5,8,2:0:0:0:
336,220,26549,1,8,1:0:0:0:
232,316,26783,2,0,L|343:316,1,80,8|8,2:0|1:0,2:0:0:0:
216,220,27252,1,8,2:0:0:0:
336,220,27486,1,8,1:0:0:0:
240,132,27721,2,0,L|354:132,1,80,4|8,1:0|1:0,2:0:0:0:
162,108,28190,6,0,P|171:61|195:25,1,80,8|0,2:1|2:1,2:1:0:0:
308,40,28658,1,8,1:0:0:0:
188,40,28893,1,0,1:0:0:0:
315,129,29127,1,8,1:0:0:0:
184,36,29361,1,8,1:0:0:0:
308,40,29596,2,0,P|342:32|399:54,1,80,0|8,1:0|1:0,1:0:0:0:
318,137,30065,6,0,L|318:235,1,80,8|8,2:0|1:0,2:0:0:0:
320,132,30533,1,8,2:0:0:0:
320,252,30768,1,8,1:0:0:0:
200,252,31002,2,0,L|200:154,1,80,8|8,2:0|1:0,2:0:0:0:
200,256,31471,1,4,1:0:0:0:
297,257,31705,6,8,P|332:238|352:204,2,80,8|8|8,2:1|2:1|2:1,2:1:0:0:
188,204,32408,1,0,1:0:0:0:
264,112,32643,1,0,1:0:0:0:
337,231,32877,1,0,1:0:0:0:
188,204,33111,1,8,1:0:0:0:
337,231,33346,2,0,P|305:266|266:275,1,80,0|8,1:0|1:0,1:0:0:0:
156,272,33815,6,0,P|118:258|95:226,2,80,0|8|0,2:1|2:1|2:1,2:1:0:0:
240,184,34518,2,0,P|215:152|178:138,1,80,8|0,1:0|1:0,1:0:0:0:
64,268,34986,2,0,P|84:301|120:315,1,80,8|4,1:0|1:0,1:0:0:0:
240,184,35455,1,0,0:0:0:0:
204,68,35690,5,8,1:0:0:0:
324,76,35924,1,0,1:0:0:0:
240,184,36158,1,8,1:0:0:0:
324,76,36393,1,0,1:0:0:0:
412,300,36861,1,8,1:0:0:0:
324,76,37330,1,8,1:0:0:0:
416,296,37799,1,8,1:0:0:0:
368,184,38033,1,0,1:0:0:0:
416,296,38268,1,8,1:0:0:0:
256,192,38502,12,4,39440,1:0:0:0:
80,60,46940,5,8,1:0:0:0:
80,144,47174,1,0,1:0:0:0:
168,144,47408,1,8,1:2:0:0:
168,60,47643,1,0,1:0:0:0:
264,64,47877,5,8,1:0:0:0:
264,148,48111,1,0,1:0:0:0:
352,148,48345,1,8,1:2:0:0:
352,64,48580,1,0,1:0:0:0:
264,64,48815,6,0,L|168:64,2,80
266,185,49518,1,0,0:0:0:0:
264,304,49752,2,0,L|360:304,2,80
266,185,50455,1,0,0:0:0:0:
176,108,50690,6,0,L|120:180,1,80,8|0,1:0|1:0,1:0:0:0:
96,56,51158,2,0,L|37:123,1,80,8|0,1:2|1:0,1:0:0:0:
140,188,51627,2,0,L|201:127,1,80,8|0,1:0|1:0,1:0:0:0:
220,248,52096,2,0,L|275:183,1,80,8|0,2:0|1:0,1:0:0:0:
399,151,52565,5,8,1:3:0:0:
371,251,52799,1,0,1:0:0:0:
265,246,53033,1,8,1:3:0:0:
234,145,53268,1,0,1:0:0:0:
317,79,53502,1,8,3:0:0:0:
399,151,53736,1,0,1:0:0:0:
372,254,53971,2,0,P|288:281|260:226,1,160,0|4,1:0|1:3,1:0:0:0:
185,184,54674,5,0,1:0:0:0:
332,184,54908,1,0,1:0:0:0:
185,184,55143,1,0,1:0:0:0:
332,200,55377,2,0,L|332:288,1,80
244,196,55846,1,0,1:0:0:0:
176,168,56081,6,0,P|176:130|195:80,1,80,0|0,1:0|1:0,1:0:0:0:
244,196,56549,2,0,P|244:234|228:285,1,80,0|0,1:0|1:0,1:0:0:0:
136,125,57018,2,0,P|136:86|152:40,1,80,0|0,1:0|1:0,1:0:0:0:
263,241,57487,2,0,P|263:280|248:328,1,80,0|0,1:0|1:0,1:0:0:0:
140,280,57955,1,0,0:0:0:0:
76,168,58190,6,0,P|100:107|116:175,1,160,0|0,1:0|1:0,1:0:0:0:
140,280,58893,1,0,0:0:0:0:
260,300,59127,1,0,0:0:0:0:
140,280,59362,1,0,1:0:0:0:
228,196,59596,1,0,1:0:0:0:
284,92,59830,6,0,P|321:90|372:106,1,80,0|0,1:0|1:0,1:0:0:0:
312,168,60298,2,0,P|274:169|222:156,1,80,0|0,1:0|1:0,1:0:0:0:
320,72,60767,2,0,P|358:69|405:83,1,80,0|0,1:0|1:0,1:0:0:0:
284,208,61236,2,0,P|245:210|196:197,1,80,0|0,1:0|1:0,1:0:0:0:
320,72,61705,1,0,0:0:0:0:
328,192,61940,6,0,P|297:249|279:174,1,160,0|0,1:0|1:0,1:0:0:0:
315,81,62643,1,0,1:0:0:0:
446,53,62878,1,0,1:0:0:0:
315,81,63112,1,0,1:0:0:0:
391,172,63346,1,0,1:0:0:0:
315,81,63581,6,0,P|381:91|386:180,1,160,0|0,1:0|1:0,1:0:0:0:
280,172,64284,1,0,1:0:0:0:
252,272,64518,2,0,P|186:262|181:173,1,160,0|0,1:0|1:0,1:0:0:0:
283,176,65221,1,0,1:0:0:0:
384,164,65455,1,0,0:0:0:0:
316,264,65690,6,0,P|348:320|365:246,1,160,0|0,1:0|1:0,1:0:0:0:
384,164,66393,1,0,1:0:0:0:
304,76,66628,2,0,L|205:75,1,80,0|0,1:0|1:0,1:0:0:0:
140,164,67096,1,0,1:0:0:0:
260,160,67330,5,0,1:1:0:0:
343,96,67564,1,0,1:1:0:0:
425,163,67798,1,0,1:1:0:0:
389,263,68033,1,0,1:1:0:0:
283,265,68267,1,0,1:1:0:0:
260,160,68501,1,0,1:1:0:0:
343,96,68736,1,0,1:1:0:0:
425,163,68971,1,0,1:1:0:0:
256,192,69440,12,0,70846,1:0:0:0:
256,80,71315,6,0,L|342:80,1,80,8|0,1:0|1:0,1:0:0:0:
296,192,71783,1,8,1:0:0:0:
348,300,72018,2,0,L|268:300,1,80,0|0,1:0|1:0,1:0:0:0:
300,184,72486,1,8,1:0:0:0:
264,68,72721,2,0,L|344:68,1,80,0|8,1:0|1:0,1:0:0:0:
344,188,73190,6,0,L|264:188,1,80,8|8,2:0|2:1,2:0:0:0:
136,240,73658,2,8,L|216:240,1,80,8|8,2:0|1:0,2:0:0:0:
344,288,74127,2,8,L|264:287,1,80,8|8,2:0|2:1,2:0:0:0:
344,200,74596,1,4,1:0:0:0:
344,320,74830,1,0,0:0:0:0:
344,200,75065,6,0,L|344:112,1,80,8|0,1:0|0:0,0:0:0:0:
240,176,75533,1,8,1:0:0:0:
176,280,75768,1,0,1:0:0:0:
112,176,76002,1,8,1:0:0:0:
232,176,76237,1,8,1:0:0:0:
344,200,76471,2,0,L|344:110,1,80,0|8,2:1|2:1,2:1:0:0:
271,119,76940,5,8,2:0:0:0:
268,212,77174,1,8,1:0:0:0:
271,119,77408,2,0,L|272:32,1,80,8|8,2:0|2:1,2:0:0:0:
348,132,77877,1,8,2:0:0:0:
351,39,78111,1,8,1:0:0:0:
348,132,78345,2,0,L|347:219,1,80,8|8,2:0|2:1,2:0:0:0:
260,128,78815,6,0,L|174:128,1,80,8|0,1:0|1:0,1:0:0:0:
244,228,79283,2,0,L|330:228,1,80,8|0,1:0|1:0,1:0:0:0:
444,224,79751,1,0,1:0:0:0:
376,124,79986,1,8,1:0:0:0:
316,228,80220,1,0,1:0:0:0:
376,124,80455,1,8,1:0:0:0:
271,142,80690,6,0,L|185:142,1,80,0|8,2:1|2:1,2:1:0:0:
272,232,81158,1,0,1:0:0:0:
220,53,81393,2,0,P|213:95|228:138,1,80,8|0,1:0|1:0,1:0:0:0:
272,240,81861,2,0,P|282:193|267:150,1,80,8|4,1:0|1:0,1:0:0:0:
216,136,82330,1,0,0:0:0:0:
336,136,82565,5,8,1:0:0:0:
216,136,82799,1,8,1:0:0:0:
216,240,83033,1,8,1:0:0:0:
212,136,83268,1,0,1:0:0:0:
216,240,83502,1,0,1:0:0:0:
284,140,83736,2,0,P|284:97|268:54,1,80,8|0,1:0|1:0,1:0:0:0:
208,240,84205,6,8,P|208:283|224:326,1,80,8|0,1:0|1:0,1:0:0:0:
284,236,84674,1,8,0:0:0:0:
336,128,84908,1,0,0:0:0:0:
228,72,85143,1,8,0:0:0:0:
168,176,85377,1,0,0:0:0:0:
287,240,85611,1,0,0:0:0:0:
164,180,85846,1,4,0:0:0:0:
287,240,86080,1,0,0:0:0:0:
204,173,86315,5,8,0:0:0:0:
290,173,86549,1,0,0:0:0:0:
220,248,86783,2,0,L|310:248,1,80,0|8,2:1|2:1,2:1:0:0:
304,94,87252,2,0,L|224:94,1,80,0|8,2:1|2:1,2:1:0:0:
290,173,87720,1,0,0:0:0:0:
204,173,87954,1,8,0:0:0:0:
290,173,88190,5,8,0:0:0:0:
290,76,88424,1,8,2:0:0:0:
388,228,88658,1,8,0:0:0:0:
388,122,88892,1,8,2:0:0:0:
290,279,89127,1,8,0:0:0:0:
290,173,89361,1,8,2:0:0:0:
392,317,89596,1,12,0:0:0:0:
290,84,90065,6,8,L|184:84,1,80,8|8,2:1|2:1,2:1:0:0:
134,217,90533,1,8,0:0:0:0:
134,102,90768,1,0,0:0:0:0:
220,255,91002,2,8,L|328:256,1,80,8|8,2:1|2:1,2:1:0:0:
377,102,91471,1,0,0:0:0:0:
377,217,91706,1,8,0:0:0:0:
288,296,91940,5,8,2:0:0:0:
112,136,92408,2,0,L|112:42,1,80,8|8,2:0|0:0,0:0:0:0:
192,144,92877,1,8,2:0:0:0:
154,217,93346,1,4,0:0:0:0:
205,64,93580,6,0,P|251:55|287:74,1,80,0|8,2:1|2:1,2:1:0:0:
283,230,94049,2,8,P|236:239|200:221,1,80,8|8,2:1|2:1,2:1:0:0:
209,28,94518,2,0,P|256:19|292:37,2,80,0|0|8,2:1|2:1|2:1,2:1:0:0:
216,161,95221,1,0,0:0:0:0:
216,60,95455,1,8,0:0:0:0:
111,60,95690,5,0,0:0:0:0:
372,60,96158,2,0,L|372:142,1,80,0|8,0:0|0:0,0:0:0:0:
111,60,96861,1,8,0:0:0:0:
111,177,97096,1,4,0:0:0:0:
111,177,97565,6,8,L|112:256,1,80
228,248,98033,1,8,0:0:0:0:
228,130,98268,1,0,0:0:0:0:
228,248,98502,1,0,0:0:0:0:
346,248,98736,1,8,0:0:0:0:
346,130,98971,1,0,0:0:0:0:
228,130,99205,1,8,0:0:0:0:
228,243,99440,5,0,0:0:0:0:
372,243,99674,1,8,0:0:0:0:
372,99,99908,1,0,0:0:0:0:
224,99,100143,1,8,0:0:0:0:
224,243,100377,5,0,0:0:0:0:
224,243,100846,1,4,0:0:0:0:
224,87,101080,1,0,0:0:0:0:
256,197,101315,5,8,0:0:0:0:
44,95,101783,2,0,P|107:40|154:28,1,120,0|0,2:1|2:1,2:1:0:0:
182,33,102252,2,0,P|216:33|264:45,1,80,0|8,2:1|2:1,2:1:0:0:
377,232,102955,2,0,P|321:271|220:264,1,160,8|0,2:1|2:1,2:1:0:0:
275,102,103658,1,2,0:0:0:0:
357,184,103893,1,0,0:0:0:0:
361,302,104127,2,0,P|318:317|264:317,2,80,0|8|8,0:0|0:0|0:0,0:0:0:0:
361,302,105065,5,8,0:0:0:0:
388,71,105533,2,0,P|298:56|264:68,1,120,8|0,2:1|2:1,2:1:0:0:
231,71,106002,2,0,P|189:102|165:135,1,80,0|8,2:1|2:1,2:1:0:0:
177,232,106471,1,0,0:0:0:0:
178,114,106705,1,8,0:0:0:0:
177,232,106940,5,0,0:0:0:0:
290,135,107174,1,0,0:0:0:0:
177,232,107408,1,0,0:0:0:0:
341,224,107643,1,0,0:0:0:0:
177,232,107877,1,0,0:0:0:0:
177,232,108346,1,0,0:0:0:0:
333,317,108580,1,0,0:0:0:0:
326,193,108815,5,0,0:0:0:0:
228,201,109049,1,0,0:0:0:0:
326,68,109283,1,0,0:0:0:0:
228,201,109518,1,0,0:0:0:0:
107,193,109752,1,0,0:0:0:0:
228,201,109986,1,0,0:0:0:0:
134,71,110221,1,0,0:0:0:0:
228,201,110455,1,0,0:0:0:0:
157,99,110690,6,0,L|87:169,1,80,8|0,1:0|1:0,1:0:0:0:
208,146,111158,2,0,L|148:208,1,80,8|0,1:2|1:0,1:0:0:0:
271,294,111627,2,0,L|336:228,1,80,8|0,1:0|1:0,1:0:0:0:
220,243,112096,2,0,L|292:180,1,80,8|0,2:0|1:0,1:0:0:0:
111,193,112565,5,8,0:0:0:0:
185,40,112799,1,0,0:0:0:0:
251,193,113033,1,8,0:2:0:0:
100,84,113268,1,0,0:0:0:0:
264,84,113502,1,8,0:0:0:0:
111,193,113736,1,0,0:0:0:0:
185,40,113971,1,8,0:2:0:0:
251,193,114205,1,0,0:0:0:0:
134,263,114440,5,8,1:3:0:0:
364,263,114674,1,0,0:0:0:0:
256,53,114908,1,8,0:3:0:0:
256,266,115143,1,0,0:0:0:0:
377,107,115377,1,8,0:3:0:0:
138,107,115611,1,0,0:0:0:0:
256,283,115846,1,0,0:0:0:0:
220,177,116315,6,0,P|251:224|275:158,1,160,4|0,1:3|1:0,1:0:0:0:
162,68,117135,2,0,L|213:68,1,40
287,68,117486,1,0,0:0:0:0:
287,169,117721,1,0,0:0:0:0:
185,166,117955,5,0,0:0:0:0:
264,99,118190,1,0,0:0:0:0:
259,243,118424,1,0,0:0:0:0:
329,177,118658,1,0,0:0:0:0:
185,166,118893,5,0,0:0:0:0:
279,84,119127,1,0,0:0:0:0:
279,255,119361,1,0,0:0:0:0:
369,169,119596,1,0,0:0:0:0:
279,255,120065,6,0,P|310:302|333:235,1,160,0|0,1:0|1:0,1:0:0:0:
213,146,120885,2,0,L|264:146,1,40
338,146,121236,1,0,0:0:0:0:
251,68,121471,1,0,0:0:0:0:
333,204,121705,5,0,0:0:0:0:
326,60,121940,1,0,0:0:0:0:
271,224,122174,1,0,0:0:0:0:
380,84,122408,1,0,0:0:0:0:
224,197,122643,1,0,0:0:0:0:
420,146,122877,1,0,0:0:0:0:
411,212,123346,1,0,0:0:0:0:
185,146,123580,1,0,0:0:0:0:
302,142,123815,6,0,P|333:189|357:122,1,160,0|0,1:0|1:0,1:0:0:0:
177,286,124635,2,0,L|228:286,1,40
302,286,124986,1,0,0:0:0:0:
177,286,125221,1,0,0:0:0:0:
302,286,125455,6,0,L|300:184,1,80
302,33,126158,1,0,0:0:0:0:
200,150,126393,1,0,0:0:0:0:
400,150,126627,1,0,0:0:0:0:
302,33,126861,1,0,0:0:0:0:
306,240,127096,1,0,0:0:0:0:
298,240,127565,6,0,P|329:286|353:220,1,160,0|0,1:0|1:0,1:0:0:0:
251,235,128268,1,0,0:0:0:0:
95,232,128502,1,0,0:0:0:0:
177,119,128736,1,0,0:0:0:0:
244,235,128971,1,0,0:0:0:0:
244,161,129205,1,0,0:0:0:0:
165,235,129440,5,0,0:0:0:0:
165,161,129674,1,0,0:0:0:0:
287,235,129908,1,0,0:0:0:0:
287,161,130142,1,0,0:0:0:0:
126,235,130377,1,0,0:0:0:0:
236,283,130846,1,0,0:0:0:0:
