osu file format v14

[General]
AudioFilename: audio.mp3
AudioLeadIn: 0
PreviewTime: 416
Countdown: 1
SampleSet: Normal
StackLeniency: 0.7
Mode: 0
LetterboxInBreaks: 0
WidescreenStoryboard: 1

[Editor]
Bookmarks: 33463,33815
DistanceSpacing: 1
BeatDivisor: 2
GridSize: 4
TimelineZoom: 0.8999999

[Metadata]
Title:ChiruChiru
TitleUnicode:ChiruChiru
Artist:Reol
ArtistUnicode:Reol
Creator:Ioneth-chan
Version:Easy
Source:
Tags:chiruchiru reol
BeatmapID:1068540
BeatmapSetID:482954

[Difficulty]
HPDrainRate:2
CircleSize:3.5
OverallDifficulty:2.5
ApproachRate:4.5
SliderMultiplier:0.9
SliderTickRate:1

[Events]
//Background and Video events
0,0,"ocean.jpg",0,0
//Break Periods
2,39640,41930
//Storyboard Layer 0 (Background)
//Storyboard Layer 1 (Fail)
//Storyboard Layer 2 (Pass)
//Storyboard Layer 3 (Foreground)
//Storyboard Sound Samples

[TimingPoints]
65,468.75,4,1,0,50,1,0
1940,-133.333333333333,4,1,0,50,0,0
9440,-100,4,1,0,50,0,0
52565,-66.6666666666667,4,1,0,50,0,0
54440,-100,4,1,0,50,0,1
69440,-100,4,1,0,25,0,0
86315,-100,4,1,0,50,0,0
116315,-100,4,1,0,50,0,1
131315,-100,4,1,0,50,0,0
176315,-100,4,1,0,50,0,1
191315,-100,4,1,0,75,0,0

[Colours]
Combo1 : 255,255,128
Combo2 : 61,125,222
Combo3 : 255,128,255
Combo4 : 182,109,209

[HitObjects]
100,144,1236,6,0,P|160:124|200:144,1,90,0|0,0:0|0:0,0:0:0:0:
220,176,1940,2,0,L|324:176,1,67.5000025749208,0|0,0:0|0:0,0:0:0:0:
416,228,3111,2,0,P|376:276|324:288,1,101.250003862381,0|0,0:0|0:0,0:0:0:0:
272,292,4283,1,0,0:0:0:0:
236,196,4986,2,0,L|236:148,2,33.7500012874604,0|0|0,0:0|0:0|0:0,0:0:0:0:
224,236,5690,2,0,P|192:272|152:272,1,67.5000025749208,0|0,0:0|0:0,0:0:0:0:
100,188,6861,2,0,P|136:144|172:128,1,67.5000025749208,0|0,0:0|0:0,0:0:0:0:
256,192,7565,12,0,8971,0:0:0:0:
88,132,9440,6,0,P|152:92|184:88,1,90,0|0,0:0|0:0,0:0:0:0:
264,88,10377,2,0,L|264:160,2,45,0|0|0,0:0|0:0|0:0,0:0:0:0:
264,196,11315,2,0,L|160:196,1,90,0|0,0:0|0:0,0:0:0:0:
172,296,12252,2,0,L|264:296,1,90,0|0,0:0|0:0,0:0:0:0:
352,292,13190,5,0,0:0:0:0:
352,204,13658,2,0,L|352:96,1,90,0|0,0:0|0:0,0:0:0:0:
348,24,14596,1,0,0:0:0:0:
264,56,15065,2,0,P|256:120|292:184,1,90,0|0,0:0|0:0,0:0:0:0:
352,148,16002,2,0,P|360:212|324:276,1,90,0|0,0:0|0:0,0:0:0:0:
264,244,16940,6,0,L|180:244,2,45,0|0|0,0:0|0:0|0:0,0:0:0:0:
356,240,17877,2,0,L|356:124,1,90,0|0,0:0|0:0,0:0:0:0:
268,132,18815,2,0,L|220:132,2,45,0|0|0,0:0|0:0|0:0,0:0:0:0:
348,168,19752,1,0,0:0:0:0:
348,260,20221,1,0,0:0:0:0:
280,320,20690,6,0,P|240:332|188:320,1,90,0|0,0:0|0:0,0:0:0:0:
128,264,21627,1,0,0:0:0:0:
88,184,22096,2,0,P|84:132|112:80,1,90,0|0,0:0|0:0,0:0:0:0:
188,96,23033,1,0,0:0:0:0:
276,100,23502,2,0,L|376:100,1,90
372,188,24440,6,0,L|372:244,2,45,0|0|0,0:0|0:0|0:0,0:0:0:0:
280,188,25377,2,0,L|168:188,1,90,0|0,0:0|0:0,0:0:0:0:
192,96,26315,2,0,L|300:96,1,90,0|0,0:0|0:0,0:0:0:0:
280,188,27252,2,0,L|168:188,1,90,0|0,0:0|0:0,0:0:0:0:
188,280,28190,5,0,0:0:0:0:
190,188,28658,2,0,B|180:148|180:148|190:88,1,90
272,72,29596,1,0,0:0:0:0:
356,100,30065,2,0,B|366:140|366:140|356:200,2,90
272,72,31471,1,0,0:0:0:0:
272,164,31940,6,0,L|272:236,2,45
236,80,32877,2,0,P|292:64|332:100,1,90
352,160,33815,2,0,L|352:240,2,45
328,248,34752,2,0,P|272:264|232:228,1,90
196,176,35690,5,0,0:0:0:0:
196,88,36158,1,0,0:0:0:0:
284,76,36627,2,0,L|284:184,1,90
356,224,37565,2,0,L|356:96,1,90
256,192,38502,12,0,39440,0:0:0:0:
112,100,43190,6,0,P|168:80|212:84,1,90
288,84,44127,2,0,P|332:85|373:103,1,90
356,192,45065,1,0,0:0:0:0:
316,272,45533,1,0,0:0:0:0:
240,324,46002,2,0,P|195:322|154:304,1,90
64,268,46940,1,0,0:0:0:0:
44,180,47408,5,0,0:0:0:0:
80,96,47877,2,0,P|120:60|176:52,1,90
244,48,48815,2,0,P|286:61|318:92,1,90
408,92,49752,1,0,0:0:0:0:
408,184,50221,1,0,0:0:0:0:
368,264,50690,5,0,0:0:0:0:
280,284,51158,2,0,L|212:284,1,45
188,284,51627,1,0,0:0:0:0:
188,192,52096,1,0,0:0:0:0:
156,80,52565,2,0,P|264:56|312:80,3,135.000005149842
200,124,54440,6,0,B|268:204|124:224|228:308,1,180
116,284,55846,1,0,0:0:0:0:
44,228,56315,2,0,L|44:128,1,90
124,100,57252,2,0,L|126:31,2,45
196,128,58190,6,0,B|236:176|280:140|280:140|336:180|376:108,1,180
352,228,59596,1,0,0:0:0:0:
260,228,60065,2,0,P|264:180|236:124,1,90
156,188,61002,1,0,0:0:0:0:
180,276,61471,1,0,0:0:0:0:
264,244,61940,6,0,B|286:189|286:189|232:133|269:70,1,180
356,76,63346,1,0,0:0:0:0:
440,76,63815,2,0,L|440:188,1,90
440,256,64752,2,0,L|378:255,2,45
396,176,65690,6,0,L|272:176,1,90
216,160,66627,2,0,L|144:160,2,45
212,204,67330,2,0,L|212:296,2,90
216,160,68502,2,0,P|276:156|332:164,1,90
256,192,69440,12,0,70846,0:0:0:0:
