osu file format v14

[General]
AudioFilename: audio.mp3
AudioLeadIn: 0
PreviewTime: 416
Countdown: 1
SampleSet: Normal
StackLeniency: 0.7
Mode: 0
LetterboxInBreaks: 0
WidescreenStoryboard: 1

[Editor]
DistanceSpacing: 1.8
BeatDivisor: 8
GridSize: 4
TimelineZoom: 1.9

[Metadata]
Title:ChiruChiru
TitleUnicode:ChiruChiru
Artist:Reol
ArtistUnicode:Reol
Creator:Ioneth-chan
Version:Chiru
Source:
Tags:chiruchiru reol
BeatmapID:1068539
BeatmapSetID:482954

[Difficulty]
HPDrainRate:6.6
CircleSize:4
OverallDifficulty:6.6
ApproachRate:8.5
SliderMultiplier:2
SliderTickRate:1

[Events]
//Background and Video events
0,0,"ocean.jpg",0,0
//Break Periods
2,39640,46190
2,131046,133846
2,146046,149080
//Storyboard Layer 0 (Background)
//Storyboard Layer 1 (Fail)
//Storyboard Layer 2 (Pass)
//Storyboard Layer 3 (Foreground)
//Storyboard Sound Samples

[TimingPoints]
65,468.75,4,1,0,75,1,0
1940,-133.333333333333,4,1,0,75,0,0
9440,-100,4,1,0,75,0,0
54440,-100,4,1,0,75,0,1
69440,-100,4,1,0,25,0,0
86315,-100,4,1,0,75,0,0
116315,-100,4,1,0,75,0,1
131315,-100,4,1,0,75,0,0
176315,-100,4,1,0,75,0,1
191315,-100,4,1,0,75,0,0

[Colours]
Combo1 : 255,255,128
Combo2 : 61,125,222
Combo3 : 255,128,255
Combo4 : 182,109,209

[HitObjects]
88,92,1236,6,0,L|112:92,4,25,0|0|0|0|0,1:0|1:0|1:0|1:0|1:0,1:0:0:0:
160,196,1705,1,0,1:0:0:0:
216,120,1940,2,0,P|244:116|296:124,1,75.0000028610231,8|0,1:0|1:0,1:0:0:0:
290,122,2408,1,0,1:0:0:0:
436,320,2877,1,0,1:0:0:0:
416,196,3111,2,0,P|375:152|352:144,1,75.0000028610231,8|0,1:0|1:0,1:0:0:0:
288,152,3580,2,0,P|255:170|234:201,1,75.0000028610231,8|4,1:0|1:0,1:0:0:0:
40,208,4283,6,0,L|40:120,2,50.0000019073487,0|0|0,2:0|2:0|2:0,2:0:0:0:
180,104,4986,5,8,1:0:0:0:
280,104,5221,1,8,1:0:0:0:
396,104,5455,2,0,L|424:104,2,18.7500007152558,0|0|0,1:0|1:0|1:0,1:0:0:0:
452,200,5690,6,0,P|448:236|408:272,1,75.0000028610231,8|0,1:0|1:0,1:0:0:0:
384,208,6158,1,8,1:0:0:0:
204,240,6627,1,0,1:0:0:0:
115,203,6861,2,0,P|91:175|76:124,1,75.0000028610231,8|0,1:0|1:0,1:0:0:0:
77,139,7330,1,12,1:0:0:0:
256,192,7565,12,4,8971,1:0:0:0:
109,134,9205,5,0,1:0:0:0:
212,64,9440,2,0,P|265:46|327:77,1,100,8|0,2:1|2:1,2:1:0:0:
402,134,9908,1,0,1:0:0:0:
305,236,10143,1,0,1:0:0:0:
402,134,10377,1,0,1:0:0:0:
305,236,10611,2,0,P|309:297|176:328,1,200,8|0,1:0|2:0,2:0:0:0:
205,236,11315,6,0,L|323:236,1,100,8|8,1:0|2:0,1:0:0:0:
304,88,11783,2,0,L|183:88,1,100,8|8,1:0|2:0,1:0:0:0:
200,336,12252,2,0,L|334:336,1,100,8|8,1:0|2:0,1:0:0:0:
228,169,12721,1,4,1:0:0:0:
300,336,12955,2,0,L|332:336,2,25,0|0|0,1:0|1:0|1:0,1:0:0:0:
308,267,13190,6,0,P|324:222|298:155,1,100,8|0,2:1|2:1,2:1:0:0:
290,85,13658,1,8,1:0:0:0:
179,85,13893,1,0,1:0:0:0:
151,160,14127,2,8,P|131:209|147:262,2,100,8|8|8,2:1|2:1|2:1,2:1:0:0:
307,275,14830,1,8,1:0:0:0:
151,169,15065,5,8,1:0:0:0:
338,173,15299,1,8,2:0:0:0:
151,289,15533,1,8,1:0:0:0:
240,107,15768,1,8,2:0:0:0:
316,284,16002,1,8,1:0:0:0:
167,200,16236,2,0,L|120:200,2,25,0|0|0,1:0|1:0|1:0,1:0:0:0:
102,213,16471,2,0,P|82:262|98:315,1,100,4|0,2:1|2:1,2:1:0:0:
229,271,16940,5,8,1:0:0:0:
349,271,17174,1,0,1:0:0:0:
229,271,17408,1,8,1:0:0:0:
353,160,17643,1,0,1:0:0:0:
229,271,17877,1,0,1:0:0:0:
273,76,18111,1,8,1:0:0:0:
229,271,18346,2,0,P|184:294|113:271,1,100,0|8,2:1|2:1,2:1:0:0:
256,165,18815,5,0,1:0:0:0:
358,200,19049,2,0,L|358:80,1,100,8|0,1:0|1:0,1:0:0:0:
128,104,19518,2,0,L|128:215,1,100,8|0,1:0|1:0,1:0:0:0:
404,204,19986,2,0,L|404:88,1,100,0|4,1:0|1:0,1:0:0:0:
145,104,20455,2,0,L|120:104,2,25,0|0|0,1:0|1:0|1:0,1:0:0:0:
136,224,20690,5,8,1:0:0:0:
284,224,20924,1,0,1:0:0:0:
136,224,21158,1,8,1:0:0:0:
284,224,21393,2,0,P|256:284|124:268,1,200,0|8,1:0|1:0,1:0:0:0:
124,144,22096,2,0,L|224:144,1,100,0|8,2:1|2:1,2:1:0:0:
404,148,22799,5,8,1:0:0:0:
304,296,23033,1,0,1:0:0:0:
304,80,23268,1,8,1:0:0:0:
304,296,23502,1,0,1:0:0:0:
200,148,23736,2,0,L|240:148,2,25,0|0|0,1:0|1:0|1:0,1:0:0:0:
404,148,23971,1,4,1:0:0:0:
192,148,24205,1,0,1:0:0:0:
304,88,24440,6,0,P|361:77|412:96,1,100,8|0,2:1|2:1,2:1:0:0:
404,200,24908,2,0,P|346:210|295:191,1,100,8|0,2:1|2:1,2:1:0:0:
304,88,25377,2,0,P|361:77|412:96,2,100,0|8|0,2:1|2:1|2:1,2:1:0:0:
162,128,26080,1,8,1:0:0:0:
294,217,26315,5,8,2:0:0:0:
251,64,26549,1,8,1:0:0:0:
187,230,26783,1,8,2:0:0:0:
349,128,27018,1,8,1:0:0:0:
162,128,27252,1,8,2:0:0:0:
319,234,27486,1,8,1:0:0:0:
247,51,27721,1,4,1:0:0:0:
144,168,27955,2,0,L|176:168,2,25,0|0|0,1:0|1:0|1:0,1:0:0:0:
108,204,28190,6,0,P|96:268|128:296,1,100,8|0,2:1|2:1,2:1:0:0:
220,268,28658,1,8,1:0:0:0:
116,290,28893,1,0,1:0:0:0:
256,184,29127,1,8,1:0:0:0:
116,290,29361,1,8,1:0:0:0:
220,264,29596,2,0,P|264:284|320:264,1,100,0|8,1:0|1:0,1:0:0:0:
340,192,30065,5,8,2:0:0:0:
200,268,30299,1,8,1:0:0:0:
184,88,30533,1,8,2:0:0:0:
332,256,30768,1,8,1:0:0:0:
352,60,31002,1,8,2:0:0:0:
260,148,31236,2,0,L|260:184,2,25,0|0|0,1:0|1:0|1:0,1:0:0:0:
352,60,31471,1,4,1:0:0:0:
260,148,31705,1,0,1:0:0:0:
184,228,31940,6,8,P|208:276|260:292,2,100,8|8|8,2:1|2:1|2:1,2:1:0:0:
184,88,32643,1,0,1:0:0:0:
184,228,32877,1,0,1:0:0:0:
340,228,33111,1,8,1:0:0:0:
184,228,33346,2,0,P|208:276|260:292,1,100,0|8,2:1|2:1,2:1:0:0:
380,232,33815,6,0,P|356:280|304:296,2,100,0|8|0,2:1|2:1|2:1,2:1:0:0:
246,102,34518,2,0,P|199:117|176:160,1,100,0|0,2:1|2:1,2:1:0:0:
354,328,34986,2,0,P|399:308|420:264,1,100,8|4,2:1|2:1,2:1:0:0:
212,88,35455,2,0,L|184:104,2,25,0|0|0,1:0|1:0|1:0,1:0:0:0:
332,48,35690,5,8,1:0:0:0:
212,88,35924,1,0,1:0:0:0:
304,184,36158,1,8,1:0:0:0:
208,88,36393,1,0,1:0:0:0:
32,20,36861,1,8,1:0:0:0:
468,352,37330,1,8,1:0:0:0:
332,120,37799,1,8,1:0:0:0:
212,220,38033,1,0,1:0:0:0:
332,120,38268,1,8,1:0:0:0:
256,192,38502,12,4,39440,1:0:0:0:
132,96,46940,5,8,1:0:0:0:
244,96,47174,1,0,1:0:0:0:
136,224,47408,1,8,1:2:0:0:
244,96,47643,1,0,1:0:0:0:
244,216,47877,1,8,1:0:0:0:
360,216,48111,1,0,1:0:0:0:
248,324,48346,1,8,1:2:0:0:
360,216,48580,1,0,1:0:0:0:
276,164,48815,6,0,L|196:244,1,100,8|0,1:0|1:0,1:0:0:0:
224,116,49283,2,0,L|148:192,1,100,8|0,1:2|1:0,1:0:0:0:
272,284,49752,2,0,L|356:200,1,100,8|0,1:0|1:0,1:0:0:0:
316,340,50221,2,0,L|396:264,1,100,8|0,2:0|1:0,1:0:0:0:
288,268,50690,5,8,1:0:0:0:
362,193,50924,1,0,1:0:0:0:
288,119,51158,1,8,2:0:0:0:
208,192,51393,1,0,1:0:0:0:
288,268,51627,5,8,1:0:0:0:
392,164,51861,1,0,1:0:0:0:
288,64,52096,1,8,2:0:0:0:
184,164,52330,1,0,1:0:0:0:
144,280,52565,5,8,1:3:0:0:
256,44,52799,1,0,1:0:0:0:
364,284,53033,1,8,1:3:0:0:
120,108,53268,1,0,1:0:0:0:
396,108,53502,1,8,3:0:0:0:
144,280,53736,1,0,1:0:0:0:
256,44,53971,2,0,L|256:248,1,200,0|4,1:0|1:3,1:0:0:0:
176,184,54674,5,0,1:0:0:0:
336,184,54908,1,0,1:0:0:0:
176,184,55143,1,0,1:0:0:0:
256,112,55378,1,0,1:0:0:0:
336,184,55612,1,0,1:0:0:0:
256,256,55846,1,0,1:0:0:0:
176,184,56081,6,0,P|164:136|192:88,1,100,0|0,1:0|1:0,1:0:0:0:
244,196,56549,2,0,P|256:244|228:292,1,100,0|0,1:0|1:0,1:0:0:0:
160,128,57018,2,0,P|148:80|176:32,1,100,0|0,1:0|1:0,1:0:0:0:
264,248,57486,2,0,P|276:296|248:344,1,100,0|0,1:0|1:0,1:0:0:0:
120,116,57956,2,0,L|120:88,2,25,0|0|0,1:0|1:0|1:0,1:0:0:0:
100,208,58190,6,0,P|116:280|136:200,1,200,0|0,1:0|1:0,1:0:0:0:
372,168,59010,2,0,L|372:248,1,50,0|0,1:0|1:0,1:0:0:0:
320,252,59362,1,0,1:0:0:0:
384,180,59596,1,0,1:0:0:0:
264,216,59831,5,0,1:0:0:0:
384,180,60065,1,0,1:0:0:0:
220,172,60299,1,0,1:0:0:0:
384,180,60534,1,0,1:0:0:0:
184,128,60768,1,0,1:0:0:0:
184,280,61003,1,0,1:0:0:0:
188,84,61237,2,0,L|79:83,1,100,0|0,1:0|1:0,1:0:0:0:
188,84,61706,1,0,1:0:0:0:
392,96,61940,6,0,P|376:168|356:88,1,200,0|0,1:0|1:0,1:0:0:0:
192,96,62643,1,0,1:0:0:0:
272,220,62878,1,0,1:0:0:0:
120,216,63112,1,0,1:0:0:0:
192,96,63346,1,0,1:0:0:0:
312,68,63581,6,0,P|396:76|412:180,1,200,0|0,1:0|1:0,1:0:0:0:
340,144,64284,1,0,1:0:0:0:
232,264,64518,1,0,1:0:0:0:
232,144,64753,1,0,1:0:0:0:
349,269,64987,1,0,1:0:0:0:
344,148,65221,1,0,1:0:0:0:
243,251,65456,2,0,L|240:292,2,25,0|0|0,1:0|1:0|1:0,1:0:0:0:
348,272,65690,6,0,P|364:344|384:264,1,200,0|0,1:0|1:0,1:0:0:0:
392,160,66393,1,0,1:0:0:0:
336,64,66628,2,0,L|224:64,1,100,0|0,1:0|1:0,1:0:0:0:
176,156,67096,1,0,1:0:0:0:
248,308,67331,5,0,1:0:0:0:
84,308,67565,1,0,1:0:0:0:
176,156,67799,1,0,1:0:0:0:
172,336,68034,1,0,1:0:0:0:
88,200,68268,1,0,1:0:0:0:
260,200,68503,1,0,1:0:0:0:
172,336,68737,2,0,L|172:368,2,25,0|0|0,1:0|1:0|1:0,1:0:0:0:
176,156,68971,1,0,1:0:0:0:
256,192,69440,12,0,70846,1:0:0:0:
168,100,71080,5,0,1:0:0:0:
272,100,71315,2,0,L|388:100,1,100,8|0,1:0|1:0,1:0:0:0:
372,200,71783,1,8,1:0:0:0:
372,308,72018,2,0,L|240:308,1,100,0|0,1:0|1:0,1:0:0:0:
168,308,72486,1,8,1:0:0:0:
168,200,72721,2,0,L|168:76,1,100,0|8,1:0|1:0,1:0:0:0:
243,26,73190,6,0,L|243:132,1,100,8|8,2:0|2:1,2:0:0:0:
280,332,73658,2,8,L|280:230,1,100,8|8,2:0|1:0,2:0:0:0:
315,26,74127,2,8,L|315:149,1,100,8|8,2:0|2:1,2:0:0:0:
348,337,74596,1,4,1:0:0:0:
348,216,74830,2,0,L|348:172,2,25,0|0|0,1:0|1:0|1:0,1:0:0:0:
348,337,75065,5,8,1:0:0:0:
184,337,75299,1,0,1:0:0:0:
276,185,75533,1,8,1:0:0:0:
272,365,75768,1,0,1:0:0:0:
188,229,76002,1,8,1:0:0:0:
360,229,76237,1,8,1:0:0:0:
272,365,76471,2,0,L|272:260,1,100,0|8,2:1|2:1,2:1:0:0:
272,107,76940,5,8,2:0:0:0:
272,265,77174,1,8,1:0:0:0:
272,107,77408,2,0,L|272:0,1,100,8|8,2:0|2:1,2:0:0:0:
272,267,77877,1,8,2:0:0:0:
272,107,78111,2,0,L|272:76,2,25,0|0|0,1:0|1:0|1:0,1:0:0:0:
272,265,78346,2,0,L|272:376,1,100,4|0,1:0|1:0,1:0:0:0:
272,127,78815,6,0,L|168:128,1,100,8|0,1:0|1:0,1:0:0:0:
370,131,79283,1,8,1:0:0:0:
202,127,79517,1,0,1:0:0:0:
368,232,79751,1,0,1:0:0:0:
294,67,79986,1,8,1:0:0:0:
222,227,80220,1,0,1:0:0:0:
380,131,80455,1,8,1:0:0:0:
272,127,80690,6,0,L|168:128,1,100,8|0,1:0|1:0,1:0:0:0:
307,264,81158,1,0,1:0:0:0:
208,32,81393,2,0,P|190:77|207:123,1,100,0|0,1:0|1:0,1:0:0:0:
308,356,81861,2,0,P|324:310|307:264,1,100,0|0,1:0|1:0,1:0:0:0:
207,123,82330,2,0,L|206:87,2,25,0|0|0,1:0|1:0|1:0,1:0:0:0:
306,263,82565,5,8,1:0:0:0:
212,120,82799,1,8,1:0:0:0:
219,264,83033,1,8,1:0:0:0:
316,120,83268,1,0,1:0:0:0:
219,264,83502,1,0,1:0:0:0:
316,120,83736,2,0,P|332:74|315:28,1,100,0|0,1:0|1:0,1:0:0:0:
219,264,84205,6,0,P|201:309|217:356,1,100,0|0,1:0|1:0,1:0:0:0:
299,224,84674,1,8,0:0:0:0:
351,96,84908,1,0,0:0:0:0:
215,40,85143,1,8,0:0:0:0:
171,176,85377,1,0,0:0:0:0:
299,224,85611,2,0,L|328:240,2,25,0|0|0,1:0|1:0|1:0,1:0:0:0:
119,156,85846,1,4,0:0:0:0:
363,248,86080,1,0,0:0:0:0:
224,176,86315,5,8,0:0:0:0:
312,176,86549,1,0,0:0:0:0:
168,248,86783,1,8,0:0:0:0:
360,248,87018,1,0,0:0:0:0:
212,316,87252,2,0,L|316:316,1,100,0|8,2:1|2:1,2:1:0:0:
312,176,87721,2,0,L|192:176,1,100,0|8,2:1|2:1,2:1:0:0:
312,176,88190,5,8,0:0:0:0:
312,76,88424,1,8,2:0:0:0:
412,232,88658,1,8,0:0:0:0:
412,124,88892,1,8,2:0:0:0:
312,284,89127,1,8,0:0:0:0:
312,176,89361,1,8,2:0:0:0:
416,324,89596,1,12,0:0:0:0:
416,184,89830,2,0,L|416:152,2,25,0|0|0,1:0|1:0|1:0,1:0:0:0:
328,84,90065,6,8,L|196:84,1,100,8|8,2:1|2:1,2:1:0:0:
132,216,90533,1,8,0:0:0:0:
132,100,90768,1,0,0:0:0:0:
228,256,91002,2,8,L|372:256,1,100,8|8,2:1|2:1,2:1:0:0:
428,104,91471,1,0,0:0:0:0:
428,220,91706,1,8,0:0:0:0:
296,304,91940,5,8,2:0:0:0:
80,144,92408,2,0,L|80:8,1,100,8|8,2:0|0:0,0:0:0:0:
180,200,92877,1,8,2:0:0:0:
252,80,93111,2,0,L|252:40,2,25,0|0|0,1:0|1:0|1:0,1:0:0:0:
180,200,93346,1,4,0:0:0:0:
212,80,93580,6,0,P|256:60|304:80,1,100,0|8,2:1|2:1,2:1:0:0:
304,228,94049,2,0,P|258:245|214:225,1,100,0|8,2:1|2:1,2:1:0:0:
216,64,94518,2,0,P|260:44|308:64,2,100,0|8|0,2:1|2:1|2:1,2:1:0:0:
216,160,95221,1,0,0:0:0:0:
216,56,95455,1,8,0:0:0:0:
108,56,95690,5,0,0:0:0:0:
376,56,96158,2,0,L|376:160,1,100,0|8,0:0|0:0,0:0:0:0:
108,56,96861,1,8,0:0:0:0:
108,176,97096,1,4,0:0:0:0:
108,56,97330,2,0,L|108:28,2,25,0|0|0,1:0|1:0|1:0,1:0:0:0:
108,176,97565,6,8,L|108:276,1,100
228,280,98033,1,8,0:0:0:0:
228,160,98268,1,0,0:0:0:0:
228,280,98502,1,0,0:0:0:0:
348,280,98736,1,8,0:0:0:0:
348,160,98971,1,0,0:0:0:0:
228,160,99205,1,8,0:0:0:0:
228,276,99440,5,0,0:0:0:0:
376,276,99674,1,8,0:0:0:0:
376,128,99908,1,0,0:0:0:0:
224,128,100143,1,8,0:0:0:0:
224,276,100377,5,0,0:0:0:0:
224,128,100611,2,0,L|224:96,2,25,0|0|0,1:0|1:0|1:0,1:0:0:0:
224,276,100846,1,4,0:0:0:0:
224,116,101080,1,0,0:0:0:0:
256,228,101315,5,8,0:0:0:0:
60,119,101783,2,0,P|127:54|188:37,1,150,0|0,2:1|2:1,2:1:0:0:
225,35,102252,2,0,P|280:37|328:58,1,100,0|8,2:1|2:1,2:1:0:0:
388,280,102955,2,0,P|294:346|212:315,1,200,8|0,2:1|2:1,2:1:0:0:
276,100,103658,1,2,0:0:0:0:
360,184,103893,1,0,0:0:0:0:
364,304,104127,2,0,P|320:320|256:320,2,100,0|8|8,0:0|0:0|0:0,0:0:0:0:
364,176,104830,2,0,L|364:144,2,25,0|0|0,1:0|1:0|1:0,1:0:0:0:
364,304,105065,5,8,0:0:0:0:
392,68,105533,2,0,P|300:52|240:72,1,150,8|0,2:1|2:1,2:1:0:0:
208,92,106002,2,0,P|164:124|136:168,1,100,0|8,2:1|2:1,2:1:0:0:
176,232,106471,1,0,0:0:0:0:
177,111,106705,1,8,0:0:0:0:
176,232,106940,5,0,0:0:0:0:
292,132,107174,1,0,0:0:0:0:
176,232,107408,1,0,0:0:0:0:
344,224,107643,1,0,0:0:0:0:
176,232,107877,1,0,0:0:0:0:
336,320,108111,2,0,L|368:340,2,25,0|0|0,1:0|1:0|1:0,1:0:0:0:
176,232,108346,1,0,0:0:0:0:
336,320,108580,1,0,0:0:0:0:
328,192,108815,5,8,0:0:0:0:
228,200,109049,1,0,0:0:0:0:
328,64,109283,1,8,0:2:0:0:
228,200,109518,1,0,0:0:0:0:
104,192,109752,1,8,0:0:0:0:
228,200,109986,1,0,0:0:0:0:
132,68,110221,1,8,0:2:0:0:
228,200,110455,1,0,0:0:0:0:
168,80,110690,6,0,L|84:168,1,100,8|0,1:0|1:0,1:0:0:0:
224,124,111158,2,0,L|152:200,1,100,8|0,1:2|1:0,1:0:0:0:
272,296,111627,2,0,L|344:220,1,100,8|0,1:0|1:0,1:0:0:0:
220,244,112096,2,0,L|296:168,1,100,8|0,2:0|1:0,1:0:0:0:
108,192,112565,5,8,0:0:0:0:
184,36,112799,1,0,0:0:0:0:
252,192,113033,1,8,0:2:0:0:
96,80,113268,1,0,0:0:0:0:
264,80,113502,1,8,0:0:0:0:
108,192,113736,1,0,0:0:0:0:
184,36,113971,1,8,0:2:0:0:
252,192,114205,1,0,0:0:0:0:
132,264,114440,5,8,1:3:0:0:
368,264,114674,1,0,0:0:0:0:
256,48,114908,1,8,0:3:0:0:
256,268,115143,1,0,0:0:0:0:
380,104,115377,1,8,0:3:0:0:
136,104,115611,1,0,0:0:0:0:
256,284,115846,1,4,0:0:0:0:
232,172,116315,6,0,P|261:243|285:170,1,200,0|0,1:0|1:0,1:0:0:0:
140,56,117135,2,0,L|204:56,1,50
288,64,117486,1,0,0:0:0:0:
288,168,117721,1,0,0:0:0:0:
184,164,117955,5,0,0:0:0:0:
264,96,118190,1,0,0:0:0:0:
260,244,118424,1,0,0:0:0:0:
332,176,118658,1,0,0:0:0:0:
184,164,118893,5,0,0:0:0:0:
280,80,119127,1,0,0:0:0:0:
280,256,119361,1,0,0:0:0:0:
372,168,119596,1,0,0:0:0:0:
192,168,119830,2,0,L|164:168,2,25,0|0|0,1:0|1:0|1:0,1:0:0:0:
300,248,120065,6,0,P|329:319|353:246,1,200,0|0,1:0|1:0,1:0:0:0:
200,144,120885,2,0,L|264:144,1,50
340,144,121236,1,0,0:0:0:0:
252,64,121471,1,0,0:0:0:0:
336,204,121705,5,0,0:0:0:0:
328,56,121940,1,0,0:0:0:0:
272,224,122174,1,0,0:0:0:0:
384,80,122408,1,0,0:0:0:0:
224,196,122643,1,0,0:0:0:0:
424,144,122877,1,0,0:0:0:0:
184,144,123111,2,0,L|140:144,2,25
416,212,123346,1,0,0:0:0:0:
184,144,123580,1,0,0:0:0:0:
324,128,123815,6,0,P|353:199|377:126,1,200,0|0,1:0|1:0,1:0:0:0:
176,292,124635,2,0,L|228:292,1,50
320,296,124986,1,0,0:0:0:0:
226,292,125221,1,0,0:0:0:0:
320,296,125455,6,0,B|348:260|420:244|232:224|292:144|336:132,1,200
320,36,126158,1,0,0:0:0:0:
216,156,126393,1,0,0:0:0:0:
420,156,126627,1,0,0:0:0:0:
320,36,126861,1,0,0:0:0:0:
324,248,127096,1,0,0:0:0:0:
324,140,127330,2,0,L|324:112,2,25,0|0|0,1:0|1:0|1:0,1:0:0:0:
324,248,127565,6,0,P|351:319|377:246,1,200,0|0,1:0|1:0,1:0:0:0:
252,236,128268,1,0,0:0:0:0:
92,232,128502,1,0,0:0:0:0:
176,116,128736,1,0,0:0:0:0:
244,236,128971,1,0,0:0:0:0:
244,160,129205,1,0,0:0:0:0:
164,236,129440,5,0,0:0:0:0:
164,160,129674,1,0,0:0:0:0:
288,236,129908,1,0,0:0:0:0:
288,160,130143,2,0,L|288:104,1,50
124,236,130377,2,0,L|124:296,1,50
128,156,130611,2,0,L|128:120,2,25,0|0|0,1:0|1:0|1:0,1:0:0:0:
236,284,130846,1,0,0:0:0:0:
368,204,134596,6,0,L|376:268,1,50,0|0,2:0|2:0,2:0:0:0:
320,152,134830,2,0,L|264:128,1,50,0|0,2:0|2:0,2:0:0:0:
304,216,135065,6,0,P|276:232|200:216,1,100
256,160,135533,1,0,0:0:0:0:
356,104,135768,2,0,L|356:52,1,50,0|0,2:0|2:0,2:0:0:0:
436,24,136002,2,0,L|436:144,1,100
272,268,136705,5,0,0:0:0:0:
436,96,137174,1,0,0:0:0:0:
180,96,137643,2,0,L|204:96,2,25
260,96,137877,2,0,P|288:52|348:108,1,150
268,264,138580,1,0,0:0:0:0:
324,160,138815,5,0,0:0:0:0:
144,160,139166,2,0,L|144:216,1,50,0|8,2:0|2:0,2:0:0:0:
256,208,139518,1,0,0:0:0:0:
252,316,139752,1,0,0:0:0:0:
256,208,139986,2,0,L|256:144,1,50,0|0,2:0|2:0,2:0:0:0:
84,192,140455,1,0,0:0:0:0:
324,192,140924,5,0,0:0:0:0:
248,184,141158,2,0,B|242:195|242:195|236:183|236:183|231:195|231:195|224:183|224:183|220:195|220:195|212:183|212:183|208:195|208:195|200:183|200:183|195:195|195:195|188:183|188:183|184:195|184:195|176:183|176:183|164:187,1,175
144,124,141627,2,0,P|184:64|264:60,1,150
300,72,142096,1,0,0:0:0:0:
412,72,142330,1,0,0:0:0:0:
416,192,142565,5,0,0:0:0:0:
300,192,142799,2,0,L|240:192,1,50,0|0,2:0|2:0,2:0:0:0:
248,56,143150,1,0,0:0:0:0:
250,192,143385,2,0,L|252:264,1,50,0|0,2:0|2:0,2:0:0:0:
372,188,143736,2,0,L|396:188,2,25
260,192,143971,1,0,0:0:0:0:
372,188,144205,1,0,0:0:0:0:
377,56,144440,1,0,0:0:0:0:
120,168,144908,1,0,0:0:0:0:
220,160,145143,6,0,L|220:92,1,50,0|0,2:0|2:0,2:0:0:0:
304,168,145377,2,0,L|372:168,1,50,0|0,2:0|2:0,2:0:0:0:
296,264,145611,2,0,L|296:328,1,50,0|0,2:0|2:0,2:0:0:0:
188,250,145846,1,0,2:0:0:0:
104,84,149830,6,0,L|136:84,2,25,0|0|0,1:0|1:0|1:0,1:0:0:0:
220,84,150065,1,0,0:0:0:0:
176,176,150299,1,0,0:3:0:0:
287,87,150534,1,0,0:0:0:0:
216,229,150768,1,0,0:3:0:0:
355,93,151002,1,0,0:0:0:0:
257,283,151236,1,0,0:3:0:0:
427,105,151471,1,0,0:0:0:0:
307,338,151705,5,0,0:3:0:0:
256,80,152174,1,0,0:0:0:0:
120,276,152643,1,0,0:0:0:0:
356,276,153111,2,0,L|380:276,2,25,0|0|0,1:0|1:0|1:0,1:0:0:0:
220,276,153346,1,0,0:0:0:0:
356,276,153580,1,0,0:0:0:0:
296,136,153815,6,0,L|296:32,1,100,0|0,1:0|0:0,0:0:0:0:
216,296,154283,2,0,L|216:184,1,100
152,132,154752,2,0,L|152:32,1,100,0|0,1:0|0:0,0:0:0:0:
72,292,155221,2,0,L|72:188,1,100
152,132,155690,5,0,0:0:0:0:
216,296,155924,1,0,0:0:0:0:
296,136,156159,1,0,0:0:0:0:
368,304,156393,1,0,0:0:0:0:
256,96,156861,1,0,0:0:0:0:
196,200,157096,1,0,0:0:0:0:
136,96,157330,2,0,L|136:64,2,25,0|0|0,1:0|1:0|1:0,1:0:0:0:
196,200,157565,5,0,0:0:0:0:
256,96,157799,1,0,0:0:0:0:
196,200,158033,2,0,P|180:244|200:296,1,100,0|0,1:0|1:0,1:0:0:0:
268,120,158502,2,0,P|284:76|264:24,1,100,0|0,1:0|1:0,1:0:0:0:
344,192,158971,1,0,0:0:0:0:
276,296,159205,1,0,0:0:0:0:
92,124,159674,5,0,0:0:0:0:
180,32,159908,1,0,0:0:0:0:
204,276,160143,1,0,0:0:0:0:
292,184,160377,1,0,0:0:0:0:
204,276,160611,2,0,L|172:276,2,25,0|0|0,1:0|1:0|1:0,1:0:0:0:
292,184,160846,1,0,0:0:0:0:
84,188,161315,6,0,P|123:98|232:76,1,200,0|4,2:0|2:3,2:0:0:0:
364,96,162135,2,0,L|428:120,1,50,0|0,2:0|2:0,2:0:0:0:
404,232,162486,1,0,0:0:0:0:
164,232,162955,1,0,0:0:0:0:
360,100,163424,2,0,L|440:24,1,100,0|2,2:1|2:1,2:1:0:0:
412,204,163893,1,0,0:0:0:0:
224,204,164127,2,0,L|152:272,2,100,0|0|0,2:0|2:0|2:0,2:0:0:0:
72,56,165065,6,0,L|88:56,8,12.5
144,116,165533,1,0,0:0:0:0:
308,192,165885,2,0,L|360:192,2,50
248,196,166236,2,0,P|184:272|244:324,1,200,0|0,2:0|2:0,2:0:0:0:
440,312,167174,1,0,0:0:0:0:
436,72,167643,2,0,L|384:72,2,50
436,204,168111,2,0,L|464:204,2,25,0|0|0,1:0|1:0|1:0,1:0:0:0:
440,72,168346,1,0,0:0:0:0:
436,204,168580,1,0,0:0:0:0:
328,204,168815,5,0,0:0:0:0:
280,312,169049,1,0,0:0:0:0:
176,168,169283,1,0,0:0:0:0:
280,312,169518,1,0,0:0:0:0:
232,204,169752,5,0,0:0:0:0:
280,312,169986,1,0,0:0:0:0:
384,168,170220,1,0,0:0:0:0:
280,312,170455,1,0,0:0:0:0:
276,176,170690,6,0,L|211:254,1,100,8|0,1:0|1:0,1:0:0:0:
220,136,171158,2,0,L|150:216,1,100,8|0,1:2|1:0,1:0:0:0:
282,292,171627,2,0,L|352:200,1,100,8|0,1:0|1:0,1:0:0:0:
336,336,172096,2,0,L|408:240,1,100,8|0,2:0|1:0,1:0:0:0:
190,277,172565,5,0,0:0:0:0:
251,93,172799,1,0,0:0:0:0:
300,286,173033,1,0,0:0:0:0:
169,117,173268,1,0,0:0:0:0:
357,208,173502,1,0,0:0:0:0:
148,203,173736,1,0,0:0:0:0:
337,126,173971,1,0,0:0:0:0:
190,277,174205,1,0,0:0:0:0:
256,96,174440,5,0,0:0:0:0:
256,204,174674,1,0,0:0:0:0:
256,324,175143,1,0,0:0:0:0:
256,204,175377,1,0,0:0:0:0:
256,84,175611,2,0,L|256:48,2,25,0|0|0,1:0|1:0|1:0,1:0:0:0:
256,240,175846,1,0,0:0:0:0:
112,108,176315,5,0,0:0:0:0:
136,232,176549,1,0,0:0:0:0:
272,72,176783,2,0,L|232:220,1,150
296,220,177252,1,0,0:0:0:0:
352,108,177486,1,0,0:0:0:0:
404,224,177721,1,0,0:0:0:0:
248,96,177955,6,0,P|197:140|187:187,1,100,0|0,1:0|1:0,1:0:0:0:
378,303,178423,2,0,P|412:274|424:212,1,100,0|0,1:0|1:0,1:0:0:0:
364,136,178893,1,0,0:0:0:0:
240,132,179127,1,0,0:0:0:0:
364,136,179361,1,0,0:0:0:0:
364,264,179596,1,0,0:0:0:0:
364,136,179830,2,0,L|364:88,2,25,0|0|0,1:0|1:0|1:0,1:0:0:0:
216,136,180065,6,0,P|186:207|162:134,1,200,0|0,1:0|1:0,1:0:0:0:
348,132,180885,2,0,L|412:132,1,50
280,185,181236,1,0,0:0:0:0:
259,274,181471,1,0,0:0:0:0:
194,211,181705,1,0,0:0:0:0:
306,155,181940,5,0,0:0:0:0:
270,307,182175,1,0,0:0:0:0:
160,200,182409,1,0,0:0:0:0:
306,155,182643,6,0,L|306:87,1,50,0|0,2:0|2:0,2:0:0:0:
390,163,182877,2,0,L|458:163,1,50,0|0,2:0|2:0,2:0:0:0:
382,259,183111,2,0,L|382:323,1,50,0|0,2:0|2:0,2:0:0:0:
274,245,183346,1,0,2:0:0:0:
277,141,183580,1,0,0:0:0:0:
160,108,183815,6,0,L|182:205,1,100
112,80,184283,2,0,L|46:221,1,150
64,288,184752,2,0,L|172:288,2,100
212,196,185455,5,0,0:0:0:0:
292,71,185690,1,0,0:0:0:0:
148,174,185924,1,0,0:0:0:0:
323,123,186158,1,0,0:0:0:0:
126,123,186393,1,0,0:0:0:0:
318,199,186627,1,0,0:0:0:0:
152,68,186861,1,0,0:0:0:0:
272,249,187096,1,0,0:0:0:0:
148,65,187330,2,0,L|132:44,2,25
224,176,187565,6,0,P|248:249|277:177,1,200,0|0,1:0|1:0,1:0:0:0:
420,176,188268,2,0,L|472:176,2,50
293,176,188736,1,0,0:0:0:0:
240,300,188971,1,0,0:0:0:0:
156,160,189205,5,0,0:0:0:0:
352,160,189440,1,0,0:0:0:0:
256,64,189674,1,0,0:0:0:0:
256,248,189908,1,0,0:0:0:0:
144,156,190143,6,0,L|200:156,1,50
366,156,190377,2,0,L|312:156,1,50
256,49,190611,2,0,L|256:24,2,25,0|0|0,1:0|1:0|1:0,1:0:0:0:
258,255,190846,1,0,0:0:0:0:
256,136,191080,1,0,0:0:0:0:
258,253,191315,5,0,0:0:0:0:
412,56,191783,1,0,0:0:0:0:
284,56,192018,2,0,L|224:56,2,50,0|0|0,2:0|2:0|2:0,2:0:0:0:
212,160,192486,1,0,0:0:0:0:
340,160,192721,1,0,0:0:0:0:
396,72,192955,5,0,0:0:0:0:
256,268,193424,1,0,0:0:0:0:
116,72,193893,1,0,0:0:0:0:
292,172,194127,1,0,0:0:0:0:
256,196,194244,1,0,0:0:0:0:
220,172,194361,1,0,0:0:0:0:
256,56,194596,1,0,0:0:0:0:
