osu file format v14

[General]
AudioFilename: audio.mp3
AudioLeadIn: 0
PreviewTime: 71682
Countdown: 1
SampleSet: None
StackLeniency: 0.4
Mode: 0
LetterboxInBreaks: 0
WidescreenStoryboard: 0

[Editor]
DistanceSpacing: 1.2
BeatDivisor: 2
GridSize: 8
TimelineZoom: 2.7

[Metadata]
Title:Brain Revolution Girl
TitleUnicode:Brain Revolution Girl
Artist:Reol
ArtistUnicode:Reol
Creator:WalterandAaron
Version:Revolution
Source:Soundcloud
Tags:Vocaloid
BeatmapID:1866878
BeatmapSetID:893228

[Difficulty]
HPDrainRate:6
CircleSize:5
OverallDifficulty:9
ApproachRate:8
SliderMultiplier:1.4
SliderTickRate:1

[Events]
//Background and Video events
Video,0,"れをる 脳内革命ガール ill.bell.mp4"
0,0,"https_%2F%2Fimages.genius.com%2Fa0797daa8c3c0549b394f3e83a03d727.1000x472x1.jpg",0,0
//Break Periods
2,107382,115369
2,131882,147432
2,183382,191432
//Storyboard Layer 0 (Background)
//Storyboard Layer 1 (Fail)
//Storyboard Layer 2 (Pass)
//Storyboard Layer 3 (Foreground)
//Storyboard Sound Samples

[TimingPoints]
182,250,4,2,0,31,1,0
8183,-100,4,1,0,75,0,0
16182,-100,4,1,0,100,0,0
24182,-100,4,3,0,100,0,0
31432,-100,4,2,0,100,0,0
48182,-100,4,2,0,100,0,0
63932,-166.666666666667,4,2,0,100,0,0
71682,-50,4,1,0,100,0,0
72182,-66.6666666666667,4,1,0,100,0,0
88182,-100,4,3,0,100,0,0
92182,-133.333333333333,4,2,0,70,0,0
116182,-133.333333333333,4,1,0,100,0,0
124182,-133.333333333333,4,2,0,100,0,0
148182,-200,4,2,0,70,0,0
156182,-100,4,2,0,80,0,0
164182,-50,4,3,0,100,0,0
192182,-100,4,1,0,100,0,0
200182,-100,4,1,0,75,0,0

[HitObjects]
256,48,182,6,0,L|256:192,1,140
344,288,682,2,0,P|296:208|240:192,1,140
167,288,1182,2,0,P|195:225|256:193,2,140
168,288,1932,1,0,0:0:0:0:
256,192,2182,1,0,0:0:0:0:
256,48,2432,1,0,0:0:0:0:
256,192,2682,1,0,0:0:0:0:
256,336,2932,1,0,0:0:0:0:
256,192,3182,2,0,P|200:128|120:128,2,140
256,192,3932,1,8,0:0:0:0:
256,192,4182,5,8,0:0:0:0:
363,120,4432,2,0,P|296:136|256:192,2,140
256,336,5182,1,0,0:0:0:0:
256,192,5432,1,0,0:0:0:0:
256,48,5682,1,0,0:0:0:0:
256,192,5932,1,0,0:0:0:0:
344,288,6182,1,0,0:0:0:0:
256,193,6432,2,0,P|317:225|345:288,2,140
256,193,7182,2,0,P|195:225|168:288,1,140
256,188,7682,2,0,L|256:48,1,140
96,288,8182,5,0,0:0:0:0:
256,48,8432,1,0,0:0:0:0:
400,304,8682,1,0,0:0:0:0:
256,48,8932,1,0,0:0:0:0:
96,288,9182,1,0,0:0:0:0:
256,48,9432,1,0,0:0:0:0:
400,304,9682,1,0,0:0:0:0:
256,48,9932,1,0,0:0:0:0:
104,48,10182,5,0,0:0:0:0:
256,192,10432,1,0,0:0:0:0:
408,304,10682,1,0,0:0:0:0:
256,192,10932,1,0,0:0:0:0:
256,40,11182,1,0,0:0:0:0:
256,192,11432,1,0,0:0:0:0:
256,312,11682,1,0,0:0:0:0:
256,192,11932,1,0,0:0:0:0:
256,40,12182,5,0,0:0:0:0:
432,192,12432,1,0,0:0:0:0:
256,352,12682,1,0,0:0:0:0:
72,192,12932,1,0,0:0:0:0:
432,64,13182,5,0,0:0:0:0:
112,72,13432,1,0,0:0:0:0:
112,312,13682,5,0,0:0:0:0:
432,320,13932,1,0,0:0:0:0:
256,48,14182,5,0,0:0:0:0:
168,280,14432,1,0,0:0:0:0:
384,120,14682,1,0,0:0:0:0:
160,120,14932,1,0,0:0:0:0:
360,280,15182,1,0,0:0:0:0:
160,120,15432,1,0,0:0:0:0:
384,120,15682,1,0,0:0:0:0:
168,280,15932,1,0,0:0:0:0:
264,32,16182,5,0,0:0:0:0:
296,56,16307,1,0,0:0:0:0:
160,112,16557,1,0,0:0:0:0:
192,96,16682,1,0,0:0:0:0:
232,88,16807,1,0,0:0:0:0:
272,112,16932,1,0,0:0:0:0:
304,136,17057,1,0,0:0:0:0:
256,192,17432,1,0,0:0:0:0:
288,176,17557,1,0,0:0:0:0:
328,168,17682,1,0,0:0:0:0:
368,192,17807,1,0,0:0:0:0:
400,216,17932,1,0,0:0:0:0:
368,240,18057,1,0,0:0:0:0:
344,264,18182,5,0,0:0:0:0:
312,288,18307,1,0,0:0:0:0:
168,200,18557,1,0,0:0:0:0:
200,184,18682,1,0,0:0:0:0:
240,176,18807,1,0,0:0:0:0:
280,200,18932,1,0,0:0:0:0:
312,224,19057,1,0,0:0:0:0:
256,56,19432,5,8,0:0:0:0:
256,56,19494,1,8,0:0:0:0:
256,56,19557,1,8,0:0:0:0:
256,56,19682,2,0,P|256:112|232:144,1,70
192,128,19932,2,0,P|184:168|200:208,1,70
168,120,20182,2,0,P|120:160|64:144,1,70
88,168,20432,2,0,P|64:248|88:264,1,70
72,248,20682,1,0,0:0:0:0:
152,240,20807,1,0,0:0:0:0:
248,200,20932,2,0,P|272:160|336:160,1,70
304,208,21182,2,0,L|376:240,1,70
400,192,21432,2,0,P|424:240|384:272,2,70
400,192,21807,1,0,0:0:0:0:
400,192,21932,1,0,0:0:0:0:
328,200,22182,2,0,P|264:248|176:200,1,140
302,146,22682,2,0,P|234:138|184:184,1,140
256,192,23182,1,0,0:0:0:0:
256,48,24182,6,0,P|192:72|176:120,1,70
240,104,24432,2,0,P|280:128|320:96,1,70
288,72,24682,2,0,L|312:144,3,70
256,160,25182,2,0,P|304:216|312:208,1,70
304,176,25432,2,0,L|392:176,1,70
392,120,25682,2,0,L|448:176,3,70
424,248,26182,5,0,0:0:0:0:
376,272,26307,1,0,0:0:0:0:
392,208,26432,1,0,0:0:0:0:
344,232,26557,1,0,0:0:0:0:
344,232,26682,2,0,P|272:264|200:240,1,140
256,192,27182,1,0,0:0:0:0:
312,80,27432,1,0,0:0:0:0:
392,192,27682,1,0,0:0:0:0:
256,192,27932,6,0,L|224:168,2,35
360,248,28182,1,0,0:0:0:0:
152,136,28682,6,0,L|120:112,2,35
256,192,28932,1,0,0:0:0:0:
359,247,29182,6,0,L|387:268,2,35
256,192,29432,1,0,0:0:0:0:
256,192,29932,5,0,0:0:0:0:
256,192,30057,1,0,0:0:0:0:
256,96,30182,1,8,0:0:0:0:
256,272,30432,1,8,0:0:0:0:
256,200,30557,1,0,0:0:0:0:
272,192,30682,2,0,P|320:176|336:128,1,70,8|2,0:0|0:0,0:0:0:0:
312,144,30932,1,8,0:0:0:0:
304,120,31057,2,0,P|368:104|424:144,1,140,8|8,0:0|0:0,0:0:0:0:
352,168,31432,5,14,0:0:0:0:
176,192,31682,1,14,0:0:0:0:
352,232,31932,1,14,0:0:0:0:
256,48,32182,5,0,0:0:0:0:
256,192,32432,1,0,0:0:0:0:
256,352,32682,1,0,0:0:0:0:
256,192,32932,1,0,0:0:0:0:
256,48,33182,1,0,0:0:0:0:
440,40,33432,1,0,0:0:0:0:
256,192,33682,1,0,0:0:0:0:
80,336,33932,1,0,0:0:0:0:
256,192,34182,1,0,0:0:0:0:
256,48,34432,1,0,0:0:0:0:
416,304,34682,1,0,0:0:0:0:
256,192,34932,1,0,0:0:0:0:
256,336,35182,1,0,0:0:0:0:
256,192,35432,1,0,0:0:0:0:
256,48,35682,1,0,0:0:0:0:
128,192,35932,5,0,0:0:0:0:
160,200,36025,1,0,0:0:0:0:
192,216,36088,1,0,0:0:0:0:
256,192,36182,1,8,0:0:0:0:
296,88,36682,5,0,0:0:0:0:
328,120,36775,1,0,0:0:0:0:
336,160,36838,1,0,0:0:0:0:
256,192,36932,1,10,0:0:0:0:
224,224,37182,5,0,0:0:0:0:
256,160,37275,1,0,0:0:0:0:
288,224,37338,1,0,0:0:0:0:
256,192,37432,1,14,0:0:0:0:
256,192,37932,5,0,0:0:0:0:
328,152,38088,1,0,0:0:0:0:
352,104,38182,1,0,0:0:0:0:
256,192,38432,1,0,0:0:0:0:
152,272,38682,1,0,0:0:0:0:
256,192,38932,1,0,0:0:0:0:
256,80,39182,1,0,0:0:0:0:
256,192,39432,1,0,0:0:0:0:
256,304,39682,1,0,0:0:0:0:
256,192,39932,1,0,0:0:0:0:
256,192,40182,12,0,42182,0:0:0:0:
256,72,42682,6,0,P|312:112|312:192,1,140
256,192,43182,2,0,P|144:184|160:128,1,140
208,176,43682,1,0,0:0:0:0:
256,72,43932,1,0,0:0:0:0:
256,312,44182,6,0,P|344:288|280:64,1,280
256,192,44932,1,0,0:0:0:0:
256,40,45182,6,0,P|128:104|88:240,1,280
256,192,45932,1,0,0:0:0:0:
256,96,46182,1,0,0:0:0:0:
256,192,46432,1,0,0:0:0:0:
256,136,46682,1,0,0:0:0:0:
256,192,46932,1,0,0:0:0:0:
256,192,47182,1,0,0:0:0:0:
256,72,48182,6,0,P|312:96|328:128,1,70
256,128,48432,2,0,L|256:200,1,70
256,256,48682,2,0,P|208:240|192:184,3,70
168,176,49182,1,0,0:0:0:0:
176,112,49307,1,0,0:0:0:0:
224,56,49432,1,0,0:0:0:0:
296,64,49557,1,0,0:0:0:0:
360,96,49682,2,0,L|352:192,3,70
304,256,50182,2,0,L|224:240,1,70
312,200,50432,2,0,L|384:176,1,70
296,144,50682,2,0,L|224:96,1,70
312,88,50932,2,0,L|360:16,1,70
304,144,51182,2,0,L|304:240,1,70
304,272,51432,2,0,L|304:360,1,70
304,224,51682,2,0,L|248:166,1,70
256,192,51932,6,0,L|208:192,2,46.6666666666667
288,144,52182,1,0,0:0:0:0:
256,256,52682,6,0,L|304:208,1,46.6666666666667
288,223,52838,1,0,0:0:0:0:
256,192,52932,1,0,0:0:0:0:
256,192,53182,6,0,L|296:160,2,46.6666666666667
256,192,53432,1,0,0:0:0:0:
256,192,53932,5,0,0:0:0:0:
256,192,54057,1,0,0:0:0:0:
288,176,54182,2,0,P|320:144|296:144,1,70
200,96,54557,1,0,0:0:0:0:
160,144,54682,1,0,0:0:0:0:
304,144,54932,1,0,0:0:0:0:
256,192,55057,1,0,0:0:0:0:
120,80,55432,5,0,0:0:0:0:
392,80,55682,1,0,0:0:0:0:
392,304,55932,1,0,0:0:0:0:
112,304,56182,2,0,P|112:232|184:176,1,140
96,192,56682,2,0,L|264:192,1,140
160,256,57182,1,0,0:0:0:0:
416,272,57432,1,0,0:0:0:0:
256,56,57682,1,0,0:0:0:0:
256,192,57932,1,0,0:0:0:0:
256,80,58182,2,0,P|296:120|304:144,1,70
240,144,58432,2,0,L|240:224,1,70
184,256,58682,2,0,B|248:312|288:256|328:304,2,140
256,192,59432,1,0,0:0:0:0:
256,176,59557,1,0,0:0:0:0:
256,168,59682,1,0,0:0:0:0:
192,176,59932,6,0,P|192:224|208:264,2,46.6666666666667
256,192,60182,1,0,0:0:0:0:
288,128,60682,5,0,0:0:0:0:
312,152,60775,1,0,0:0:0:0:
328,192,60838,1,0,0:0:0:0:
256,192,60932,1,0,0:0:0:0:
224,192,61182,5,0,0:0:0:0:
248,168,61275,1,0,0:0:0:0:
272,176,61338,1,0,0:0:0:0:
256,192,61432,1,0,0:0:0:0:
256,192,61932,5,0,0:0:0:0:
256,64,62182,1,0,0:0:0:0:
408,320,62432,1,0,0:0:0:0:
96,328,62682,1,0,0:0:0:0:
256,48,62932,1,0,0:0:0:0:
256,192,63432,1,0,0:0:0:0:
256,192,63682,1,0,0:0:0:0:
256,88,64182,6,0,B|216:152|216:152|272:160|328:112,1,167.999994873047
256,192,64932,1,0,0:0:0:0:
256,192,65182,2,0,P|200:232|200:256,2,83.9999974365235
344,96,65932,1,0,0:0:0:0:
392,120,66182,2,0,P|400:144|360:192,1,83.9999974365235
256,192,66557,1,0,0:0:0:0:
328,112,66932,1,0,0:0:0:0:
256,128,67432,2,0,B|216:184|272:192|272:192|320:128|328:192,1,167.999994873047
256,64,68182,5,0,0:0:0:0:
256,296,68432,1,0,0:0:0:0:
344,184,68682,1,0,0:0:0:0:
160,184,68932,1,0,0:0:0:0:
320,312,69182,1,0,0:0:0:0:
360,96,69432,1,0,0:0:0:0:
136,240,69682,1,0,0:0:0:0:
192,72,69932,1,0,0:0:0:0:
256,32,70182,5,8,0:0:0:0:
88,192,70432,1,8,0:0:0:0:
256,336,70682,1,8,0:0:0:0:
432,192,70932,1,8,0:0:0:0:
256,192,71182,1,8,0:0:0:0:
208,32,71682,6,0,B|208:88|208:88|160:128|224:184|224:184|304:168|320:216|320:216|248:280|248:280|248:320,1,420
256,192,72182,6,0,P|168:232|136:264,1,105.000004005432
256,256,72432,2,0,P|312:232|336:192,1,105.000004005432
304,112,72682,1,0,0:0:0:0:
176,104,72848,1,0,0:0:0:0:
256,192,72932,1,8,0:0:0:0:
256,192,73057,1,8,0:0:0:0:
256,64,73182,2,0,L|368:72,1,105.000004005432
360,120,73432,2,0,L|256:192,1,105.000004005432
232,208,73682,2,0,L|184:104,1,105.000004005432
240,104,73932,2,0,L|368:104,1,105.000004005432
256,192,74182,1,0,0:0:0:0:
256,192,74307,1,0,0:0:0:0:
160,192,74432,2,0,P|136:144|192:96,1,105.000004005432
360,96,74682,5,8,0:0:0:0:
384,240,74848,1,8,0:0:0:0:
256,192,75015,1,8,0:0:0:0:
256,192,75182,6,0,L|248:48,1,105.000004005432
304,136,75432,2,0,L|440:128,1,105.000004005432
360,184,75682,2,0,L|360:296,1,105.000004005432
304,224,75932,2,0,L|160:224,1,105.000004005432
256,80,76182,6,0,B|280:112|312:88|360:144,1,105.000004005432
280,160,76432,2,0,B|176:160|160:208|160:208|280:224,2,210.000008010865
280,160,77057,1,0,0:0:0:0:
280,160,77182,2,0,P|328:160|312:240,1,105.000004005432
296,208,77432,2,0,P|216:264|192:240,1,105.000004005432
240,216,77682,2,0,P|136:216|128:168,1,105.000004005432
200,160,77932,2,0,P|103:103|127:62,1,105.000004005432,0|0,3:3|3:3,3:3:0:0:
168,112,78182,5,0,0:0:0:0:
176,88,78275,1,0,0:0:0:0:
208,80,78338,1,0,0:0:0:0:
232,88,78432,1,0,0:0:0:0:
240,112,78525,1,0,0:0:0:0:
240,144,78588,1,0,0:0:0:0:
224,168,78682,1,0,0:0:0:0:
168,272,78932,1,0,0:0:0:0:
248,192,79182,1,0,0:0:0:0:
376,128,79432,5,0,0:0:0:0:
192,104,79682,1,0,0:0:0:0:
320,280,79932,1,0,0:0:0:0:
256,112,80182,6,0,B|192:112|112:176|152:176|176:232,1,105.000004005432
184,216,80432,1,0,0:0:0:0:
272,216,80557,1,0,0:0:0:0:
320,160,80682,2,0,P|384:224|384:256,1,105.000004005432
360,288,80932,1,0,0:0:0:0:
264,296,81057,1,0,0:0:0:0:
176,280,81182,2,0,B|120:248|160:144|184:168,1,140.000005340576
224,208,81432,2,0,B|272:224|336:120|280:104,1,140.000005340576
248,80,81682,2,0,P|176:112|144:184,1,140.000005340576
112,240,81932,2,0,L|272:352,1,140.000005340576
256,88,82182,6,0,B|336:120|368:184|352:224,1,105.000004005432
272,168,82432,2,0,B|208:176|232:248|280:240,1,105.000004005432
320,200,82682,6,0,L|480:216,2,140.000005340576
144,88,83182,5,0,0:0:0:0:
376,80,83432,1,0,0:0:0:0:
256,56,83682,6,0,L|184:144,1,105.000004005432
240,176,83932,2,0,L|312:88,1,105.000004005432
360,136,84182,6,0,L|272:256,3,105.000004005432
256,168,84682,2,0,L|168:288,3,105.000004005432
128,240,85182,2,0,B|136:320|208:336|248:280,1,105.000004005432
240,352,85432,2,0,P|296:320|288:240,1,105.000004005432
312,240,85682,2,0,L|312:120,1,105.000004005432
248,240,85932,2,0,L|248:112,1,105.000004005432
256,64,86182,6,0,L|376:64,1,105.000004005432
376,144,86432,2,0,L|256:120,1,105.000004005432
368,216,86682,2,0,L|264:160,1,105.000004005432
312,272,86932,2,0,L|264:168,1,105.000004005432
256,192,87182,12,0,87932,0:0:0:0:
256,192,88182,6,0,P|160:176|144:112,1,140
192,144,88682,2,0,P|240:96|296:96,3,70
400,64,89182,1,0,0:0:0:0:
400,248,89432,1,0,0:0:0:0:
256,192,89682,1,0,0:0:0:0:
256,56,89932,1,0,0:0:0:0:
256,192,90182,12,0,91182,0:0:0:0:
256,64,91432,5,0,0:0:0:0:
256,192,91682,1,0,0:0:0:0:
256,192,91932,1,8,0:0:0:0:
120,288,92182,5,0,0:0:0:0:
256,48,92432,1,0,0:0:0:0:
376,288,92682,1,0,0:0:0:0:
256,48,92932,1,0,0:0:0:0:
120,288,93182,1,0,0:0:0:0:
256,48,93432,1,0,0:0:0:0:
376,288,93682,1,0,0:0:0:0:
256,48,93932,1,0,0:0:0:0:
112,48,94182,5,0,0:0:0:0:
400,48,94432,1,0,0:0:0:0:
408,304,94682,1,0,0:0:0:0:
104,304,94932,1,0,0:0:0:0:
256,56,95182,5,0,0:0:0:0:
368,264,95432,1,0,0:0:0:0:
152,136,95682,1,0,0:0:0:0:
360,136,95932,1,0,0:0:0:0:
120,288,96182,5,0,0:0:0:0:
256,48,96432,1,0,0:0:0:0:
376,288,96682,1,0,0:0:0:0:
256,48,96932,1,0,0:0:0:0:
120,288,97182,1,0,0:0:0:0:
256,48,97432,1,0,0:0:0:0:
376,288,97682,1,0,0:0:0:0:
256,48,97932,1,0,0:0:0:0:
256,192,98182,12,0,99182,0:0:0:0:
128,80,100182,5,0,0:0:0:0:
384,80,100432,1,0,0:0:0:0:
312,144,100682,1,0,0:0:0:0:
256,192,100807,1,0,0:0:0:0:
200,240,100932,1,0,0:0:0:0:
256,136,101182,1,0,0:0:0:0:
256,192,101307,1,0,0:0:0:0:
256,248,101432,1,0,0:0:0:0:
256,192,101682,1,8,0:0:0:0:
256,192,101807,1,8,0:0:0:0:
256,88,102182,6,0,P|184:104|168:120,1,52.5000020027161
200,168,102432,2,0,P|225:174|251:172,1,52.5000020027161
368,120,102682,2,0,P|296:136|280:152,1,52.5000020027161
312,200,102932,2,0,P|337:206|363:204,1,52.5000020027161
440,144,103182,1,0,0:0:0:0:
425,94,103307,1,0,0:0:0:0:
389,57,103432,1,0,0:0:0:0:
339,43,103557,1,0,0:0:0:0:
288,55,103682,1,0,0:0:0:0:
248,96,103807,1,0,0:0:0:0:
256,96,104182,6,0,L|200:96,3,52.5000020027161
256,288,104682,6,0,L|312:288,3,52.5000020027161
182,235,105182,1,0,0:0:0:0:
212,118,105307,1,0,0:0:0:0:
329,148,105432,1,0,0:0:0:0:
299,265,105557,1,0,0:0:0:0:
299,265,105682,1,0,0:0:0:0:
329,148,105807,1,0,0:0:0:0:
212,118,105932,1,0,0:0:0:0:
182,235,106057,1,0,0:0:0:0:
256,192,106182,2,0,L|184:192,3,52.5000020027161
256,136,106682,2,0,L|336:136,3,52.5000020027161
256,192,107182,5,10,0:0:0:0:
256,72,116119,5,0,0:0:0:0:
256,96,116182,2,0,P|200:96|192:96,2,52.5000020027161
272,216,116619,1,0,0:0:0:0:
288,232,116682,2,0,L|328:192,2,52.5000020027161
152,192,117119,1,0,0:0:0:0:
176,184,117182,2,0,L|176:128,2,52.5000020027161
256,192,117682,5,10,0:0:0:0:
256,64,117932,5,0,0:0:0:0:
256,160,118182,1,0,0:0:0:0:
256,200,118307,2,0,L|184:200,1,52.5000020027161
192,168,118557,1,0,0:0:0:0:
168,136,118682,1,0,0:0:0:0:
184,96,118807,1,0,0:0:0:0:
224,72,118932,1,0,0:0:0:0:
272,80,119057,1,0,0:0:0:0:
304,112,119182,2,0,P|352:120|376:112,1,52.5000020027161
296,168,119432,2,0,P|256:192|240:192,1,52.5000020027161
251,192,119682,5,10,0:0:0:0:
256,96,119932,6,0,B|224:96|208:104|216:120,2,35.0000013351441
304,120,120182,1,0,0:0:0:0:
256,144,120682,5,0,0:0:0:0:
232,168,120765,1,0,0:0:0:0:
216,200,120848,1,0,0:0:0:0:
224,232,120932,1,0,0:0:0:0:
256,136,121182,6,0,P|208:136|200:144,5,35.0000013351441
184,152,121682,1,0,0:0:0:0:
256,88,124182,6,0,P|320:112|384:120,1,105.000004005432
256,192,124682,2,0,L|192:208,1,52.5000020027161
256,248,124932,2,0,L|320:264,1,52.5000020027161
256,64,125182,1,0,0:0:0:0:
128,280,125432,1,0,0:0:0:0:
392,280,125682,2,0,L|456:280,1,52.5000020027161
256,64,125932,2,0,L|256:8,1,52.5000020027161
152,224,126182,6,0,L|72:232,3,52.5000020027161
256,280,126682,2,0,L|320:280,3,52.5000020027161
256,40,127182,1,0,0:0:0:0:
120,272,127432,1,0,0:0:0:0:
384,272,127682,1,0,0:0:0:0:
384,272,127807,1,0,0:0:0:0:
392,184,127932,5,0,0:0:0:0:
120,184,128182,1,0,0:0:0:0:
384,232,128432,1,0,0:0:0:0:
144,128,128682,1,0,0:0:0:0:
272,280,128932,1,0,0:0:0:0:
248,48,129182,1,0,0:0:0:0:
256,336,129432,1,0,0:0:0:0:
256,48,129682,1,0,0:0:0:0:
256,56,130181,5,0,0:0:0:0:
256,72,130265,1,0,0:0:0:0:
256,96,130348,1,0,0:0:0:0:
256,120,130431,1,0,0:0:0:0:
256,144,130515,1,0,0:0:0:0:
256,168,130598,1,0,0:0:0:0:
256,200,130681,1,0,0:0:0:0:
256,224,130765,1,0,0:0:0:0:
256,256,130848,1,0,0:0:0:0:
256,288,130931,1,0,0:0:0:0:
256,352,131182,1,0,0:0:0:0:
104,80,131432,5,14,0:0:0:0:
400,304,131682,1,14,0:0:0:0:
256,80,148182,5,0,0:0:0:0:
256,80,148432,2,0,P|272:112|232:224,1,140
400,192,149182,5,0,0:0:0:0:
400,192,149432,2,0,P|320:208|248:192,1,140
256,304,150182,5,0,0:0:0:0:
256,304,150432,2,0,P|240:272|280:160,1,140
112,192,151182,5,0,0:0:0:0:
112,192,151432,2,0,P|192:176|264:192,1,140
144,264,152182,5,0,0:0:0:0:
144,264,152432,2,0,P|224:248|296:264,1,140
168,320,153182,5,0,0:0:0:0:
168,320,153432,2,0,P|248:304|320:320,1,140
296,152,154182,5,0,0:0:0:0:
256,192,154307,1,0,0:0:0:0:
216,224,154431,1,0,0:0:0:0:
176,256,154557,1,0,0:0:0:0:
144,280,154682,1,0,0:0:0:0:
392,96,154932,1,0,0:0:0:0:
256,80,155182,5,0,0:0:0:0:
256,120,155307,1,0,0:0:0:0:
256,168,155432,1,0,0:0:0:0:
256,224,155557,1,0,0:0:0:0:
256,280,155682,1,0,0:0:0:0:
256,40,155932,1,0,0:0:0:0:
256,192,156182,5,0,0:0:0:0:
376,272,156557,1,0,0:0:0:0:
384,248,156682,1,0,0:0:0:0:
96,144,157057,1,0,0:0:0:0:
112,112,157182,1,0,0:0:0:0:
256,192,157432,1,0,0:0:0:0:
256,48,157682,2,0,P|320:72|352:168,1,140
272,128,158182,2,0,P|296:200|368:232,1,140
256,192,158682,1,0,0:0:0:0:
184,304,158848,1,0,0:0:0:0:
64,240,159015,1,0,0:0:0:0:
136,120,159182,1,0,0:0:0:0:
256,192,159432,2,0,P|320:192|392:144,1,140
256,64,160432,5,0,0:0:0:0:
240,128,160598,1,0,0:0:0:0:
216,152,160682,1,0,0:0:0:0:
280,224,160848,1,0,0:0:0:0:
312,232,160932,1,0,0:0:0:0:
256,64,161182,5,0,0:0:0:0:
136,192,161432,1,0,0:0:0:0:
256,296,161682,1,0,0:0:0:0:
384,192,161932,1,0,0:0:0:0:
256,192,162182,12,0,163932,0:0:0:0:
256,56,164182,6,0,B|136:112|96:296|176:248,1,280
337,134,164682,2,0,B|416:88|376:272|256:328,1,280
152,272,165057,1,0,0:0:0:0:
136,232,165182,1,0,0:0:0:0:
256,192,165432,1,0,0:0:0:0:
128,136,165682,2,0,B|288:112|432:160|360:176,1,280
156,200,166182,2,0,B|87:215|231:263|391:239,1,280
256,72,166682,5,14,0:0:0:0:
160,256,166848,1,14,0:0:0:0:
368,256,167015,1,14,0:0:0:0:
224,168,167182,2,14,L|224:312,1,140
280,168,167432,2,0,L|104:168,1,140
280,224,167682,2,0,L|280:56,1,140
224,224,167932,2,0,L|400:224,1,140
256,192,168432,5,0,0:0:0:0:
288,208,168557,1,0,0:0:0:0:
328,192,168682,1,0,0:0:0:0:
352,160,168807,1,0,0:0:0:0:
360,112,168932,1,0,0:0:0:0:
336,72,169057,1,0,0:0:0:0:
304,64,169182,2,0,P|176:136|176:280,3,280
256,40,170182,5,0,0:0:0:0:
256,80,170265,1,0,0:0:0:0:
256,128,170348,1,0,0:0:0:0:
256,176,170432,1,0,0:0:0:0:
256,224,170515,1,0,0:0:0:0:
256,272,170598,1,0,0:0:0:0:
256,320,170682,1,0,0:0:0:0:
80,192,170932,1,0,0:0:0:0:
408,192,171182,1,0,0:0:0:0:
256,48,171432,1,0,0:0:0:0:
256,328,171682,1,0,0:0:0:0:
136,104,172182,5,0,0:0:0:0:
256,192,172598,1,0,0:0:0:0:
280,168,172682,1,0,0:0:0:0:
56,80,173098,1,0,0:0:0:0:
80,48,173182,1,0,0:0:0:0:
256,192,173432,1,0,0:0:0:0:
136,240,173682,2,0,B|288:296|400:240|384:192,1,280
384,136,174182,2,0,B|232:80|120:136|136:184,1,280
256,192,174682,5,8,0:0:0:0:
368,56,174848,1,8,0:0:0:0:
112,56,175015,1,8,0:0:0:0:
256,96,175182,1,0,0:0:0:0:
256,296,175432,1,0,0:0:0:0:
256,56,175682,2,0,P|144:160|192:312,2,280
256,192,176432,5,0,0:0:0:0:
328,144,176598,1,0,0:0:0:0:
328,112,176682,1,0,0:0:0:0:
168,224,176848,1,0,0:0:0:0:
168,264,176932,1,0,0:0:0:0:
312,192,177098,1,0,0:0:0:0:
360,192,177182,1,0,0:0:0:0:
152,192,177432,1,0,0:0:0:0:
256,88,177682,1,0,0:0:0:0:
256,296,177932,1,0,0:0:0:0:
256,192,178432,5,0,0:0:0:0:
184,144,178598,1,0,0:0:0:0:
184,112,178682,1,0,0:0:0:0:
344,224,178848,1,0,0:0:0:0:
344,264,178932,1,0,0:0:0:0:
200,192,179098,1,0,0:0:0:0:
152,192,179182,1,0,0:0:0:0:
360,192,179432,1,0,0:0:0:0:
256,88,179682,1,0,0:0:0:0:
256,296,179932,1,0,0:0:0:0:
256,64,180432,5,0,0:0:0:0:
256,128,180598,2,0,L|192:208,1,93.3333333333333
288,224,180848,2,0,L|408:336,1,93.3333333333333
360,288,181057,1,0,0:0:0:0:
360,288,181182,1,0,0:0:0:0:
256,80,181432,1,0,0:0:0:0:
176,288,181682,1,0,0:0:0:0:
368,152,181932,1,0,0:0:0:0:
256,192,182182,12,0,183182,0:0:0:0:
120,304,192182,5,0,0:0:0:0:
256,64,192432,1,0,0:0:0:0:
376,304,192682,1,0,0:0:0:0:
256,64,192932,1,0,0:0:0:0:
120,304,193182,5,0,0:0:0:0:
256,64,193432,1,0,0:0:0:0:
376,304,193682,1,0,0:0:0:0:
256,64,193932,1,0,0:0:0:0:
120,80,194182,5,0,0:0:0:0:
256,320,194432,1,0,0:0:0:0:
376,80,194682,1,0,0:0:0:0:
256,320,194932,1,0,0:0:0:0:
120,80,195182,5,0,0:0:0:0:
256,320,195432,1,0,0:0:0:0:
376,80,195682,1,0,0:0:0:0:
256,320,195932,1,0,0:0:0:0:
144,56,196182,5,0,0:0:0:0:
384,192,196432,1,0,0:0:0:0:
144,312,196682,1,0,0:0:0:0:
384,192,196932,1,0,0:0:0:0:
368,56,197182,5,0,0:0:0:0:
128,192,197432,1,0,0:0:0:0:
368,312,197682,1,0,0:0:0:0:
128,192,197932,1,0,0:0:0:0:
256,192,198182,12,0,199182,0:0:0:0:
256,40,200182,6,0,L|256:168,1,70
200,128,200432,2,0,P|256:168|296:152,1,70
312,128,200682,2,0,P|256:168|216:152,3,70
256,216,201182,2,0,L|256:304,1,70
256,160,201432,2,0,L|256:56,1,70
256,224,201682,2,0,L|256:320,1,70
256,160,201932,2,0,L|256:56,1,70
216,144,202182,2,0,L|136:144,1,70
304,224,202432,2,0,L|392:224,1,70
144,104,202682,2,0,L|56:104,1,70
368,280,202932,2,0,L|464:280,1,70
96,80,203182,2,0,L|8:80,1,70
424,320,203432,2,0,L|504:320,1,70
256,192,203682,1,0,0:0:0:0:
248,128,203932,6,0,L|200:160,2,46.6666666666667
280,120,204182,1,0,0:0:0:0:
264,256,204682,2,0,L|312:224,2,46.6666666666667
232,264,204932,1,0,0:0:0:0:
216,200,205182,2,0,L|168:232,2,46.6666666666667
248,192,205432,1,0,0:0:0:0:
256,192,205932,2,0,P|168:160|160:128,1,70
256,40,206182,5,14,0:0:0:0:
144,296,206432,1,14,0:0:0:0:
288,296,206557,2,0,L|320:232,1,70
319,233,206807,1,0,0:0:0:0:
256,192,206932,1,0,0:0:0:0:
256,48,207432,5,0,0:0:0:0:
128,312,207682,1,0,0:0:0:0:
408,320,207932,1,0,0:0:0:0:
280,168,208182,6,0,L|280:72,1,70
224,176,208432,2,0,L|112:176,1,70
224,224,208682,2,0,L|224:296,1,70
320,240,208932,2,0,L|408:240,1,70
288,128,209182,6,0,L|288:32,1,70
168,168,209432,2,0,L|56:168,1,70
192,264,209682,2,0,L|192:336,1,70
280,224,209932,2,0,L|368:224,1,70
232,176,210182,2,0,L|232:88,1,70
288,96,210432,2,0,L|288:184,1,70
176,176,210682,2,0,L|176:72,1,70
344,96,210932,2,0,L|344:184,1,70
112,176,211182,2,0,L|112:96,1,70
408,90,211432,2,0,L|408:160,1,70
48,176,211682,2,0,L|48:88,1,70
472,96,211932,2,0,L|472:192,1,70
256,192,212182,5,14,0:0:0:0:
136,40,212682,1,8,0:0:0:0:
176,64,212765,1,8,0:0:0:0:
184,112,212848,1,8,0:0:0:0:
112,96,212932,1,14,0:0:0:0:
368,112,213182,1,0,0:0:0:0:
416,40,213265,1,0,0:0:0:0:
456,112,213348,1,0,0:0:0:0:
416,80,213432,1,14,0:0:0:0:
256,192,213932,5,0,0:0:0:0:
304,128,214098,1,0,0:0:0:0:
320,96,214182,1,0,0:0:0:0:
200,112,214432,1,0,0:0:0:0:
200,256,214682,1,0,0:0:0:0:
312,256,214932,1,0,0:0:0:0:
400,56,215182,1,0,0:0:0:0:
112,56,215432,1,0,0:0:0:0:
112,304,215682,1,0,0:0:0:0:
400,304,215932,1,0,0:0:0:0:
256,192,216182,5,14,0:0:0:0:
