osu file format v14

[General]
AudioFilename: audio.mp3
AudioLeadIn: 0
PreviewTime: 71682
Countdown: 1
SampleSet: Soft
StackLeniency: 0.5
Mode: 0
LetterboxInBreaks: 0
WidescreenStoryboard: 1

[Editor]
DistanceSpacing: 1.2
BeatDivisor: 2
GridSize: 8
TimelineZoom: 2.100001

[Metadata]
Title:Brain Revolution Girl
TitleUnicode:Brain Revolution Girl
Artist:Reol
ArtistUnicode:Reol
Creator:WalterandAaron
Version:Normal
Source:Soundcloud
Tags:Vocaloid
BeatmapID:1866877
BeatmapSetID:893228

[Difficulty]
HPDrainRate:2
CircleSize:3
OverallDifficulty:2
ApproachRate:5
SliderMultiplier:1
SliderTickRate:1

[Events]
//Background and Video events
Video,0,"れをる 脳内革命ガール ill.bell.mp4"
0,0,"https_%2F%2Fimages.genius.com%2Fa0797daa8c3c0549b394f3e83a03d727.1000x472x1.jpg",0,0
//Break Periods
2,8382,14862
2,91382,96862
2,108382,112862
2,131882,146862
2,156132,162862
2,183882,190862
//Storyboard Layer 0 (Background)
//Storyboard Layer 1 (Fail)
//Storyboard Layer 2 (Pass)
//Storyboard Layer 3 (Foreground)
//Storyboard Sound Samples

[TimingPoints]
182,250,4,2,0,31,1,0
8183,-100,4,1,0,75,0,0
16182,-100,4,1,0,100,0,0
24182,-100,4,3,0,100,0,0
31432,-100,4,2,0,100,0,0
48182,-100,4,2,0,100,0,0
63932,-166.666666666667,4,2,0,100,0,0
71682,-100,4,1,0,100,0,0
72182,-66.6666666666667,4,1,0,100,0,0
88182,-100,4,3,0,100,0,0
92182,-133.333333333333,4,2,0,70,0,0
116182,-133.333333333333,4,1,0,100,0,0
124182,-133.333333333333,4,2,0,100,0,0
148182,-200,4,2,0,70,0,0
156182,-100,4,2,0,80,0,0
164182,-50,4,3,0,100,0,0
192182,-100,4,1,0,100,0,0
200182,-100,4,1,0,75,0,0

[HitObjects]
256,48,182,5,0,0:0:0:0:
256,192,682,1,0,0:0:0:0:
256,336,1182,1,0,0:0:0:0:
256,192,1682,1,0,0:0:0:0:
88,184,2182,1,0,0:0:0:0:
256,192,2682,1,0,0:0:0:0:
256,192,2932,1,0,0:0:0:0:
256,192,3182,1,0,0:0:0:0:
408,192,3682,1,0,0:0:0:0:
256,192,4182,2,0,P|192:176|104:200,1,100
120,240,4682,2,0,L|280:240,1,100
256,192,5182,2,0,P|320:176|408:200,1,100
392,240,5682,2,0,L|232:240,1,100
256,192,6182,12,0,8182,0:0:0:0:
256,320,16182,5,0,0:0:0:0:
256,256,16432,1,0,0:0:0:0:
256,200,16682,1,0,0:0:0:0:
256,136,16932,1,0,0:0:0:0:
256,64,17182,5,0,0:0:0:0:
224,120,17432,1,0,0:0:0:0:
200,184,17682,1,0,0:0:0:0:
208,248,17932,1,0,0:0:0:0:
216,280,18182,6,0,P|288:328|368:304,3,100
336,312,19182,2,0,P|416:280|440:208,1,100
432,216,19682,2,0,L|432:80,1,100
392,88,20182,2,0,P|296:176|200:152,1,200
296,128,21182,2,0,B|184:184|168:288|240:296,1,200
256,192,22182,12,0,23182,0:0:0:0:
256,32,24182,6,0,L|256:120,1,50
256,136,24432,2,0,L|256:256,1,100
256,320,24932,1,0,0:0:0:0:
142,305,25182,6,0,L|205:242,1,50
216,231,25432,2,0,L|301:146,1,100
346,101,25932,1,0,0:0:0:0:
256,32,26182,6,0,L|256:120,1,50
256,136,26432,2,0,L|256:256,1,100
256,320,26932,1,0,0:0:0:0:
96,192,27182,6,0,L|184:192,1,50
200,192,27432,2,0,L|320:191,1,100
384,192,27932,1,0,0:0:0:0:
256,48,28182,6,0,P|176:88|168:120,1,100
240,128,28682,2,0,P|280:192|344:192,1,100
352,144,29182,2,0,P|376:192|360:248,1,100
304,200,29682,1,0,0:0:0:0:
304,200,29932,1,0,0:0:0:0:
256,192,30057,12,0,31682,0:0:0:0:
264,72,32182,6,0,P|200:112|160:160,1,100
264,160,32682,2,0,P|304:208|312:256,1,100
248,232,33182,2,0,P|176:280|136:272,3,100
256,72,34182,6,0,P|328:88|368:128,1,100
368,144,34682,2,0,P|384:232|424:272,1,100
424,272,35182,2,0,B|400:336|336:344|328:288,2,100
296,56,35932,6,0,L|240:112,1,66.6666666666666
248,103,36182,1,0,0:0:0:0:
240,160,36682,6,0,L|304:200,1,66.6666666666666
296,195,36932,1,0,0:0:0:0:
288,248,37182,6,0,L|216:280,1,66.6666666666666
227,275,37432,1,0,0:0:0:0:
256,192,37932,5,0,0:0:0:0:
256,192,38057,1,0,0:0:0:0:
256,192,38182,1,0,0:0:0:0:
256,112,38432,1,0,0:0:0:0:
256,192,38682,1,0,0:0:0:0:
256,272,38932,1,0,0:0:0:0:
208,248,39182,1,0,0:0:0:0:
256,184,39432,1,0,0:0:0:0:
328,120,39682,1,0,0:0:0:0:
256,192,39932,1,0,0:0:0:0:
256,192,40182,12,0,43682,0:0:0:0:
136,104,44182,6,0,P|224:96|400:232,1,300
376,280,45182,2,0,P|288:288|112:152,1,300
200,160,46182,6,0,P|264:152|336:184,1,100
312,216,46682,2,0,P|256:232|208:216,1,100
256,192,47182,1,0,0:0:0:0:
256,48,48182,6,0,L|256:159,1,100
256,148,48557,1,0,0:0:0:0:
256,148,48682,2,0,L|256:280,1,100
256,248,49057,1,0,0:0:0:0:
264,256,49182,2,0,L|264:360,3,100
264,352,50182,6,0,P|384:256|320:128,1,300
174,245,51182,2,0,P|132:111|248:32,1,300
360,168,52182,6,0,B|360:264|352:280|311:230,1,100
288,200,52682,2,0,B|288:104|280:88|239:138,1,100
208,168,53182,2,0,B|208:264|200:280|159:230,1,100
136,200,53682,2,0,B|136:104|128:88|87:138,1,100
304,160,54182,6,0,L|352:112,1,50
304,232,54557,2,0,L|352:280,1,50
224,176,54932,2,0,L|168:224,1,50
248,32,56182,6,0,B|136:136|176:272|296:288,1,300
264,352,57182,6,0,B|376:248|336:112|216:96,1,300
416,184,58182,6,0,B|312:72|176:112|160:232,1,300
96,200,59182,6,0,B|200:312|336:272|352:152,1,300
352,144,60182,5,0,0:0:0:0:
48,32,60932,1,0,0:0:0:0:
216,56,61432,1,0,0:0:0:0:
304,168,62182,2,0,B|248:248|208:256|272:256,3,100
264,192,63432,1,0,0:0:0:0:
264,192,63682,1,0,0:0:0:0:
256,192,64182,12,0,65932,0:0:0:0:
256,192,66182,12,0,67682,0:0:0:0:
152,112,68182,6,0,B|200:96|200:96|184:160|224:120|256:120,1,119.999996337891
360,272,69182,6,0,B|312:288|312:288|328:224|288:264|256:264,1,119.999996337891
256,192,70182,5,0,0:0:0:0:
256,192,70432,1,0,0:0:0:0:
256,192,70682,1,0,0:0:0:0:
256,192,70932,1,0,0:0:0:0:
256,192,71182,1,0,0:0:0:0:
256,88,71682,6,0,P|216:152|192:232,1,100
192,248,72182,6,0,B|320:256|384:208|376:208,3,150.000005722046
336,104,73182,2,0,P|256:104|184:136,3,150.000005722046
256,144,74182,2,0,L|256:304,1,150.000005722046
360,304,74682,5,0,0:0:0:0:
360,304,74848,1,0,0:0:0:0:
360,304,75015,1,0,0:0:0:0:
360,304,75182,2,0,P|432:248|456:160,1,150.000005722046
448,192,75682,2,0,P|408:128|304:136,1,150.000005722046
304,56,76182,6,0,L|248:136,1,75.0000028610231
224,168,76432,2,0,L|120:296,2,150.000005722046
184,104,77182,2,0,L|256:176,1,75.0000028610231
288,208,77432,2,0,L|416:320,2,150.000005722046
240,144,78182,5,0,0:0:0:0:
280,144,78432,1,0,0:0:0:0:
400,200,78932,1,0,0:0:0:0:
352,288,79432,5,8,0:0:0:0:
328,280,79682,1,8,0:0:0:0:
304,272,79932,1,8,0:0:0:0:
272,232,80182,5,0,0:0:0:0:
136,72,80682,1,0,0:0:0:0:
304,80,81057,1,0,0:0:0:0:
304,80,81182,1,0,0:0:0:0:
360,88,81432,1,0,0:0:0:0:
416,192,81682,2,0,P|376:288|200:272,1,300.000011444092
168,208,82682,2,0,P|152:168|192:104,2,100.000003814697
240,264,83182,2,0,P|336:280|400:256,1,150.000005722046
424,240,83682,1,0,0:0:0:0:
280,160,84432,2,0,P|200:136|144:160,1,75.0000028610231
168,152,84682,2,0,B|200:208|240:216|232:208,3,75.0000028610231
304,264,85182,2,0,P|376:192|376:120,1,150.000005722046
368,120,85682,2,0,B|304:64|200:112|200:144,1,150.000005722046
256,192,86182,12,0,87682,0:0:0:0:
248,72,88182,6,0,B|144:120|128:136|136:152|232:304,1,300
264,312,89182,6,0,B|368:264|384:248|376:232|280:80,1,300
256,192,90182,12,0,91182,0:0:0:0:
256,192,98182,12,0,99682,0:0:0:0:
296,104,100182,6,0,P|248:80|208:80,1,75.0000028610231
200,160,100682,2,0,P|240:192|288:192,1,75.0000028610231
304,208,101182,6,0,P|339:217|366:243,1,75.0000028610231
338,325,101682,2,0,P|301:318|269:299,1,75.0000028610231
224,280,102182,2,0,P|176:240|168:200,1,75.0000028610231
264,216,102682,2,0,P|272:152|264:120,1,75.0000028610231
288,280,103182,2,0,P|336:240|344:200,2,75.0000028610231
200,104,104182,2,0,P|152:64|144:24,3,75.0000028610231
240,144,105182,2,0,P|288:184|296:224,3,75.0000028610231
256,192,106182,12,0,108182,0:0:0:0:
256,192,114182,12,0,115682,0:0:0:0:
336,56,116182,6,0,P|224:72|184:112,1,150.000005722046
232,144,117182,2,0,P|328:192|384:176,1,150.000005722046
240,208,118182,6,0,P|192:224|184:240,1,37.5000014305115
168,256,118432,2,0,P|136:288|88:288,1,75.0000028610231
352,160,119182,2,0,L|304:184,1,37.5000014305115
304,184,119432,1,0,0:0:0:0:
120,96,120182,5,0,0:0:0:0:
432,272,120932,1,0,0:0:0:0:
256,184,121182,1,0,0:0:0:0:
256,192,121598,1,0,0:0:0:0:
336,80,124182,2,0,B|272:88|184:232|352:296,1,300.000011444092
176,304,126182,2,0,B|240:296|328:152|160:88,1,300.000011444092
136,192,127932,2,0,L|216:192,1,75.0000028610231
360,192,128431,2,0,L|272:192,1,75.0000028610231
256,88,128931,2,0,L|256:176,1,75.0000028610231
256,288,129431,2,0,L|256:208,1,75.0000028610231
256,192,130181,12,0,131682,0:0:0:0:
256,192,148182,5,0,0:0:0:0:
256,192,148432,1,0,0:0:0:0:
256,192,149182,5,0,0:0:0:0:
256,192,149432,1,0,0:0:0:0:
256,192,150182,5,0,0:0:0:0:
256,192,150432,1,0,0:0:0:0:
256,192,151182,5,0,0:0:0:0:
256,192,151432,1,0,0:0:0:0:
256,192,152182,5,0,0:0:0:0:
256,192,152432,1,0,0:0:0:0:
256,192,153182,5,0,0:0:0:0:
256,192,153432,1,0,0:0:0:0:
256,192,154182,5,0,0:0:0:0:
256,192,154432,1,0,0:0:0:0:
256,192,154682,1,0,0:0:0:0:
256,192,154932,1,0,0:0:0:0:
256,192,155182,1,0,0:0:0:0:
256,192,155432,1,0,0:0:0:0:
256,192,155682,1,0,0:0:0:0:
256,192,155932,1,0,0:0:0:0:
232,104,164182,6,0,B|136:168|96:272|240:312,1,200
224,288,164682,2,0,L|296:56,1,200
344,128,165182,6,0,B|366:241|321:342|191:269,3,200
256,192,166182,1,0,0:0:0:0:
256,72,166682,5,0,0:0:0:0:
256,144,166848,1,0,0:0:0:0:
256,216,167015,1,0,0:0:0:0:
256,296,167182,2,0,B|176:336|72:272|72:232,1,200
104,144,167682,2,0,B|184:104|288:168|288:208,1,200
256,320,168182,6,0,B|408:192|408:192|256:56|256:56|104:192|104:192|184:280,1,700
193,281,169182,1,0,0:0:0:0:
256,192,169432,1,0,0:0:0:0:
318,102,169682,1,0,0:0:0:0:
256,192,169932,1,0,0:0:0:0:
256,88,170182,5,10,0:0:0:0:
256,296,170682,1,10,0:0:0:0:
256,192,171182,1,10,0:0:0:0:
256,192,171432,1,10,0:0:0:0:
256,192,171682,1,10,0:0:0:0:
256,56,172182,6,0,P|176:136|184:240,3,200
256,240,173182,2,0,P|400:240|440:160,1,200
352,200,173682,2,0,P|320:104|112:232,1,400
256,192,174682,6,0,P|200:320|152:232,1,266.666666666667
144,224,175182,1,0,0:0:0:0:
184,144,175432,1,0,0:0:0:0:
144,224,175682,1,0,0:0:0:0:
88,80,176182,6,0,B|208:80|208:80|128:160|400:248|304:56,1,400
424,304,177182,2,0,B|304:304|304:304|384:224|112:136|208:328,1,400
256,192,178182,12,0,179682,0:0:0:0:
256,56,180182,6,0,P|160:136|312:360,1,400
288,352,181182,2,0,B|368:256|368:256|256:256|392:136|392:136|288:128|456:48,1,400
256,192,183432,5,8,0:0:0:0:
256,192,183682,1,8,0:0:0:0:
256,320,192182,5,0,0:0:0:0:
256,256,192432,1,0,0:0:0:0:
256,200,192682,1,0,0:0:0:0:
256,136,192932,1,0,0:0:0:0:
256,64,193182,5,0,0:0:0:0:
224,120,193432,1,0,0:0:0:0:
200,184,193682,1,0,0:0:0:0:
208,248,193932,1,0,0:0:0:0:
216,280,194182,6,0,P|288:328|368:304,3,100
336,312,195182,2,0,P|416:280|440:208,1,100
432,216,195682,2,0,L|432:80,1,100
392,88,196182,2,0,P|296:176|200:152,1,200
296,128,197182,2,0,B|184:184|168:288|240:296,1,200
256,192,198182,12,0,199182,0:0:0:0:
256,32,200182,6,0,L|256:120,1,50
256,136,200432,2,0,L|256:256,1,100
256,320,200932,1,0,0:0:0:0:
142,305,201182,6,0,L|205:242,1,50
216,231,201432,2,0,L|301:146,1,100
346,101,201932,1,0,0:0:0:0:
256,32,202182,6,0,L|256:120,1,50
256,136,202432,2,0,L|256:256,1,100
256,320,202932,1,0,0:0:0:0:
96,192,203182,6,0,L|184:192,1,50
200,192,203432,2,0,L|320:191,1,100
384,192,203932,1,0,0:0:0:0:
256,48,204182,6,0,P|176:88|168:120,1,100
240,128,204682,2,0,P|280:192|344:192,1,100
352,144,205182,2,0,P|376:192|360:248,1,100
304,200,205682,1,0,0:0:0:0:
304,200,205932,1,0,0:0:0:0:
256,192,206057,12,0,207682,0:0:0:0:
264,72,208182,6,0,P|200:112|160:160,1,100
264,160,208682,2,0,P|304:208|312:256,1,100
248,232,209182,2,0,P|176:280|136:272,3,100
256,72,210182,6,0,P|328:88|368:128,1,100
368,144,210682,2,0,P|384:232|424:272,1,100
424,272,211182,2,0,B|400:336|336:344|328:288,2,100
296,56,211932,6,0,L|240:112,1,66.6666666666666
248,103,212182,1,0,0:0:0:0:
240,160,212682,6,0,L|304:200,1,66.6666666666666
296,195,212932,1,0,0:0:0:0:
288,248,213182,6,0,L|216:280,1,66.6666666666666
227,275,213432,1,0,0:0:0:0:
256,192,213932,5,0,0:0:0:0:
256,192,214057,1,0,0:0:0:0:
256,192,214182,1,0,0:0:0:0:
256,112,214432,1,0,0:0:0:0:
256,192,214682,1,0,0:0:0:0:
256,272,214932,1,0,0:0:0:0:
208,248,215182,1,0,0:0:0:0:
256,184,215432,1,0,0:0:0:0:
328,120,215682,1,0,0:0:0:0:
256,192,215932,1,0,0:0:0:0:
256,192,216182,5,14,0:0:0:0:
